  0
SECTION
  2
HEADER
  9
$ACADVER
  1
AC1024
  9
$ACADMAINTVER
 70
   157
  9
$DWGCODEPAGE
  3
ANSI_1252
  9
$LASTSAVEDBY
  1
PW003
  9
$INSBASE
 10
0.0
 20
0.0
 30
0.0
  9
$EXTMIN
 10
324.9041189891666
 20
-79.47424684112532
 30
0.0
  9
$EXTMAX
 10
1036.447308500296
 20
419.5681596302754
 30
0.4
  9
$LIMMIN
 10
0.0
 20
0.0
  9
$LIMMAX
 10
12.0
 20
9.0
  9
$ORTHOMODE
 70
     1
  9
$REGENMODE
 70
     1
  9
$FILLMODE
 70
     1
  9
$QTEXTMODE
 70
     0
  9
$MIRRTEXT
 70
     0
  9
$LTSCALE
 40
25.0
  9
$ATTMODE
 70
     1
  9
$TEXTSIZE
 40
5.0
  9
$TRACEWID
 40
0.05
  9
$TEXTSTYLE
  7
STANDARD
  9
$CLAYER
  8
0
  9
$CELTYPE
  6
BYLAYER
  9
$CECOLOR
 62
   256
  9
$CELTSCALE
 40
1.0
  9
$DISPSILH
 70
     0
  9
$DIMSCALE
 40
1.0
  9
$DIMASZ
 40
15.0
  9
$DIMEXO
 40
0.0625
  9
$DIMDLI
 40
0.38
  9
$DIMRND
 40
0.0
  9
$DIMDLE
 40
0.0
  9
$DIMEXE
 40
0.18
  9
$DIMTP
 40
0.0
  9
$DIMTM
 40
0.0
  9
$DIMTXT
 40
25.0
  9
$DIMCEN
 40
0.09
  9
$DIMTSZ
 40
0.0
  9
$DIMTOL
 70
     0
  9
$DIMLIM
 70
     0
  9
$DIMTIH
 70
     1
  9
$DIMTOH
 70
     1
  9
$DIMSE1
 70
     0
  9
$DIMSE2
 70
     0
  9
$DIMTAD
 70
     0
  9
$DIMZIN
 70
     0
  9
$DIMBLK
  1

  9
$DIMASO
 70
     1
  9
$DIMSHO
 70
     1
  9
$DIMPOST
  1

  9
$DIMAPOST
  1

  9
$DIMALT
 70
     0
  9
$DIMALTD
 70
     2
  9
$DIMALTF
 40
25.4
  9
$DIMLFAC
 40
1.0
  9
$DIMTOFL
 70
     0
  9
$DIMTVP
 40
0.0
  9
$DIMTIX
 70
     0
  9
$DIMSOXD
 70
     0
  9
$DIMSAH
 70
     0
  9
$DIMBLK1
  1

  9
$DIMBLK2
  1

  9
$DIMSTYLE
  2
STANDARD
  9
$DIMCLRD
 70
     0
  9
$DIMCLRE
 70
     0
  9
$DIMCLRT
 70
     1
  9
$DIMTFAC
 40
1.0
  9
$DIMGAP
 40
0.09
  9
$DIMJUST
 70
     0
  9
$DIMSD1
 70
     0
  9
$DIMSD2
 70
     0
  9
$DIMTOLJ
 70
     1
  9
$DIMTZIN
 70
     0
  9
$DIMALTZ
 70
     0
  9
$DIMALTTZ
 70
     0
  9
$DIMUPT
 70
     0
  9
$DIMDEC
 70
     2
  9
$DIMTDEC
 70
     2
  9
$DIMALTU
 70
     2
  9
$DIMALTTD
 70
     2
  9
$DIMTXSTY
  7
STANDARD
  9
$DIMAUNIT
 70
     0
  9
$DIMADEC
 70
     0
  9
$DIMALTRND
 40
0.0
  9
$DIMAZIN
 70
     0
  9
$DIMDSEP
 70
    46
  9
$DIMATFIT
 70
     3
  9
$DIMFRAC
 70
     0
  9
$DIMLDRBLK
  1

  9
$DIMLUNIT
 70
     2
  9
$DIMLWD
 70
    -2
  9
$DIMLWE
 70
    -2
  9
$DIMTMOVE
 70
     0
  9
$DIMFXL
 40
1.0
  9
$DIMFXLON
 70
     0
  9
$DIMJOGANG
 40
0.7853981633974483
  9
$DIMTFILL
 70
     0
  9
$DIMTFILLCLR
 70
     0
  9
$DIMARCSYM
 70
     0
  9
$DIMLTYPE
  6

  9
$DIMLTEX1
  6

  9
$DIMLTEX2
  6

  9
$DIMTXTDIRECTION
 70
     0
  9
$LUNITS
 70
     2
  9
$LUPREC
 70
     4
  9
$SKETCHINC
 40
0.1
  9
$FILLETRAD
 40
20.0
  9
$AUNITS
 70
     0
  9
$AUPREC
 70
     0
  9
$MENU
  1
acad
  9
$ELEVATION
 40
0.0
  9
$PELEVATION
 40
0.0
  9
$THICKNESS
 40
0.4
  9
$LIMCHECK
 70
     0
  9
$CHAMFERA
 40
0.5
  9
$CHAMFERB
 40
0.5
  9
$CHAMFERC
 40
1.0
  9
$CHAMFERD
 40
0.0
  9
$SKPOLY
 70
     0
  9
$TDCREATE
 40
2451093.087950000
  9
$TDUCREATE
 40
2451093.337950000
  9
$TDUPDATE
 40
2457415.458503553
  9
$TDUUPDATE
 40
2457415.708503553
  9
$TDINDWG
 40
8.3186002315
  9
$TDUSRTIMER
 40
8.3186002315
  9
$USRTIMER
 70
     1
  9
$ANGBASE
 50
0.0
  9
$ANGDIR
 70
     0
  9
$PDMODE
 70
     3
  9
$PDSIZE
 40
0.0
  9
$PLINEWID
 40
0.0
  9
$SPLFRAME
 70
     0
  9
$SPLINETYPE
 70
     6
  9
$SPLINESEGS
 70
     8
  9
$HANDSEED
  5
12191
  9
$SURFTAB1
 70
     6
  9
$SURFTAB2
 70
     6
  9
$SURFTYPE
 70
     6
  9
$SURFU
 70
     6
  9
$SURFV
 70
     6
  9
$UCSBASE
  2

  9
$UCSNAME
  2

  9
$UCSORG
 10
0.0
 20
0.0
 30
0.0
  9
$UCSXDIR
 10
1.0
 20
0.0
 30
0.0
  9
$UCSYDIR
 10
0.0
 20
1.0
 30
0.0
  9
$UCSORTHOREF
  2

  9
$UCSORTHOVIEW
 70
     0
  9
$UCSORGTOP
 10
0.0
 20
0.0
 30
0.0
  9
$UCSORGBOTTOM
 10
0.0
 20
0.0
 30
0.0
  9
$UCSORGLEFT
 10
0.0
 20
0.0
 30
0.0
  9
$UCSORGRIGHT
 10
0.0
 20
0.0
 30
0.0
  9
$UCSORGFRONT
 10
0.0
 20
0.0
 30
0.0
  9
$UCSORGBACK
 10
0.0
 20
0.0
 30
0.0
  9
$PUCSBASE
  2

  9
$PUCSNAME
  2

  9
$PUCSORG
 10
0.0
 20
0.0
 30
0.0
  9
$PUCSXDIR
 10
1.0
 20
0.0
 30
0.0
  9
$PUCSYDIR
 10
0.0
 20
1.0
 30
0.0
  9
$PUCSORTHOREF
  2

  9
$PUCSORTHOVIEW
 70
     0
  9
$PUCSORGTOP
 10
0.0
 20
0.0
 30
0.0
  9
$PUCSORGBOTTOM
 10
0.0
 20
0.0
 30
0.0
  9
$PUCSORGLEFT
 10
0.0
 20
0.0
 30
0.0
  9
$PUCSORGRIGHT
 10
0.0
 20
0.0
 30
0.0
  9
$PUCSORGFRONT
 10
0.0
 20
0.0
 30
0.0
  9
$PUCSORGBACK
 10
0.0
 20
0.0
 30
0.0
  9
$USERI1
 70
     0
  9
$USERI2
 70
     0
  9
$USERI3
 70
     0
  9
$USERI4
 70
     0
  9
$USERI5
 70
     0
  9
$USERR1
 40
0.0
  9
$USERR2
 40
0.0
  9
$USERR3
 40
0.0
  9
$USERR4
 40
0.0
  9
$USERR5
 40
0.0
  9
$WORLDVIEW
 70
     1
  9
$SHADEDGE
 70
     3
  9
$SHADEDIF
 70
    70
  9
$TILEMODE
 70
     1
  9
$MAXACTVP
 70
    48
  9
$PINSBASE
 10
0.0
 20
0.0
 30
0.0
  9
$PLIMCHECK
 70
     0
  9
$PEXTMIN
 10
0.0
 20
0.0
 30
0.0
  9
$PEXTMAX
 10
826.0
 20
559.4330351521971
 30
0.4
  9
$PLIMMIN
 10
-20.93101888142316
 20
-27.03919993629285
  9
$PLIMMAX
 10
846.9057483457062
 20
586.4828184517015
  9
$UNITMODE
 70
     0
  9
$VISRETAIN
 70
     1
  9
$PLINEGEN
 70
     0
  9
$PSLTSCALE
 70
     1
  9
$TREEDEPTH
 70
  3020
  9
$CMLSTYLE
  2
STANDARD
  9
$CMLJUST
 70
     0
  9
$CMLSCALE
 40
1.0
  9
$PROXYGRAPHICS
 70
     1
  9
$MEASUREMENT
 70
     0
  9
$CELWEIGHT
370
    -1
  9
$ENDCAPS
280
     0
  9
$JOINSTYLE
280
     0
  9
$LWDISPLAY
290
     0
  9
$INSUNITS
 70
     0
  9
$HYPERLINKBASE
  1

  9
$STYLESHEET
  1
Carron Phoenix.ctb
  9
$XEDIT
290
     1
  9
$CEPSNTYPE
380
     0
  9
$PSTYLEMODE
290
     1
  9
$FINGERPRINTGUID
  2
{5823CA6D-C734-11D3-94EF-0060B0FBE80E}
  9
$VERSIONGUID
  2
{1C8AAB82-68F1-4A98-968D-556C07F6C5A4}
  9
$EXTNAMES
290
     1
  9
$PSVPSCALE
 40
0.0
  9
$OLESTARTUP
290
     0
  9
$SORTENTS
280
    96
  9
$INDEXCTL
280
     0
  9
$HIDETEXT
280
     0
  9
$XCLIPFRAME
280
     0
  9
$HALOGAP
280
     0
  9
$OBSCOLOR
 70
   257
  9
$OBSLTYPE
280
     0
  9
$INTERSECTIONDISPLAY
280
     0
  9
$INTERSECTIONCOLOR
 70
   257
  9
$DIMASSOC
280
     1
  9
$PROJECTNAME
  1

  9
$CAMERADISPLAY
290
     0
  9
$LENSLENGTH
 40
50.0
  9
$CAMERAHEIGHT
 40
0.0
  9
$STEPSPERSEC
 40
2.0
  9
$STEPSIZE
 40
6.0
  9
$3DDWFPREC
 40
2.0
  9
$PSOLWIDTH
 40
0.25
  9
$PSOLHEIGHT
 40
4.0
  9
$LOFTANG1
 40
1.570796326794896
  9
$LOFTANG2
 40
1.570796326794896
  9
$LOFTMAG1
 40
0.0
  9
$LOFTMAG2
 40
0.0
  9
$LOFTPARAM
 70
     7
  9
$LOFTNORMALS
280
     1
  9
$LATITUDE
 40
37.795
  9
$LONGITUDE
 40
-122.394
  9
$NORTHDIRECTION
 40
0.0
  9
$TIMEZONE
 70
 -8000
  9
$LIGHTGLYPHDISPLAY
280
     1
  9
$TILEMODELIGHTSYNCH
280
     1
  9
$CMATERIAL
347
1030E
  9
$SOLIDHIST
280
     0
  9
$SHOWHIST
280
     1
  9
$DWFFRAME
280
     2
  9
$DGNFRAME
280
     0
  9
$REALWORLDSCALE
290
     1
  9
$INTERFERECOLOR
 62
     1
  9
$INTERFEREOBJVS
345
10330
  9
$INTERFEREVPVS
346
10CDB
  9
$CSHADOW
280
     0
  9
$SHADOWPLANELOCATION
 40
0.0
  0
ENDSEC
  0
SECTION
  2
CLASSES
  0
CLASS
  1
DICTIONARYVAR
  2
AcDbDictionaryVar
  3
ObjectDBX Classes
 90
        0
 91
       11
280
     0
281
     0
  0
CLASS
  1
ACDBDICTIONARYWDFLT
  2
AcDbDictionaryWithDefault
  3
ObjectDBX Classes
 90
        0
 91
        1
280
     0
281
     0
  0
CLASS
  1
TABLESTYLE
  2
AcDbTableStyle
  3
ObjectDBX Classes
 90
     4095
 91
        1
280
     0
281
     0
  0
CLASS
  1
SORTENTSTABLE
  2
AcDbSortentsTable
  3
ObjectDBX Classes
 90
        0
 91
        3
280
     0
281
     0
  0
CLASS
  1
MATERIAL
  2
AcDbMaterial
  3
ObjectDBX Classes
 90
     1153
 91
        3
280
     0
281
     0
  0
CLASS
  1
VISUALSTYLE
  2
AcDbVisualStyle
  3
ObjectDBX Classes
 90
     4095
 91
       26
280
     0
281
     0
  0
CLASS
  1
SCALE
  2
AcDbScale
  3
ObjectDBX Classes
 90
     1153
 91
       33
280
     0
281
     0
  0
CLASS
  1
MLEADERSTYLE
  2
AcDbMLeaderStyle
  3
ACDB_MLEADERSTYLE_CLASS
 90
     4095
 91
        1
280
     0
281
     0
  0
CLASS
  1
CELLSTYLEMAP
  2
AcDbCellStyleMap
  3
ObjectDBX Classes
 90
     1152
 91
        1
280
     0
281
     0
  0
CLASS
  1
ACDBSECTIONVIEWSTYLE
  2
AcDbSectionViewStyle
  3
ObjectDBX Classes
 90
     1025
 91
        4
280
     0
281
     0
  0
CLASS
  1
ACDBDETAILVIEWSTYLE
  2
AcDbDetailViewStyle
  3
ObjectDBX Classes
 90
     1025
 91
        4
280
     0
281
     0
  0
CLASS
  1
ACME_DOCUMENT
  2
AcMeDbDoc
  3
AcMeServices
 90
     1024
 91
        2
280
     0
281
     0
  0
CLASS
  1
ACMESCOPE
  2
AcMeScope
  3
AcMeServices
 90
     1024
 91
        1
280
     0
281
     0
  0
CLASS
  1
ACMECOMMANDHISTORY
  2
AcMeCommandHistory
  3
AcMeServices
 90
     1024
 91
        1
280
     0
281
     0
  0
CLASS
  1
ACIMSYSVARMAN
  2
AcImSysVarManager
  3
AcMeServices
 90
     1024
 91
        3
280
     0
281
     0
  0
CLASS
  1
ACIMINTSYSVAR
  2
AcImIntSysVar
  3
AcMeServices
 90
     1024
 91
        3
280
     0
281
     0
  0
CLASS
  1
ACMESTATEMGR
  2
AcMeStateMgr
  3
AcMeServices
 90
     1024
 91
        1
280
     0
281
     0
  0
CLASS
  1
ACDBENTITYCACHE
  2
AcMeEntityCache
  3
AcMeServices
 90
     1024
 91
        1
280
     0
281
     0
  0
CLASS
  1
ACGREFMASTER
  2
AcGrefMaster
  3
AcAttribServices
 90
     1024
 91
        1
280
     0
281
     0
  0
CLASS
  1
ACME_DATABASE
  2
AcMeDbDatabase
  3
AcMeServices
 90
     1024
 91
        2
280
     0
281
     0
  0
CLASS
  1
ACRFINSADJUSTERMGR
  2
AcRfInsAdjusterMgr
  3
AcMeServices
 90
     1024
 91
        1
280
     0
281
     0
  0
CLASS
  1
ACGREFACADMASTER
  2
AcGrefacadMaster
  3
AcGrefServices
 90
     1024
 91
        1
280
     0
281
     0
  0
CLASS
  1
AMDTMENUSTATEMGR
  2
AmdtMenuStateMgr
  3
McadcomServices
 90
     1024
 91
        1
280
     0
281
     0
  0
CLASS
  1
AMDTMCOMMENUSTATE
  2
AmdtMcomMenuState
  3
McadcomServices
 90
     1024
 91
        1
280
     0
281
     0
  0
CLASS
  1
AMIMASTER
  2
AmiMaster
  3
AmiServices
 90
     1024
 91
        1
280
     0
281
     0
  0
CLASS
  1
AMGSETTINGSOBJ
  2
AmgSettingsObj
  3
"AcadM|Product Description: AutoCAD Mechanical|Company: Autodesk, Inc."
 90
     1024
 91
        2
280
     0
281
     0
  0
CLASS
  1
MAPIAMMOUDLE
  2
MApiAmModule
  3
MApiAmServices
 90
     1024
 91
        1
280
     0
281
     0
  0
CLASS
  1
ACIMSTRSYSVAR
  2
AcImStrSysVar
  3
AcMeServices
 90
     1024
 91
        5
280
     0
281
     0
  0
CLASS
  1
AMDTAMMENUSTATE
  2
AmdtAmMenuState
  3
DesignerAssemblies
 90
     1024
 91
        1
280
     0
281
     0
  0
CLASS
  1
ACAMPROJECT
  2
AcAmProject
  3
DesignerAssemblies
 90
     1024
 91
        1
280
     0
281
     0
  0
CLASS
  1
ACAMGRCOMPDEF
  2
AcAmGrCompDef
  3
DesignerAssemblies
 90
     1024
 91
        1
280
     0
281
     0
  0
CLASS
  1
ACAMCOMPDEF
  2
AcAmCompDef
  3
DesignerAssemblies
 90
     1024
 91
        1
280
     0
281
     0
  0
CLASS
  1
ACAMCOMPDEFMGR
  2
AcAmCompDefMgr
  3
DesignerAssemblies
 90
     1024
 91
        1
280
     0
281
     0
  0
CLASS
  1
AMCONTEXTMGR
  2
AcAmContextMgr
  3
DesignerAssemblies
 90
     1024
 91
        1
280
     0
281
     0
  0
CLASS
  1
ACAMCONTEXTMODELER
  2
AcAmContextModeler
  3
DesignerAssemblies
 90
     1024
 91
        1
280
     0
281
     0
  0
CLASS
  1
ACMDATADICTIONARY
  2
AcmDataDictionary
  3
"AcmSymBB|Product Description: AutoCAD Mechanical|Company: Autodesk, Inc."
 90
     1024
 91
        1
280
     0
281
     0
  0
CLASS
  1
ACAMGRCOMPDEFSET
  2
AcAmGrCompDefSet
  3
DesignerAssemblies
 90
     1024
 91
        1
280
     0
281
     0
  0
CLASS
  1
AMDTBROWSERDBTAB
  2
AmdtBrowserDbTab
  3
McadcomServices
 90
     1024
 91
        1
280
     0
281
     0
  0
CLASS
  1
CBROWSERAPPOBJECT
  2
CBrowserAppObject
  3
McadcomServices
 90
     1024
 91
        2
280
     0
281
     0
  0
CLASS
  1
DM_PLACEHOLDER
  2
AcDmSelsetPlaceholder
  3
McadcomServices
 90
     1024
 91
        1
280
     0
281
     0
  0
CLASS
  1
ACMSTANDARDANSI
  2
AcmStandardANSI
  3
"Amdt_StdImp|Product Description: AutoCAD Mechanical|Company: Autodesk, Inc."
 90
     1024
 91
        1
280
     0
281
     0
  0
CLASS
  1
ACMSURFSTANDARDANSI
  2
AcmSurfTextStdANSI
  3
"Amdt_StdImp|Product Description: AutoCAD Mechanical|Company: Autodesk, Inc."
 90
     1024
 91
        1
280
     0
281
     0
  0
CLASS
  1
ACMFCFSTANDARDANSI
  2
AcmFCFStdANSI
  3
"Amdt_StdImp|Product Description: AutoCAD Mechanical|Company: Autodesk, Inc."
 90
     1024
 91
        1
280
     0
281
     0
  0
CLASS
  1
ACMWELDSTANDARDANSI
  2
AcmWeldingStdANSI
  3
"Amdt_StdImp|Product Description: AutoCAD Mechanical|Company: Autodesk, Inc."
 90
     1024
 91
        1
280
     0
281
     0
  0
CLASS
  1
ACMIDSTANDARDANSI
  2
AcmIdStdANSI
  3
"Amdt_StdImp|Product Description: AutoCAD Mechanical|Company: Autodesk, Inc."
 90
     1024
 91
        1
280
     0
281
     0
  0
CLASS
  1
ACMDATUMSTANDARDANSI
  2
AcmDatumStdANSI
  3
"Amdt_StdImp|Product Description: AutoCAD Mechanical|Company: Autodesk, Inc."
 90
     1024
 91
        1
280
     0
281
     0
  0
CLASS
  1
ACMBOMSTANDARDANSI
  2
AcmBOMStdANSI
  3
"Amdt_StdImp|Product Description: AutoCAD Mechanical|Company: Autodesk, Inc."
 90
     1024
 91
        1
280
     0
281
     0
  0
CLASS
  1
ACMDETAILSTANDARDANSI
  2
AmdtDetailSymStdANSI
  3
"Amdt_StdImp|Product Description: AutoCAD Mechanical|Company: Autodesk, Inc."
 90
     1024
 91
        1
280
     0
281
     0
  0
CLASS
  1
ACMSECTIONSTANDARDANSI
  2
AmdtSectionSymStdANSI
  3
"Amdt_StdImp|Product Description: AutoCAD Mechanical|Company: Autodesk, Inc."
 90
     1024
 91
        1
280
     0
281
     0
  0
CLASS
  1
ACMCENTERLINESTANDARDANSI
  2
AmdtCenterLineStdANSI
  3
"Amdt_StdImp|Product Description: AutoCAD Mechanical|Company: Autodesk, Inc."
 90
     1024
 91
        1
280
     0
281
     0
  0
CLASS
  1
ACMTHREADLINESTANDARDANSI
  2
AmdtThreadLineStdANSI
  3
"Amdt_StdImp|Product Description: AutoCAD Mechanical|Company: Autodesk, Inc."
 90
     1024
 91
        1
280
     0
281
     0
  0
CLASS
  1
ACMNOTESTANDARDANSI
  2
AmdtNoteStdANSI
  3
"Amdt_StdImp|Product Description: AutoCAD Mechanical|Company: Autodesk, Inc."
 90
     1024
 91
        1
280
     0
281
     0
  0
CLASS
  1
ACMTAPERSTANDARDANSI
  2
AcmTaperStdANSI
  3
"Amdt_StdImp|Product Description: AutoCAD Mechanical|Company: Autodesk, Inc."
 90
     1024
 91
        1
280
     0
281
     0
  0
CLASS
  1
ACMANOOTATIONVIEWSTANDARDANSI
  2
AmdtAnViewStdANSI
  3
"Amdt_StdImp|Product Description: AutoCAD Mechanical|Company: Autodesk, Inc."
 90
     1024
 91
        1
280
     0
281
     0
  0
CLASS
  1
ACAMGLAYSTD
  2
AcAmgLayStd
  3
"AmgLay|Product Description: AutoCAD Mechanical|Company: Autodesk, Inc."
 90
     1024
 91
        2
280
     0
281
     0
  0
CLASS
  1
ACAMGDIMSTD
  2
AcAmgDimStd
  3
"AmgDim|Product Description: AutoCAD Mechanical|Company: Autodesk, Inc."
 90
     1024
 91
        2
280
     0
281
     0
  0
CLASS
  1
AMGOBJPROPCFG
  2
AmgObjPropCfg
  3
"AmgLay|Product Description: AutoCAD Mechanical|Company: Autodesk, Inc."
 90
     1024
 91
        1
280
     0
281
     0
  0
CLASS
  1
ACAMGHOLECHARTSTDANSI
  2
AcAmgHoleChartStdANSI
  3
AmgDim|Product Description: AutoCAD Mechanical|Company: Autodesk, Inc.
 90
     1024
 91
        1
280
     0
281
     0
  0
CLASS
  1
ACAMGTITLESTD
  2
AcAmgTitleStd
  3
"AmgTitle|Product Description: AutoCAD Mechanical|Company: Autodesk, Inc."
 90
     1024
 91
        2
280
     0
281
     0
  0
CLASS
  1
ACMSECTIONSTANDARDCUSTOM
  2
AmdtSectionSymStdCustom
  3
"Amdt_StdImp|Product Description: AutoCAD Mechanical|Company: Autodesk, Inc."
 90
     1024
 91
        4
280
     0
281
     0
  0
CLASS
  1
ACMDETAILTANDARDCUSTOM
  2
AmdtDetailSymStdCustom
  3
"Amdt_StdImp|Product Description: AutoCAD Mechanical|Company: Autodesk, Inc."
 90
     1024
 91
        4
280
     0
281
     0
  0
CLASS
  1
FIELD
  2
AcDbField
  3
ObjectDBX Classes
 90
     1152
 91
        7
280
     0
281
     0
  0
CLASS
  1
FIELDLIST
  2
AcDbFieldList
  3
ObjectDBX Classes
 90
     1152
 91
        1
280
     0
281
     0
  0
CLASS
  1
AMDTNOTETEMPLATEDB
  2
AmdtNoteTemplateDB
  3
AcmSymBB|Product Description: AutoCAD Mechanical|Company: Autodesk, Inc.
 90
     1024
 91
       14
280
     0
281
     0
  0
CLASS
  1
EXACXREFPANELOBJECT
  2
ExAcXREFPanelObject
  3
EXAC_ESW
 90
     1025
 91
        2
280
     0
281
     0
  0
CLASS
  1
NPOCOLLECTION
  2
AcDbImpNonPersistentObjectsCollection
  3
ObjectDBX Classes
 90
     1153
 91
        1
280
     0
281
     0
  0
CLASS
  1
ACAMGFILTERDAT
  2
AcAmgFilterDat
  3
"AcadM|Product Description: AutoCAD Mechanical|Company: Autodesk, Inc."
 90
     1024
 91
        6
280
     0
281
     0
  0
CLASS
  1
CAMSSTRUCTBTNSTATE
  2
StructBtnState
  3
DesignerAssemblies
 90
     1024
 91
        1
280
     0
281
     0
  0
CLASS
  1
ACMSTANDARDISO
  2
AcmStandardISO
  3
"Amdt_StdImp|Product Description: AutoCAD Mechanical|Company: Autodesk, Inc."
 90
     1024
 91
        1
280
     0
281
     0
  0
CLASS
  1
AMDTEDGESTANDARDISO13715
  2
AmdtEdgeStdISO13715
  3
"Amdt_StdImp|Product Description: AutoCAD Mechanical|Company: Autodesk, Inc."
 90
     1024
 91
        1
280
     0
281
     0
  0
CLASS
  1
ACMSURFSTANDARDISO2002
  2
AcmSurfTextStdISO2002
  3
"Amdt_StdImp|Product Description: AutoCAD Mechanical|Company: Autodesk, Inc."
 90
     1024
 91
        1
280
     0
281
     0
  0
CLASS
  1
ACMFCFSTANDARDISO2004
  2
AcmFCFStdISO2004
  3
"Amdt_StdImp|Product Description: AutoCAD Mechanical|Company: Autodesk, Inc."
 90
     1024
 91
        1
280
     0
281
     0
  0
CLASS
  1
ACMWELDSTANDARDISO
  2
AcmWeldingStdISO
  3
"Amdt_StdImp|Product Description: AutoCAD Mechanical|Company: Autodesk, Inc."
 90
     1024
 91
        1
280
     0
281
     0
  0
CLASS
  1
ACMIDSTANDARDISO2004
  2
AcmIdStdISO2004
  3
"Amdt_StdImp|Product Description: AutoCAD Mechanical|Company: Autodesk, Inc."
 90
     1024
 91
        1
280
     0
281
     0
  0
CLASS
  1
ACMDATUMSTANDARDISO
  2
AcmDatumStdISO
  3
"Amdt_StdImp|Product Description: AutoCAD Mechanical|Company: Autodesk, Inc."
 90
     1024
 91
        1
280
     0
281
     0
  0
CLASS
  1
ACMBOMSTANDARDISO
  2
AcmBOMStdISO
  3
"Amdt_StdImp|Product Description: AutoCAD Mechanical|Company: Autodesk, Inc."
 90
     1024
 91
        1
280
     0
281
     0
  0
CLASS
  1
ACMDETAILSTANDARDISO
  2
AmdtDetailSymStdISO
  3
"Amdt_StdImp|Product Description: AutoCAD Mechanical|Company: Autodesk, Inc."
 90
     1024
 91
        1
280
     0
281
     0
  0
CLASS
  1
ACMSECTIONSTANDARDISO2001
  2
AmdtSectionSymStdISO2001
  3
"Amdt_StdImp|Product Description: AutoCAD Mechanical|Company: Autodesk, Inc."
 90
     1024
 91
        1
280
     0
281
     0
  0
CLASS
  1
ACMCENTERLINESTANDARDISO
  2
AmdtCenterLineStdISO
  3
"Amdt_StdImp|Product Description: AutoCAD Mechanical|Company: Autodesk, Inc."
 90
     1024
 91
        1
280
     0
281
     0
  0
CLASS
  1
ACMTHREADLINESTANDARDISO
  2
AmdtThreadLineStdISO
  3
"Amdt_StdImp|Product Description: AutoCAD Mechanical|Company: Autodesk, Inc."
 90
     1024
 91
        1
280
     0
281
     0
  0
CLASS
  1
ACMNOTESTANDARDISO
  2
AmdtNoteStdISO
  3
"Amdt_StdImp|Product Description: AutoCAD Mechanical|Company: Autodesk, Inc."
 90
     1024
 91
        1
280
     0
281
     0
  0
CLASS
  1
ACMTAPERSTANDARDISO
  2
AcmTaperStdISO
  3
"Amdt_StdImp|Product Description: AutoCAD Mechanical|Company: Autodesk, Inc."
 90
     1024
 91
        1
280
     0
281
     0
  0
CLASS
  1
ACMANOOTATIONVIEWSTANDARDISO
  2
AmdtAnViewStdISO
  3
"Amdt_StdImp|Product Description: AutoCAD Mechanical|Company: Autodesk, Inc."
 90
     1024
 91
        1
280
     0
281
     0
  0
CLASS
  1
ACAMGHOLECHARTSTDISO
  2
AcAmgHoleChartStdISO
  3
AmgDim|Product Description: AutoCAD Mechanical|Company: Autodesk, Inc.
 90
     1024
 91
        1
280
     0
281
     0
  0
ENDSEC
  0
SECTION
  2
TABLES
  0
TABLE
  2
VPORT
  5
8
102
{ACAD_XDICTIONARY
360
10CA6
102
}
330
0
100
AcDbSymbolTable
 70
     1
  0
VPORT
  5
102FD
330
8
100
AcDbSymbolTableRecord
100
AcDbViewportTableRecord
  2
*Active
 70
     0
 10
0.0
 20
0.0
 11
1.0
 21
1.0
 12
655.7490603405613
 22
116.2292677602138
 13
0.0
 23
0.0
 14
0.5
 24
0.5
 15
0.5
 25
0.5
 16
0.0
 26
0.0
 36
1.0
 17
0.0
 27
0.0
 37
0.0
 40
642.3338630841064
 41
1.746906636670416
 42
50.0
 43
0.0
 44
0.0
 50
0.0
 51
0.0
 71
     0
 72
   100
 73
     1
 74
     1
 75
     0
 76
     0
 77
     0
 78
     0
281
     0
 65
     0
110
0.0
120
0.0
130
0.0
111
1.0
121
0.0
131
0.0
112
0.0
122
1.0
132
0.0
 79
     0
146
0.0
348
1032C
 60
     3
 61
     5
292
     1
282
     1
141
0.0
142
0.0
 63
   250
421
  3355443
1001
ACAD_NAV_VCDISPLAY
1070
     3
  0
ENDTAB
  0
TABLE
  2
LTYPE
  5
5
330
0
100
AcDbSymbolTable
 70
    13
  0
LTYPE
  5
12
330
5
100
AcDbSymbolTableRecord
100
AcDbLinetypeTableRecord
  2
BYBLOCK
 70
     0
  3

 72
    65
 73
     0
 40
0.0
  0
LTYPE
  5
13
330
5
100
AcDbSymbolTableRecord
100
AcDbLinetypeTableRecord
  2
BYLAYER
 70
     0
  3

 72
    65
 73
     0
 40
0.0
  0
LTYPE
  5
14
330
5
100
AcDbSymbolTableRecord
100
AcDbLinetypeTableRecord
  2
CONTINUOUS
 70
     0
  3
Solid line
 72
    65
 73
     0
 40
0.0
  0
LTYPE
  5
32
330
5
100
AcDbSymbolTableRecord
100
AcDbLinetypeTableRecord
  2
CENTER2
 70
     0
  3
Center (.5x) ___ _ ___ _ ___ _ ___ _ ___ _ ___
 72
    65
 73
     4
 40
1.125
 49
0.75
 74
     0
 49
-0.125
 74
     0
 49
0.125
 74
     0
 49
-0.125
 74
     0
  0
LTYPE
  5
33
330
5
100
AcDbSymbolTableRecord
100
AcDbLinetypeTableRecord
  2
DASHED2
 70
     0
  3
Dashed (.5x) _ _ _ _ _ _ _ _ _ _ _ _ _ _ _ _ _
 72
    65
 73
     2
 40
0.375
 49
0.25
 74
     0
 49
-0.125
 74
     0
  0
LTYPE
  5
114
330
5
100
AcDbSymbolTableRecord
100
AcDbLinetypeTableRecord
  2
CENTER
 70
     0
  3
____ _ ____ _ ____ _ ____ _ ____ _ ____ _ ____
 72
    65
 73
     4
 40
2.0
 49
1.25
 74
     0
 49
-0.25
 74
     0
 49
0.25
 74
     0
 49
-0.25
 74
     0
  0
LTYPE
  5
1130E
330
5
100
AcDbSymbolTableRecord
100
AcDbLinetypeTableRecord
  2
HIDDEN
 70
     0
  3
Hidden __ __ __ __ __ __ __ __ __ __ __ __ __ _
 72
    65
 73
     2
 40
0.375
 49
0.25
 74
     0
 49
-0.125
 74
     0
  0
LTYPE
  5
1130F
330
5
100
AcDbSymbolTableRecord
100
AcDbLinetypeTableRecord
  2
PHANTOM2
 70
     0
  3
Phantom (.5x) ___ _ _ ___ _ _ ___ _ _ ___ _ _
 72
    65
 73
     6
 40
1.25
 49
0.625
 74
     0
 49
-0.125
 74
     0
 49
0.125
 74
     0
 49
-0.125
 74
     0
 49
0.125
 74
     0
 49
-0.125
 74
     0
  0
LTYPE
  5
1134C
330
5
100
AcDbSymbolTableRecord
100
AcDbLinetypeTableRecord
  2
HIDDEN2
 70
     0
  3
Hidden (.5x) _ _ _ _ _ _ _ _ _ _ _ _ _ _ _ _ _
 72
    65
 73
     2
 40
0.1875
 49
0.125
 74
     0
 49
-0.0625
 74
     0
  0
LTYPE
  5
1135C
330
5
100
AcDbSymbolTableRecord
100
AcDbLinetypeTableRecord
  2
ACANSTGB
 70
     0
  3
__ . . __ . .
 72
    65
 73
     6
 40
0.35433070866
 49
0.15748031496
 74
     0
 49
-0.03937007874
 74
     0
 49
0.03937007874
 74
     0
 49
-0.03937007874
 74
     0
 49
0.03937007874
 74
     0
 49
-0.03937007874
 74
     0
  0
LTYPE
  5
1135D
330
5
100
AcDbSymbolTableRecord
100
AcDbLinetypeTableRecord
  2
ACANSTGL
 70
     0
  3
_ _ _ _ _
 72
    65
 73
     2
 40
0.11811023622
 49
0.07874015748
 74
     0
 49
-0.03937007874
 74
     0
  0
LTYPE
  5
12110
330
5
100
AcDbSymbolTableRecord
100
AcDbLinetypeTableRecord
  2
ACISOWELD
 70
     0
  3
_ _ _ _ _
 72
    65
 73
     2
 40
2.0
 49
2.0
 74
     0
 49
-1.0
 74
     0
  0
LTYPE
  5
12111
330
5
100
AcDbSymbolTableRecord
100
AcDbLinetypeTableRecord
  2
ACISOTGL
 70
     0
  3
_ _ _ _ _
 72
    65
 73
     2
 40
3.0
 49
2.0
 74
     0
 49
-1.0
 74
     0
  0
LTYPE
  5
12112
330
5
100
AcDbSymbolTableRecord
100
AcDbLinetypeTableRecord
  2
ACISOTGB
 70
     0
  3
__ . . __ . .
 72
    65
 73
     6
 40
9.0
 49
4.0
 74
     0
 49
-1.0
 74
     0
 49
1.0
 74
     0
 49
-1.0
 74
     0
 49
1.0
 74
     0
 49
-1.0
 74
     0
  0
ENDTAB
  0
TABLE
  2
LAYER
  5
2
102
{ACAD_XDICTIONARY
360
D9A6
102
}
330
0
100
AcDbSymbolTable
 70
    10
  0
LAYER
  5
E
102
{ACAD_XDICTIONARY
360
10372
102
}
330
2
100
AcDbSymbolTableRecord
100
AcDbLayerTableRecord
  2
0
 70
     0
 62
     7
  6
CONTINUOUS
370
    -3
390
5C1E
347
1031E
  0
LAYER
  5
34
102
{ACAD_XDICTIONARY
360
10374
102
}
330
2
100
AcDbSymbolTableRecord
100
AcDbLayerTableRecord
  2
SHEET
 70
     0
 62
     7
  6
CONTINUOUS
370
    -3
390
5C1E
347
1031E
  0
LAYER
  5
36
102
{ACAD_XDICTIONARY
360
10376
102
}
330
2
100
AcDbSymbolTableRecord
100
AcDbLayerTableRecord
  2
CL
 70
     0
 62
     2
  6
CENTER2
370
    -3
390
5C1E
347
1031E
  0
LAYER
  5
38
102
{ACAD_XDICTIONARY
360
10378
102
}
330
2
100
AcDbSymbolTableRecord
100
AcDbLayerTableRecord
  2
VP
 70
     1
 62
     4
  6
CONTINUOUS
370
    -3
390
5C1E
347
1031E
  0
LAYER
  5
39
102
{ACAD_XDICTIONARY
360
1037A
102
}
330
2
100
AcDbSymbolTableRecord
100
AcDbLayerTableRecord
  2
SINK
 70
     0
 62
     4
  6
CONTINUOUS
370
    -3
390
5C1E
347
1031E
  0
LAYER
  5
E8
330
2
100
AcDbSymbolTableRecord
100
AcDbLayerTableRecord
  2
DEFPOINTS
 70
     0
 62
     7
  6
CONTINUOUS
290
     0
370
    -3
390
5C1E
347
1031E
  0
LAYER
  5
1D50
102
{ACAD_XDICTIONARY
360
1037C
102
}
330
2
100
AcDbSymbolTableRecord
100
AcDbLayerTableRecord
  2
HATCH
 70
     0
 62
     3
  6
CONTINUOUS
370
    -3
390
5C1E
347
1031E
  0
LAYER
  5
43B1
102
{ACAD_XDICTIONARY
360
1037E
102
}
330
2
100
AcDbSymbolTableRecord
100
AcDbLayerTableRecord
  2
DIM
 70
     0
 62
     1
  6
CONTINUOUS
370
    -3
390
5C1E
347
1031E
  0
LAYER
  5
113FF
330
2
100
AcDbSymbolTableRecord
100
AcDbLayerTableRecord
  2
AM_5
 70
     0
 62
     3
  6
CONTINUOUS
370
    15
390
5C1E
347
1031E
1001
AcAecLayerStandard
1000

1000

  0
LAYER
  5
11A82
102
{ACAD_XDICTIONARY
360
11A83
102
}
330
2
100
AcDbSymbolTableRecord
100
AcDbLayerTableRecord
  2
P-0000
 70
     0
 62
     7
  6
CONTINUOUS
370
    -3
390
5C1E
347
1031E
  0
ENDTAB
  0
TABLE
  2
STYLE
  5
3
330
0
100
AcDbSymbolTable
 70
    10
  0
STYLE
  5
F
330
3
100
AcDbSymbolTableRecord
100
AcDbTextStyleTableRecord
  2
STANDARD
 70
     0
 40
25.0
 41
1.0
 50
0.0
 71
     0
 42
5.0
  3
comic.ttf
  4

1001
ACAD
1000
Comic Sans MS
1071
       66
  0
STYLE
  5
3F
330
3
100
AcDbSymbolTableRecord
100
AcDbTextStyleTableRecord
  2
TITLE
 70
     0
 40
0.0
 41
1.0
 50
0.0
 71
     0
 42
4.0
  3
C:\R13\COM\fonts\eur_____.pfb
  4

  0
STYLE
  5
116
330
3
100
AcDbSymbolTableRecord
100
AcDbTextStyleTableRecord
  2
EUROROMAN
 70
     0
 40
0.5343811892451882
 41
1.0
 50
0.0
 71
     0
 42
0.5343811892451882
  3
eur_____.pfb
  4

  0
STYLE
  5
43B4
330
3
100
AcDbSymbolTableRecord
100
AcDbTextStyleTableRecord
  2
ROMANS
 70
     0
 40
5.0
 41
1.0
 50
0.0
 71
     0
 42
10.0
  3
romans
  4

  0
STYLE
  5
1135A
330
3
100
AcDbSymbolTableRecord
100
AcDbTextStyleTableRecord
  2
ACANSTS
 70
     0
 40
0.0
 41
1.0
 50
0.0
 71
     0
 42
5.0
  3
romans.shx
  4

  0
STYLE
  5
1135B
330
3
100
AcDbSymbolTableRecord
100
AcDbTextStyleTableRecord
  2
ACANSGDT
 70
     0
 40
0.0
 41
1.0
 50
0.0
 71
     0
 42
5.0
  3
amgdt.shx
  4

  0
STYLE
  5
11A84
330
3
100
AcDbSymbolTableRecord
100
AcDbTextStyleTableRecord
  2
Franke
 70
     0
 40
0.0
 41
1.0
 50
0.0
 71
     0
 42
40.0
  3
swissc.ttf
  4

1001
ACAD
1000
Swis721 Cn BT
1071
       34
  0
STYLE
  5
11A85
330
3
100
AcDbSymbolTableRecord
100
AcDbTextStyleTableRecord
  2
Text_3.5mm
 70
     0
 40
0.0
 41
0.899999976158142
 50
0.0
 71
     0
 42
0.2
  3
arial.ttf
  4

1001
ACAD
1000
Arial
1071
      256
  0
STYLE
  5
12113
330
3
100
AcDbSymbolTableRecord
100
AcDbTextStyleTableRecord
  2
Text__5.0mm
 70
     0
 40
0.0
 41
0.899999976158142
 50
0.0
 71
     0
 42
0.2
  3
arial.ttf
  4

1001
ACAD
1000
Arial
1071
      256
  0
STYLE
  5
12114
330
3
100
AcDbSymbolTableRecord
100
AcDbTextStyleTableRecord
  2
ACISOGDT
 70
     0
 40
0.0
 41
1.0
 50
0.0
 71
     0
 42
0.2
  3
amgdt.shx
  4

  0
ENDTAB
  0
TABLE
  2
VIEW
  5
6
330
0
100
AcDbSymbolTable
 70
     2
  0
VIEW
  5
278
330
6
100
AcDbSymbolTableRecord
100
AcDbViewTableRecord
  2
P
 70
     0
 40
815.0
 10
608.7931217819457
 20
3.744870706040615
 41
1137.5
 11
0.0
 21
0.0
 31
1.0
 12
0.0
 22
0.0
 32
0.0
 42
50.0
 43
0.0
 44
0.0
 50
0.0
 71
     0
281
     0
 72
     0
 73
     0
348
1032C
  0
VIEW
  5
2F21
330
6
100
AcDbSymbolTableRecord
100
AcDbViewTableRecord
  2
E
 70
     0
 40
655.0725840874363
 10
622.5998899062656
 20
58.70190082387842
 41
1137.170295034238
 11
0.0
 21
0.0
 31
1.0
 12
0.0
 22
0.0
 32
0.0
 42
50.0
 43
0.0
 44
0.0
 50
0.0
 71
     0
281
     0
 72
     0
 73
     0
348
1032C
  0
ENDTAB
  0
TABLE
  2
UCS
  5
7
330
0
100
AcDbSymbolTable
 70
     0
  0
ENDTAB
  0
TABLE
  2
APPID
  5
9
330
0
100
AcDbSymbolTable
 70
    29
  0
APPID
  5
10
330
9
100
AcDbSymbolTableRecord
100
AcDbRegAppTableRecord
  2
ACAD
 70
     0
  0
APPID
  5
DBD1
330
9
100
AcDbSymbolTableRecord
100
AcDbRegAppTableRecord
  2
ACAD_EXEMPT_FROM_CAD_STANDARDS
 70
     0
  0
APPID
  5
E106
330
9
100
AcDbSymbolTableRecord
100
AcDbRegAppTableRecord
  2
ACAD_PSEXT
 70
     0
  0
APPID
  5
E18B
330
9
100
AcDbSymbolTableRecord
100
AcDbRegAppTableRecord
  2
ACAD_DSTYLE_DIMEXT_LENGTH
 70
     0
  0
APPID
  5
E18C
330
9
100
AcDbSymbolTableRecord
100
AcDbRegAppTableRecord
  2
ACAD_DSTYLE_DIMEXT_ENABLED
 70
     0
  0
APPID
  5
E18D
330
9
100
AcDbSymbolTableRecord
100
AcDbRegAppTableRecord
  2
ACAD_DSTYLE_DIMJOGGED_JOGANGLE_SYMBOL
 70
     0
  0
APPID
  5
E18E
330
9
100
AcDbSymbolTableRecord
100
AcDbRegAppTableRecord
  2
ACAD_DSTYLE_DIMARC_LENGTH_SYMBOL
 70
     0
  0
APPID
  5
1035B
330
9
100
AcDbSymbolTableRecord
100
AcDbRegAppTableRecord
  2
ACAD_MLEADERVER
 70
     0
  0
APPID
  5
10412
330
9
100
AcDbSymbolTableRecord
100
AcDbRegAppTableRecord
  2
ACAD_DSTYLE_DIMJAG
 70
     0
  0
APPID
  5
10413
330
9
100
AcDbSymbolTableRecord
100
AcDbRegAppTableRecord
  2
ACAD_DSTYLE_DIMTALN
 70
     0
  0
APPID
  5
10AD8
330
9
100
AcDbSymbolTableRecord
100
AcDbRegAppTableRecord
  2
ACAD_DSTYLE_DIMRADIAL_EXTENSION
 70
     0
  0
APPID
  5
10D1E
330
9
100
AcDbSymbolTableRecord
100
AcDbRegAppTableRecord
  2
ACAD_NAV_VCDISPLAY
 70
     0
  0
APPID
  5
10E4F
330
9
100
AcDbSymbolTableRecord
100
AcDbRegAppTableRecord
  2
GradientColor1ACI
 70
     0
  0
APPID
  5
10E50
330
9
100
AcDbSymbolTableRecord
100
AcDbRegAppTableRecord
  2
GradientColor2ACI
 70
     0
  0
APPID
  5
11231
330
9
100
AcDbSymbolTableRecord
100
AcDbRegAppTableRecord
  2
AcadAnnoPO
 70
     0
  0
APPID
  5
11307
330
9
100
AcDbSymbolTableRecord
100
AcDbRegAppTableRecord
  2
MCAD_NO_VIS
 70
     0
  0
APPID
  5
11308
330
9
100
AcDbSymbolTableRecord
100
AcDbRegAppTableRecord
  2
ACAD_TEMP_GRAPHIC
 70
     0
  0
APPID
  5
11314
330
9
100
AcDbSymbolTableRecord
100
AcDbRegAppTableRecord
  2
ACATTRIBSERVICES
 70
     0
  0
APPID
  5
11330
330
9
100
AcDbSymbolTableRecord
100
AcDbRegAppTableRecord
  2
DESIGNERASSEMBLIES
 70
     0
  0
APPID
  5
1134A
330
9
100
AcDbSymbolTableRecord
100
AcDbRegAppTableRecord
  2
ACAD_DSTYLE_DIMBREAK
 70
     0
  0
APPID
  5
11376
330
9
100
AcDbSymbolTableRecord
100
AcDbRegAppTableRecord
  2
GENIUS_GENSCREG_15
 70
     0
  0
APPID
  5
11377
330
9
100
AcDbSymbolTableRecord
100
AcDbRegAppTableRecord
  2
GENIUS_GENOBJ-N-SDF_13
 70
     0
  0
APPID
  5
11378
330
9
100
AcDbSymbolTableRecord
100
AcDbRegAppTableRecord
  2
GENIUS_GENODEF_13
 70
     0
  0
APPID
  5
11383
330
9
100
AcDbSymbolTableRecord
100
AcDbRegAppTableRecord
  2
ACAD_DSTYLE_DIMINSPECT
 70
     0
  0
APPID
  5
1138E
330
9
100
AcDbSymbolTableRecord
100
AcDbRegAppTableRecord
  2
AcadAnnoMonitorAlertIconDisabled
 70
     0
  0
APPID
  5
1138F
330
9
100
AcDbSymbolTableRecord
100
AcDbRegAppTableRecord
  2
GENIUS_GENDTOL_13
 70
     0
  0
APPID
  5
11400
330
9
100
AcDbSymbolTableRecord
100
AcDbRegAppTableRecord
  2
AcAecLayerStandard
 70
     0
  0
APPID
  5
117F1
330
9
100
AcDbSymbolTableRecord
100
AcDbRegAppTableRecord
  2
AMAcad
 70
     0
  0
APPID
  5
11A88
330
9
100
AcDbSymbolTableRecord
100
AcDbRegAppTableRecord
  2
TOP
 70
     0
  0
ENDTAB
  0
TABLE
  2
DIMSTYLE
  5
A
330
0
100
AcDbSymbolTable
 70
    18
100
AcDbDimStyleTable
 71
     1
340
1D
  0
DIMSTYLE
105
1D
330
A
100
AcDbSymbolTableRecord
100
AcDbDimStyleTableRecord
  2
STANDARD
 70
     0
 41
15.0
140
25.0
178
     1
271
     2
272
     2
340
F
1001
ACAD_DSTYLE_DIMJAG
1070
   388
1040
1.5
1001
ACAD_DSTYLE_DIMTALN
1070
   392
1070
     0
  0
DIMSTYLE
105
11349
102
{ACAD_REACTORS
330
11339
102
}
330
A
100
AcDbSymbolTableRecord
100
AcDbDimStyleTableRecord
  2
AM_ANSI
 70
     0
  4
mm
 41
0.12
 42
0.05
 43
0.5
 44
0.1
 47
0.1
 48
0.1
 78
     7
 79
     2
 90
     1
140
0.12
141
0.0
146
0.71
147
0.06
176
   256
177
   256
178
     2
274
     4
284
     7
340
F
345
12
346
12
347
12
371
    -1
372
    -1
1001
ACAD_DSTYLE_DIMJAG
1070
   388
1040
1.5
1001
ACAD_DSTYLE_DIMBREAK
1070
   391
1040
0.125
  0
DIMSTYLE
105
1134D
330
A
100
AcDbSymbolTableRecord
100
AcDbDimStyleTableRecord
  2
AM_ANSI$3
 70
     0
  4
mm
 41
0.12
 42
0.05
 43
0.5
 44
0.1
 47
0.1
 48
0.1
 78
     7
 79
     2
 90
     1
140
0.12
141
0.0
146
0.71
147
0.06
176
   256
177
   256
178
     2
274
     4
284
     7
288
     1
289
     0
340
F
345
12
346
12
347
12
371
    -1
372
    -1
1001
ACAD_DSTYLE_DIMBREAK
1070
   391
1040
0.125
1001
ACAD_DSTYLE_DIMJAG
1070
   388
1040
1.5
  0
DIMSTYLE
105
1134E
330
A
100
AcDbSymbolTableRecord
100
AcDbDimStyleTableRecord
  2
AM_ANSI$4
 70
     0
  4
mm
 41
0.12
 42
0.05
 43
0.5
 44
0.1
 47
0.1
 48
0.1
 78
     7
 79
     2
 90
     1
140
0.12
141
0.0
146
0.71
147
0.06
176
   256
177
   256
178
     2
274
     4
284
     7
288
     1
289
     0
340
F
345
12
346
12
347
12
371
    -1
372
    -1
1001
ACAD_DSTYLE_DIMBREAK
1070
   391
1040
0.125
1001
ACAD_DSTYLE_DIMJAG
1070
   388
1040
1.5
  0
DIMSTYLE
105
1134F
330
A
100
AcDbSymbolTableRecord
100
AcDbDimStyleTableRecord
  2
AM_ANSI$7
 70
     0
  4
mm
 41
0.12
 42
0.05
 43
0.5
 44
0.1
 47
0.1
 48
0.1
 78
     7
 79
     2
 90
     1
140
0.12
141
0.0
146
0.71
147
0.06
176
   256
177
   256
178
     2
274
     4
284
     7
340
F
345
12
346
12
347
12
371
    -1
372
    -1
1001
ACAD_DSTYLE_DIMBREAK
1070
   391
1040
0.125
1001
ACAD_DSTYLE_DIMJAG
1070
   388
1040
1.5
  0
DIMSTYLE
105
11350
330
A
100
AcDbSymbolTableRecord
100
AcDbDimStyleTableRecord
  2
AM_ANSI$SF
 70
     0
  4
mm
 41
0.12
 42
0.05
 43
0.5
 44
0.1
 47
0.1
 48
0.1
 75
     1
 76
     1
 78
     7
 79
     2
 90
     1
140
0.12
141
0.0
146
0.71
147
0.06
176
   256
177
   256
178
     2
274
     4
284
     7
340
F
345
12
346
12
347
12
371
    -1
372
    -1
1001
ACAD_DSTYLE_DIMBREAK
1070
   391
1040
0.125
1001
ACAD_DSTYLE_DIMJAG
1070
   388
1040
1.5
  0
DIMSTYLE
105
11355
330
A
100
AcDbSymbolTableRecord
100
AcDbDimStyleTableRecord
  2
AM_ANSI$SH
 70
     0
  4
mm
 41
0.12
 42
0.05
 43
0.5
 44
0.1
 47
0.1
 48
0.1
 75
     1
 76
     1
 78
     7
 79
     2
 90
     1
140
0.12
141
0.0
146
0.71
147
0.06
173
     1
176
   256
177
   256
178
     2
274
     4
284
     7
340
F
343
11351
345
12
346
12
347
12
371
    -1
372
    -1
1001
ACAD_DSTYLE_DIMBREAK
1070
   391
1040
0.125
1001
ACAD_DSTYLE_DIMJAG
1070
   388
1040
1.5
  0
DIMSTYLE
105
11986
330
A
100
AcDbSymbolTableRecord
100
AcDbDimStyleTableRecord
  2
STANDARD$0
 70
     0
 41
15.0
140
25.0
178
     1
271
     2
272
     2
340
F
1001
ACAD_DSTYLE_DIMBREAK
1070
   391
1040
0.125
1001
ACAD_DSTYLE_DIMJAG
1070
   388
1040
1.5
  0
DIMSTYLE
105
11A86
102
{ACAD_REACTORS
330
11BCA
102
}
330
A
100
AcDbSymbolTableRecord
100
AcDbDimStyleTableRecord
  2
Lead of KS-STANDARD
 70
     0
 40
6.666666666666666
 41
2.5
 42
0.0
 43
6.0
 44
3.174999999999998
 45
0.00000001
 46
10.0
 73
     0
 77
     1
 78
     8
 79
     2
140
3.5
143
0.03937
146
0.7142857142857145
147
0.8000000000000001
171
     3
176
     4
177
     7
178
     7
271
     1
272
     1
274
     3
284
     8
286
     8
340
11A85
371
    25
372
    25
1001
ACAD_DSTYLE_DIMBREAK
1070
   391
1040
3.75
1001
ACAD_DSTYLE_DIMJAG
1070
   388
1040
1.5
1001
ACAD_DSTYLE_DIMTALN
1070
   392
1070
     0
  0
DIMSTYLE
105
11A87
102
{ACAD_REACTORS
330
11BC9
330
11BCB
102
}
330
A
100
AcDbSymbolTableRecord
100
AcDbDimStyleTableRecord
  2
Lead of KS-STANDARD$0
 70
     0
 40
6.666666666666666
 41
2.5
 42
0.0
 43
6.0
 44
3.174999999999998
 45
0.00000001
 46
10.0
 73
     0
 77
     1
 78
     8
 79
     2
140
3.5
143
0.03937
146
0.7142857142857145
147
0.8000000000000001
171
     3
176
     4
177
     7
178
     7
271
     1
272
     1
274
     3
284
     8
286
     8
340
11A85
371
    25
372
    25
1001
ACAD_DSTYLE_DIMBREAK
1070
   391
1040
3.75
1001
ACAD_DSTYLE_DIMJAG
1070
   388
1040
1.5
  0
DIMSTYLE
105
12115
330
A
100
AcDbSymbolTableRecord
100
AcDbDimStyleTableRecord
  2
KS-Marketing
 70
     0
  3
 in
 40
10.0
 41
3.5
 42
0.0
 43
12.0
 44
3.174999999999998
 45
0.00000001
 46
10.0
 73
     0
 74
     0
 77
     1
 78
     2
 79
     2
140
5.0
143
1.0
144
0.0393700787401575
146
0.7
147
0.8
171
     3
172
     1
176
     7
177
     7
178
     7
271
     3
274
     3
276
     2
277
     5
278
    44
284
     8
286
     8
340
12113
371
    25
372
    25
  0
DIMSTYLE
105
12116
102
{ACAD_REACTORS
330
1212C
102
}
330
A
100
AcDbSymbolTableRecord
100
AcDbDimStyleTableRecord
  2
AM_ISO
 70
     0
  4
"
 41
3.5
 42
1.0
 43
10.0
 44
1.0
 47
0.1
 48
0.1
 73
     0
 74
     0
 77
     1
 78
     8
 79
     2
 90
     1
140
3.5
141
0.0
143
0.0393701
146
0.71
147
1.5
172
     1
176
   256
177
   256
178
     2
271
     2
272
     3
274
     4
283
     0
284
     8
340
F
345
12
346
12
347
12
371
    -1
372
    -1
1001
ACAD_DSTYLE_DIMJAG
1070
   388
1040
1.5
1001
ACAD_DSTYLE_DIMBREAK
1070
   391
1040
3.75
  0
DIMSTYLE
105
12117
330
A
100
AcDbSymbolTableRecord
100
AcDbDimStyleTableRecord
  2
AM_ISO$3
 70
     0
  4
"
 41
3.5
 42
1.0
 43
10.0
 44
1.0
 47
0.1
 48
0.1
 73
     0
 77
     1
 78
     8
 79
     2
 90
     1
140
3.5
141
0.0
143
0.0393701
146
0.71
147
1.5
176
   256
177
   256
178
     2
271
     2
272
     3
274
     4
283
     0
284
     8
288
     1
289
     0
340
F
345
12
346
12
347
12
371
    -1
372
    -1
1001
ACAD_DSTYLE_DIMBREAK
1070
   391
1040
3.75
1001
ACAD_DSTYLE_DIMJAG
1070
   388
1040
1.5
  0
DIMSTYLE
105
12118
330
A
100
AcDbSymbolTableRecord
100
AcDbDimStyleTableRecord
  2
AM_ISO$4
 70
     0
  4
"
 41
3.5
 42
1.0
 43
10.0
 44
1.0
 47
0.1
 48
0.1
 73
     0
 77
     1
 78
     8
 79
     2
 90
     1
140
3.5
141
0.0
143
0.0393701
146
0.71
147
1.5
176
   256
177
   256
178
     2
271
     2
272
     3
274
     4
283
     0
284
     8
288
     1
289
     0
340
F
345
12
346
12
347
12
371
    -1
372
    -1
1001
ACAD_DSTYLE_DIMBREAK
1070
   391
1040
3.75
1001
ACAD_DSTYLE_DIMJAG
1070
   388
1040
1.5
  0
DIMSTYLE
105
12119
330
A
100
AcDbSymbolTableRecord
100
AcDbDimStyleTableRecord
  2
AM_ISO$6
 70
     0
  4
"
 41
3.5
 42
1.0
 43
10.0
 44
1.0
 47
0.1
 48
0.1
 73
     0
 74
     0
 78
     8
 79
     2
 90
     1
140
3.5
141
0.0
143
0.0393701
146
0.71
147
1.5
172
     1
176
   256
177
   256
178
     2
271
     2
272
     3
274
     4
283
     0
284
     8
340
F
345
12
346
12
347
12
371
    -1
372
    -1
1001
ACAD_DSTYLE_DIMBREAK
1070
   391
1040
3.75
1001
ACAD_DSTYLE_DIMJAG
1070
   388
1040
1.5
  0
DIMSTYLE
105
1211A
330
A
100
AcDbSymbolTableRecord
100
AcDbDimStyleTableRecord
  2
AM_ISO$7
 70
     0
  4
"
 41
3.5
 42
1.0
 43
10.0
 44
1.0
 47
0.1
 48
0.1
 73
     0
 74
     0
 77
     1
 78
     8
 79
     2
 90
     1
140
3.5
141
0.0
143
0.0393701
146
0.71
147
1.5
172
     1
176
   256
177
   256
178
     2
271
     2
272
     3
274
     4
283
     0
284
     8
340
F
345
12
346
12
347
12
371
    -1
372
    -1
1001
ACAD_DSTYLE_DIMBREAK
1070
   391
1040
3.75
1001
ACAD_DSTYLE_DIMJAG
1070
   388
1040
1.5
  0
DIMSTYLE
105
1211B
330
A
100
AcDbSymbolTableRecord
100
AcDbDimStyleTableRecord
  2
AM_ISO$SF
 70
     0
  4
"
 41
3.5
 42
1.0
 43
10.0
 44
1.0
 47
0.1
 48
0.1
 73
     0
 74
     0
 75
     1
 76
     1
 77
     1
 78
     8
 79
     2
 90
     1
140
3.5
141
0.0
143
0.0393701
146
0.71
147
1.5
172
     1
176
   256
177
   256
178
     2
271
     2
272
     3
274
     4
283
     0
284
     8
340
F
345
12
346
12
347
12
371
    -1
372
    -1
1001
ACAD_DSTYLE_DIMBREAK
1070
   391
1040
3.75
1001
ACAD_DSTYLE_DIMJAG
1070
   388
1040
1.5
  0
DIMSTYLE
105
1211C
330
A
100
AcDbSymbolTableRecord
100
AcDbDimStyleTableRecord
  2
AM_ISO$SH
 70
     0
  4
"
 41
3.5
 42
1.0
 43
10.0
 44
1.0
 47
0.1
 48
0.1
 73
     0
 74
     0
 75
     1
 76
     1
 77
     1
 78
     8
 79
     2
 90
     1
140
3.5
141
0.0
143
0.0393701
144
2.0
146
0.71
147
1.5
172
     1
173
     1
176
   256
177
   256
178
     2
271
     2
272
     3
274
     4
283
     0
284
     8
340
F
343
11351
345
12
346
12
347
12
371
    -1
372
    -1
1001
ACAD_DSTYLE_DIMBREAK
1070
   391
1040
3.75
1001
ACAD_DSTYLE_DIMJAG
1070
   388
1040
1.5
  0
ENDTAB
  0
TABLE
  2
BLOCK_RECORD
  5
1
330
0
100
AcDbSymbolTable
 70
     9
  0
BLOCK_RECORD
  5
18
102
{ACAD_XDICTIONARY
360
982C
102
}
330
1
100
AcDbSymbolTableRecord
100
AcDbBlockTableRecord
  2
*MODEL_SPACE
340
5C21
 70
     0
280
     1
281
     0
  0
BLOCK_RECORD
  5
15
102
{ACAD_XDICTIONARY
360
982A
102
}
330
1
100
AcDbSymbolTableRecord
100
AcDbBlockTableRecord
  2
*PAPER_SPACE
340
5C22
 70
     0
280
     1
281
     0
  0
BLOCK_RECORD
  5
11351
330
1
100
AcDbSymbolTableRecord
100
AcDbBlockTableRecord
  2
GENAXEH
340
0
 70
     0
280
     1
281
     0
  0
BLOCK_RECORD
  5
1135F
330
1
100
AcDbSymbolTableRecord
100
AcDbBlockTableRecord
  2
_ACMFILLEDHALF
340
0
 70
     0
280
     1
281
     0
  0
BLOCK_RECORD
  5
11BCD
330
1
100
AcDbSymbolTableRecord
100
AcDbBlockTableRecord
  2
*D3
340
0
 70
     0
280
     1
281
     0
  0
BLOCK_RECORD
  5
11BD9
330
1
100
AcDbSymbolTableRecord
100
AcDbBlockTableRecord
  2
*D4
340
0
 70
     0
280
     1
281
     0
  0
BLOCK_RECORD
  5
11BE4
330
1
100
AcDbSymbolTableRecord
100
AcDbBlockTableRecord
  2
*D5
340
0
 70
     0
280
     1
281
     0
  0
BLOCK_RECORD
  5
120A3
330
1
100
AcDbSymbolTableRecord
100
AcDbBlockTableRecord
  2
*D6
340
0
 70
     0
280
     1
281
     0
  0
BLOCK_RECORD
  5
120EE
330
1
100
AcDbSymbolTableRecord
100
AcDbBlockTableRecord
  2
*D7
340
0
 70
     0
280
     1
281
     0
  0
ENDTAB
  0
ENDSEC
  0
SECTION
  2
BLOCKS
  0
BLOCK
  5
19
330
18
100
AcDbEntity
  8
0
100
AcDbBlockBegin
  2
*MODEL_SPACE
 70
     0
 10
0.0
 20
0.0
 30
0.0
  3
*MODEL_SPACE
  1

  0
ENDBLK
  5
1A
330
18
100
AcDbEntity
  8
0
100
AcDbBlockEnd
  0
BLOCK
  5
16
330
15
100
AcDbEntity
 67
     1
  8
0
100
AcDbBlockBegin
  2
*PAPER_SPACE
 70
     0
 10
0.0
 20
0.0
 30
0.0
  3
*PAPER_SPACE
  1

  0
ENDBLK
  5
17
330
15
100
AcDbEntity
 67
     1
  8
0
100
AcDbBlockEnd
  0
BLOCK
  5
11353
330
11351
100
AcDbEntity
  8
0
100
AcDbBlockBegin
  2
GENAXEH
 70
     0
 10
0.0
 20
0.0
 30
0.0
  3
GENAXEH
  1

  0
LINE
  5
11352
330
11351
100
AcDbEntity
  8
0
100
AcDbLine
 10
-1.0
 20
0.0
 30
0.0
 11
1.0
 21
0.0
 31
0.0
  0
ENDBLK
  5
11354
330
11351
100
AcDbEntity
  8
0
100
AcDbBlockEnd
  0
BLOCK
  5
11362
330
1135F
100
AcDbEntity
  8
0
100
AcDbBlockBegin
  2
_ACMFILLEDHALF
 70
     0
 10
0.0
 20
0.0
 30
0.0
  3
_ACMFILLEDHALF
  1

  0
TRACE
  5
11360
330
1135F
100
AcDbEntity
  8
SINK
 62
     0
100
AcDbTrace
 10
-0.8
 20
0.0
 30
0.0
 11
-1.0
 21
0.166666666
 31
0.0
 12
0.0
 22
0.0
 32
0.0
 13
0.0
 23
0.0
 33
0.0
  0
LINE
  5
11361
330
1135F
100
AcDbEntity
  8
SINK
 62
     0
100
AcDbLine
 10
-1.0
 20
0.0
 30
0.0
 11
-0.8
 21
0.0
 31
0.0
  0
ENDBLK
  5
11363
330
1135F
100
AcDbEntity
  8
0
100
AcDbBlockEnd
  0
BLOCK
  5
11BCE
330
11BCD
100
AcDbEntity
  8
0
100
AcDbBlockBegin
  2
*D3
 70
     1
 10
0.0
 20
0.0
 30
0.0
  3
*D3
  1

  0
LINE
  5
11E36
330
11BCD
100
AcDbEntity
  8
0
 62
     7
440
 16777216
370
    25
100
AcDbLine
 10
324.9041189891666
 20
-41.7742468411252
 30
0.0
 11
324.9041189891666
 21
69.45456105031886
 31
0.0
  0
LINE
  5
11E37
330
11BCD
100
AcDbEntity
  8
0
 62
     7
440
 16777216
370
    25
100
AcDbLine
 10
893.228958989167
 20
-41.7742468411252
 30
0.0
 11
893.228958989167
 21
69.45456105031886
 31
0.0
  0
LINE
  5
11E38
330
11BCD
100
AcDbEntity
  8
0
 62
     1
440
 16777216
370
    25
100
AcDbLine
 10
341.5707856558333
 20
48.2878943836522
 30
0.0
 11
876.5622923225004
 21
48.2878943836522
 31
0.0
  0
SOLID
  5
11E39
330
11BCD
100
AcDbEntity
  8
0
 62
     1
440
 16777216
100
AcDbTrace
 10
341.5707856558333
 20
51.06567216142998
 30
0.0
 11
341.5707856558333
 21
45.51011660587442
 31
0.0
 12
324.9041189891666
 22
48.2878943836522
 32
0.0
 13
324.9041189891666
 23
48.2878943836522
 33
0.0
  0
SOLID
  5
11E3A
330
11BCD
100
AcDbEntity
  8
0
 62
     1
440
 16777216
100
AcDbTrace
 10
876.5622923225004
 20
51.06567216142998
 30
0.0
 11
876.5622923225004
 21
45.51011660587442
 31
0.0
 12
893.228958989167
 22
48.2878943836522
 32
0.0
 13
893.228958989167
 23
48.2878943836522
 33
0.0
  0
MTEXT
  5
11E3B
330
11BCD
100
AcDbEntity
  8
0
 62
     1
440
 16777216
100
AcDbMText
 10
686.2108916172401
 20
57.07047111171041
 30
0.0
 40
23.33333333333333
 41
0.0
 46
0.0
 71
     5
 72
     1
  1
\A1;{\H0.28571x;22-3/8"}
  7
Text_3.5mm
 73
     1
 44
1.0
  0
POINT
  5
11E3C
330
11BCD
100
AcDbEntity
  8
DEFPOINTS
 62
     0
440
 16777216
100
AcDbPoint
 10
324.9041189891666
 20
-41.7742468411252
 30
0.0
  0
POINT
  5
11E3D
330
11BCD
100
AcDbEntity
  8
DEFPOINTS
 62
     0
440
 16777216
100
AcDbPoint
 10
893.228958989167
 20
-41.7742468411252
 30
0.0
  0
POINT
  5
11E3E
330
11BCD
100
AcDbEntity
  8
DEFPOINTS
 62
     0
440
 16777216
100
AcDbPoint
 10
893.228958989167
 20
48.2878943836522
 30
0.0
  0
ENDBLK
  5
11BCF
330
11BCD
100
AcDbEntity
  8
0
100
AcDbBlockEnd
  0
BLOCK
  5
11BDA
330
11BD9
100
AcDbEntity
  8
0
100
AcDbBlockBegin
  2
*D4
 70
     1
 10
0.0
 20
0.0
 30
0.0
  3
*D4
  1

  0
LINE
  5
11F42
330
11BD9
100
AcDbEntity
  8
0
 62
     1
440
 16777216
370
    25
100
AcDbLine
 10
782.9681599391465
 20
-40.29871276536042
 30
0.0
 11
809.6309606474145
 21
-40.29871276536048
 31
0.0
  0
LINE
  5
11F43
330
11BD9
100
AcDbEntity
  8
0
 62
     1
440
 16777216
370
    25
100
AcDbLine
 10
809.6309606474145
 20
-40.29871276536048
 30
0.0
 11
872.6333482358082
 21
-63.18540309096025
 31
0.0
  0
MTEXT
  5
11F44
330
11BD9
100
AcDbEntity
  8
0
 62
     1
440
 16777216
100
AcDbMText
 10
793.6328936266138
 20
-32.58270548932592
 30
0.0
 40
4.666666666666666
 41
0.0
 46
0.0
 71
     5
 72
     1
  1
\A1;R 25mm
  7
Text_3.5mm
 73
     1
 44
1.0
  0
SOLID
  5
11F45
330
11BD9
100
AcDbEntity
  8
0
 62
     1
440
 16777216
100
AcDbTrace
 10
873.5817828177625
 20
-60.57455625009243
 30
0.0
 11
871.6849136538542
 21
-65.79624993182807
 31
0.0
 12
888.2984292810151
 22
-68.87601058268521
 32
0.0
 13
888.2984292810151
 23
-68.87601058268521
 33
0.0
  0
LINE
  5
11F46
330
11BD9
100
AcDbEntity
  8
0
 62
     7
440
 16777216
370
    25
100
AcDbLine
 10
898.9772876335617
 20
-72.97324797672624
 30
0.0
 11
900.1772876335618
 21
-72.97324797672629
 31
0.0
  0
LINE
  5
11F47
330
11BD9
100
AcDbEntity
  8
0
 62
     7
440
 16777216
370
    25
100
AcDbLine
 10
899.5772876335617
 20
-73.57324797672629
 30
0.0
 11
899.5772876335617
 21
-72.37324797672631
 31
0.0
  0
ARC
  5
11F48
330
11BD9
100
AcDbEntity
  8
0
 62
     7
440
 16777216
370
    25
100
AcDbCircle
 10
899.5772876335617
 20
-72.97324797672629
 30
0.0
 40
11.99999999999738
100
AcDbArc
 50
160.0355854822713
 51
180.0
  0
POINT
  5
11F49
330
11BD9
100
AcDbEntity
  8
DEFPOINTS
 62
     0
440
 16777216
100
AcDbPoint
 10
888.2984292810151
 20
-68.87601058268521
 30
0.0
  0
POINT
  5
11F4A
330
11BD9
100
AcDbEntity
  8
DEFPOINTS
 62
     0
440
 16777216
100
AcDbPoint
 10
899.5772876335617
 20
-72.97324797672629
 30
0.0
  0
ENDBLK
  5
11BDB
330
11BD9
100
AcDbEntity
  8
0
100
AcDbBlockEnd
  0
BLOCK
  5
11BE5
330
11BE4
100
AcDbEntity
  8
0
100
AcDbBlockBegin
  2
*D5
 70
     1
 10
0.0
 20
0.0
 30
0.0
  3
*D5
  1

  0
LINE
  5
12008
330
11BE4
100
AcDbEntity
  8
0
 62
     7
440
 16777216
370
    25
100
AcDbLine
 10
609.066538989167
 20
362.0072580829055
 30
0.0
 11
581.2374523225003
 21
362.0072580829055
 31
0.0
  0
LINE
  5
12009
330
11BE4
100
AcDbEntity
  8
0
 62
     7
440
 16777216
370
    25
100
AcDbLine
 10
602.4041189891668
 20
-79.47424684112521
 30
0.0
 11
581.2374523225002
 21
-79.47424684112521
 31
0.0
  0
LINE
  5
1200A
330
11BE4
100
AcDbEntity
  8
0
 62
     1
440
 16777216
370
    25
100
AcDbLine
 10
602.4041189891669
 20
345.3405914162388
 30
0.0
 11
602.4041189891668
 21
-62.80758017445855
 31
0.0
  0
SOLID
  5
1200B
330
11BE4
100
AcDbEntity
  8
0
 62
     1
440
 16777216
100
AcDbTrace
 10
599.6263412113891
 20
345.3405914162388
 30
0.0
 11
605.1818967669447
 21
345.3405914162388
 31
0.0
 12
602.4041189891669
 22
362.0072580829055
 32
0.0
 13
602.4041189891669
 23
362.0072580829055
 33
0.0
  0
SOLID
  5
1200C
330
11BE4
100
AcDbEntity
  8
0
 62
     1
440
 16777216
100
AcDbTrace
 10
599.626341211389
 20
-62.80758017445855
 30
0.0
 11
605.1818967669446
 21
-62.80758017445855
 31
0.0
 12
602.4041189891668
 22
-79.47424684112521
 32
0.0
 13
602.4041189891668
 23
-79.47424684112521
 33
0.0
  0
MTEXT
  5
1200D
330
11BE4
100
AcDbEntity
  8
0
 62
     1
440
 16777216
100
AcDbMText
 10
593.6215422611086
 20
285.1164252483593
 30
0.0
 40
23.33333333333333
 41
0.0
 46
0.0
 71
     5
 72
     1
  1
\A1;{\H0.28571x;17 3/8"}
  7
Text_3.5mm
 11
0.0000000000000001
 21
1.0
 31
0.0
 73
     1
 44
1.0
  0
POINT
  5
1200E
330
11BE4
100
AcDbEntity
  8
DEFPOINTS
 62
     0
440
 16777216
100
AcDbPoint
 10
609.066538989167
 20
362.0072580829055
 30
0.0
  0
POINT
  5
1200F
330
11BE4
100
AcDbEntity
  8
DEFPOINTS
 62
     0
440
 16777216
100
AcDbPoint
 10
602.4041189891668
 20
-79.47424684112521
 30
0.0
  0
POINT
  5
12010
330
11BE4
100
AcDbEntity
  8
DEFPOINTS
 62
     0
440
 16777216
100
AcDbPoint
 10
602.4041189891668
 20
-79.47424684112521
 30
0.0
  0
ENDBLK
  5
11BE6
330
11BE4
100
AcDbEntity
  8
0
100
AcDbBlockEnd
  0
BLOCK
  5
120A4
330
120A3
100
AcDbEntity
  8
0
100
AcDbBlockBegin
  2
*D6
 70
     1
 10
0.0
 20
0.0
 30
0.0
  3
*D6
  1

  0
LINE
  5
120E3
330
120A3
100
AcDbEntity
  8
AM_5
 62
     0
440
 16777216
370
    -2
100
AcDbLine
 10
609.129038989167
 20
362.0072580829055
 30
0.0
 11
981.5867131011081
 21
362.0072580829054
 31
0.0
  0
LINE
  5
120E4
330
120A3
100
AcDbEntity
  8
AM_5
 62
     0
440
 16777216
370
    -2
100
AcDbLine
 10
602.4666189891668
 20
-79.47424684112521
 30
0.0
 11
981.586713101108
 21
-79.47424684112532
 31
0.0
  0
LINE
  5
120E5
330
120A3
100
AcDbEntity
  8
AM_5
 62
     0
440
 16777216
370
    -2
100
AcDbLine
 10
981.406713101108
 20
347.0072580829054
 30
0.0
 11
981.4067131011078
 21
155.3365462162892
 31
0.0
  0
LINE
  5
120E6
330
120A3
100
AcDbEntity
  8
AM_5
 62
     0
440
 16777216
370
    -2
100
AcDbLine
 10
981.4067131011078
 20
-64.47424684112532
 30
0.0
 11
981.4067131011078
 21
127.1964650254908
 31
0.0
  0
SOLID
  5
120E7
330
120A3
100
AcDbEntity
  8
AM_5
 62
     0
440
 16777216
100
AcDbTrace
 10
978.906713101108
 20
347.0072580829054
 30
0.0
 11
983.9067131011081
 21
347.0072580829054
 31
0.0
 12
981.406713101108
 22
362.0072580829054
 32
0.0
 13
981.406713101108
 23
362.0072580829054
 33
0.0
  0
SOLID
  5
120E8
330
120A3
100
AcDbEntity
  8
AM_5
 62
     0
440
 16777216
100
AcDbTrace
 10
978.9067131011078
 20
-64.47424684112532
 30
0.0
 11
983.9067131011079
 21
-64.47424684112532
 31
0.0
 12
981.4067131011078
 22
-79.47424684112532
 32
0.0
 13
981.4067131011078
 23
-79.47424684112532
 33
0.0
  0
MTEXT
  5
120E9
330
120A3
100
AcDbEntity
  8
AM_5
 62
     1
440
 16777216
100
AcDbMText
 10
981.4067131011078
 20
141.2665056208902
 30
0.0
 40
25.0
 41
0.0
 46
0.0
 71
     5
 72
     1
  1
\A1;441.48
 73
     1
 44
1.0
  0
POINT
  5
120EA
330
120A3
100
AcDbEntity
  8
DEFPOINTS
 62
     0
440
 16777216
100
AcDbPoint
 10
609.066538989167
 20
362.0072580829055
 30
0.0
  0
POINT
  5
120EB
330
120A3
100
AcDbEntity
  8
DEFPOINTS
 62
     0
440
 16777216
100
AcDbPoint
 10
602.4041189891668
 20
-79.47424684112521
 30
0.0
  0
POINT
  5
120EC
330
120A3
100
AcDbEntity
  8
DEFPOINTS
 62
     0
440
 16777216
100
AcDbPoint
 10
981.4067131011078
 20
-79.47424684112532
 30
0.0
  0
ENDBLK
  5
120A5
330
120A3
100
AcDbEntity
  8
0
100
AcDbBlockEnd
  0
BLOCK
  5
120EF
330
120EE
100
AcDbEntity
  8
0
100
AcDbBlockBegin
  2
*D7
 70
     1
 10
0.0
 20
0.0
 30
0.0
  3
*D7
  1

  0
LINE
  5
12105
330
120EE
100
AcDbEntity
  8
AM_5
 62
     0
440
 16777216
370
    -2
100
AcDbLine
 10
893.2289589891675
 20
309.6372717197373
 30
0.0
 11
893.2289589891675
 21
393.2850337845379
 31
0.0
  0
LINE
  5
12106
330
120EE
100
AcDbEntity
  8
AM_5
 62
     0
440
 16777216
370
    -2
100
AcDbLine
 10
324.9041189891666
 20
309.6372717197373
 30
0.0
 11
324.9041189891666
 21
393.2850337845379
 31
0.0
  0
LINE
  5
12107
330
120EE
100
AcDbEntity
  8
AM_5
 62
     0
440
 16777216
370
    -2
100
AcDbLine
 10
878.2289589891675
 20
393.1050337845379
 30
0.0
 11
664.0110721420763
 21
393.1050337845379
 31
0.0
  0
LINE
  5
12108
330
120EE
100
AcDbEntity
  8
AM_5
 62
     0
440
 16777216
370
    -2
100
AcDbLine
 10
339.9041189891666
 20
393.1050337845379
 30
0.0
 11
554.1220058362577
 21
393.1050337845379
 31
0.0
  0
SOLID
  5
12109
330
120EE
100
AcDbEntity
  8
AM_5
 62
     0
440
 16777216
100
AcDbTrace
 10
878.2289589891675
 20
395.6050337845379
 30
0.0
 11
878.2289589891675
 21
390.6050337845379
 31
0.0
 12
893.2289589891675
 22
393.1050337845379
 32
0.0
 13
893.2289589891675
 23
393.1050337845379
 33
0.0
  0
SOLID
  5
1210A
330
120EE
100
AcDbEntity
  8
AM_5
 62
     0
440
 16777216
100
AcDbTrace
 10
339.9041189891666
 20
395.6050337845379
 30
0.0
 11
339.9041189891666
 21
390.6050337845379
 31
0.0
 12
324.9041189891666
 22
393.1050337845379
 32
0.0
 13
324.9041189891666
 23
393.1050337845379
 33
0.0
  0
MTEXT
  5
1210B
330
120EE
100
AcDbEntity
  8
AM_5
 62
     1
440
 16777216
100
AcDbMText
 10
609.066538989167
 20
393.1050337845379
 30
0.0
 40
25.0
 41
0.0
 46
0.0
 71
     5
 72
     1
  1
\A1;568.32
 73
     1
 44
1.0
  0
POINT
  5
1210C
330
120EE
100
AcDbEntity
  8
DEFPOINTS
 62
     0
440
 16777216
100
AcDbPoint
 10
893.2289589891675
 20
309.5747717197373
 30
0.0
  0
POINT
  5
1210D
330
120EE
100
AcDbEntity
  8
DEFPOINTS
 62
     0
440
 16777216
100
AcDbPoint
 10
324.9041189891666
 20
309.5747717197373
 30
0.0
  0
POINT
  5
1210E
330
120EE
100
AcDbEntity
  8
DEFPOINTS
 62
     0
440
 16777216
100
AcDbPoint
 10
324.9041189891666
 20
393.1050337845379
 30
0.0
  0
ENDBLK
  5
120F0
330
120EE
100
AcDbEntity
  8
0
100
AcDbBlockEnd
  0
ENDSEC
  0
SECTION
  2
ENTITIES
  0
LINE
  5
1053E
330
18
100
AcDbEntity
  8
0
100
AcDbLine
 39
0.4
 10
349.9041189891666
 20
-79.47424684112521
 30
0.0
 11
602.4041189891668
 21
-79.47424684112521
 31
0.0
  0
ARC
  5
1053F
330
18
100
AcDbEntity
  8
0
100
AcDbCircle
 39
0.4
 10
868.2289589891668
 20
-54.47424684112518
 30
0.0
 40
25.0
100
AcDbArc
 50
270.0
 51
0.0
  0
ARC
  5
10540
330
18
100
AcDbEntity
  8
0
100
AcDbCircle
 39
0.4
 10
349.9041189891666
 20
-54.47424684112521
 30
0.0
 40
25.0
100
AcDbArc
 50
180.0
 51
270.0
  0
ARC
  5
1054E
330
18
100
AcDbEntity
  8
0
100
AcDbCircle
 10
615.7289589891665
 20
-837.974246841126
 30
0.0
 40
1200.0
100
AcDbArc
 50
77.5907138736231
 51
90.3181087570784
  0
ARC
  5
1054F
330
18
100
AcDbEntity
  8
0
100
AcDbCircle
 10
868.2289589891675
 20
309.5747717197373
 30
0.0
 40
25.0
100
AcDbArc
 50
0.0
 51
77.5907138736231
  0
ARC
  5
10550
330
18
100
AcDbEntity
  8
0
100
AcDbCircle
 10
349.9041189891666
 20
309.5747717197373
 30
0.0
 40
25.0
100
AcDbArc
 50
102.4092861263769
 51
180.0
  0
LINE
  5
119F5
330
18
100
AcDbEntity
  8
0
100
AcDbLine
 39
0.4
 10
324.9041189891666
 20
309.5747717197373
 30
0.0
 11
324.9041189891666
 21
-54.47424684112521
 31
0.0
  0
LINE
  5
119F6
330
18
100
AcDbEntity
  8
0
100
AcDbLine
 39
0.4
 10
893.2289589891675
 20
309.5747717197373
 30
0.0
 11
893.2289589891668
 21
-54.47424684112518
 31
0.0
  0
LINE
  5
11A12
330
18
100
AcDbEntity
  8
0
100
AcDbLine
 39
0.4
 10
602.4041189891668
 20
-79.47424684112521
 30
0.0
 11
868.2289589891668
 21
-79.47424684112518
 31
0.0
  0
ARC
  5
11A13
330
18
100
AcDbEntity
  8
0
100
AcDbCircle
 10
602.4041189891666
 20
-837.974246841126
 30
0.0
 40
1200.0
100
AcDbArc
 50
89.68189124292157
 51
102.4092861263769
  0
LINE
  5
11B34
330
18
100
AcDbEntity
  8
DIM
  6
Continuous
 62
    22
100
AcDbLine
 10
367.0376126233303
 20
-0.558552319471346
 30
0.0
 11
367.741951836721
 21
-0.558552319471346
 31
0.0
  0
LINE
  5
11B35
330
18
100
AcDbEntity
  8
DIM
  6
Continuous
 62
    22
100
AcDbLine
 10
387.4634498116084
 20
-5.488926813209445
 30
0.0
 11
388.1677890249995
 21
-5.488926813209445
 31
0.0
  0
LINE
  5
11B36
330
18
100
AcDbEntity
  8
DIM
  6
Continuous
 62
    22
100
AcDbLine
 10
387.1112802049437
 20
-7.601944453382429
 30
0.0
 11
387.1112802049437
 21
-5.488926813209445
 31
0.0
  0
LINE
  5
11B37
330
18
100
AcDbEntity
  8
DIM
  6
Continuous
 62
    22
100
AcDbLine
 10
387.1112802049437
 20
-5.488926813209445
 30
0.0
 11
386.406940991553
 21
-5.488926813209445
 31
0.0
  0
LINE
  5
11B38
330
18
100
AcDbEntity
  8
DIM
  6
Continuous
 62
    22
100
AcDbLine
 10
386.406940991553
 20
-5.488926813209445
 30
0.0
 11
384.9982625647706
 21
-0.558552319471346
 31
0.0
  0
LINE
  5
11B39
330
18
100
AcDbEntity
  8
DIM
  6
Continuous
 62
    22
100
AcDbLine
 10
384.9982625647706
 20
-0.558552319471346
 30
0.0
 11
385.6321678568413
 21
-0.558552319471346
 31
0.0
  0
LINE
  5
11B3A
330
18
100
AcDbEntity
  8
DIM
  6
Continuous
 62
    22
100
AcDbLine
 10
385.6321678568413
 20
-0.558552319471346
 30
0.0
 11
385.6321678568413
 21
1.554465320686631
 31
0.0
  0
LINE
  5
11B3B
330
18
100
AcDbEntity
  8
DIM
  6
Continuous
 62
    22
100
AcDbLine
 10
385.6321678568413
 20
1.554465320686631
 30
0.0
 11
379.2931149363219
 21
1.554465320686631
 31
0.0
  0
LINE
  5
11B3C
330
18
100
AcDbEntity
  8
DIM
  6
Continuous
 62
    22
100
AcDbLine
 10
379.2931149363219
 20
1.554465320686631
 30
0.0
 11
379.2931149363219
 21
-0.558552319471346
 31
0.0
  0
LINE
  5
11B3D
330
18
100
AcDbEntity
  8
DIM
  6
Continuous
 62
    22
100
AcDbLine
 10
379.2931149363219
 20
-0.558552319471346
 30
0.0
 11
379.9270202283306
 21
-0.558552319471346
 31
0.0
  0
LINE
  5
11B3E
330
18
100
AcDbEntity
  8
DIM
  6
Continuous
 62
    22
100
AcDbLine
 10
379.9270202283306
 20
-0.558552319471346
 30
0.0
 11
378.8000774869543
 21
-5.488926813209445
 31
0.0
  0
LINE
  5
11B3F
330
18
100
AcDbEntity
  8
DIM
  6
Continuous
 62
    22
100
AcDbLine
 10
378.8000774869543
 20
-5.488926813209445
 30
0.0
 11
377.9548704308604
 21
-5.488926813209445
 31
0.0
  0
LINE
  5
11B40
330
18
100
AcDbEntity
  8
DIM
  6
Continuous
 62
    22
100
AcDbLine
 10
377.9548704308604
 20
-5.488926813209445
 30
0.0
 11
377.9548704308604
 21
-7.601944453382429
 31
0.0
  0
LINE
  5
11B41
330
18
100
AcDbEntity
  8
DIM
  6
Continuous
 62
    22
100
AcDbLine
 10
377.9548704308604
 20
-7.601944453382429
 30
0.0
 11
381.7583021831596
 21
-7.601944453382429
 31
0.0
  0
LINE
  5
11B42
330
18
100
AcDbEntity
  8
DIM
  6
Continuous
 62
    22
100
AcDbLine
 10
381.7583021831596
 20
-7.601944453382429
 30
0.0
 11
381.7583021831596
 21
-5.488926813209445
 31
0.0
  0
LINE
  5
11B43
330
18
100
AcDbEntity
  8
DIM
  6
Continuous
 62
    22
100
AcDbLine
 10
381.7583021831596
 20
-5.488926813209445
 30
0.0
 11
381.0539629697684
 21
-5.488926813209445
 31
0.0
  0
LINE
  5
11B44
330
18
100
AcDbEntity
  8
DIM
  6
Continuous
 62
    22
100
AcDbLine
 10
381.0539629697684
 20
-5.488926813209445
 30
0.0
 11
381.3759466101794
 21
-4.080248386426319
 31
0.0
  0
LINE
  5
11B45
330
18
100
AcDbEntity
  8
DIM
  6
Continuous
 62
    22
100
AcDbLine
 10
381.3759466101794
 20
-4.080248386426319
 30
0.0
 11
383.1871045875061
 21
-4.080248386426319
 31
0.0
  0
LINE
  5
11B46
330
18
100
AcDbEntity
  8
DIM
  6
Continuous
 62
    22
100
AcDbLine
 10
383.1871045875061
 20
-4.080248386426319
 30
0.0
 11
383.5895841379886
 21
-5.488926813209445
 31
0.0
  0
LINE
  5
11B47
330
18
100
AcDbEntity
  8
DIM
  6
Continuous
 62
    22
100
AcDbLine
 10
383.5895841379886
 20
-5.488926813209445
 30
0.0
 11
382.5330753178714
 21
-5.488926813209445
 31
0.0
  0
LINE
  5
11B48
330
18
100
AcDbEntity
  8
DIM
  6
Continuous
 62
    22
100
AcDbLine
 10
382.5330753178714
 20
-5.488926813209445
 30
0.0
 11
382.5330753178714
 21
-7.601944453382429
 31
0.0
  0
LINE
  5
11B49
330
18
100
AcDbEntity
  8
DIM
  6
Continuous
 62
    22
100
AcDbLine
 10
382.5330753178714
 20
-7.601944453382429
 30
0.0
 11
387.1112802049437
 21
-7.601944453382429
 31
0.0
  0
LINE
  5
11B4A
330
18
100
AcDbEntity
  8
DIM
  6
Continuous
 62
    22
100
AcDbLine
 10
397.3241987990832
 20
-12.88448855379965
 30
0.0
 11
397.3241987990832
 21
6.837009421118636
 31
0.0
  0
LINE
  5
11B4B
330
18
100
AcDbEntity
  8
DIM
  6
Continuous
 62
    22
100
AcDbLine
 10
397.3241987990832
 20
6.837009421118636
 30
0.0
 11
377.6027008241958
 21
6.837009421118636
 31
0.0
  0
LINE
  5
11B4C
330
18
100
AcDbEntity
  8
DIM
  6
Continuous
 62
    22
100
AcDbLine
 10
377.6027008241958
 20
6.837009421118636
 30
0.0
 11
377.6027008241958
 21
-12.88448855379965
 31
0.0
  0
LINE
  5
11B4D
330
18
100
AcDbEntity
  8
DIM
  6
Continuous
 62
    22
100
AcDbLine
 10
377.6027008241958
 20
-12.88448855379965
 30
0.0
 11
397.3241987990832
 21
-12.88448855379965
 31
0.0
  0
LINE
  5
11B4E
330
18
100
AcDbEntity
  8
DIM
  6
Continuous
 62
    22
100
AcDbLine
 10
381.6979302505903
 20
-2.671569959644784
 30
0.0
 11
382.7846250369614
 21
-2.671569959644784
 31
0.0
  0
LINE
  5
11B4F
330
18
100
AcDbEntity
  8
DIM
  6
Continuous
 62
    22
100
AcDbLine
 10
382.7846250369614
 20
-2.671569959644784
 30
0.0
 11
382.1809057112067
 21
-0.558552319471346
 31
0.0
  0
LINE
  5
11B50
330
18
100
AcDbEntity
  8
DIM
  6
Continuous
 62
    22
100
AcDbLine
 10
382.1809057112067
 20
-0.558552319471346
 30
0.0
 11
381.6979302505903
 21
-2.671569959644784
 31
0.0
  0
LINE
  5
11B51
330
18
100
AcDbEntity
  8
DIM
  6
Continuous
 62
    22
100
AcDbLine
 10
358.9311870217125
 20
-0.6092890123500183
 30
0.0
 11
358.9311870217125
 21
-5.488926813209445
 31
0.0
  0
LINE
  5
11B52
330
18
100
AcDbEntity
  8
DIM
  6
Continuous
 62
    22
100
AcDbLine
 10
358.8934707735698
 20
-5.51468882154495
 30
0.0
 11
357.9543518223818
 21
-5.51468882154495
 31
0.0
  0
LINE
  5
11B53
330
18
100
AcDbEntity
  8
DIM
  6
Continuous
 62
    22
100
AcDbLine
 10
357.9543518223818
 20
-5.51468882154495
 30
0.0
 11
357.9445614762744
 21
-7.601944453382429
 31
0.0
  0
LINE
  5
11B54
330
18
100
AcDbEntity
  8
DIM
  6
Continuous
 62
    22
100
AcDbLine
 10
357.8812028492466
 20
-7.601944453382429
 30
0.0
 11
362.811577342984
 21
-7.601944453382429
 31
0.0
  0
LINE
  5
11B55
330
18
100
AcDbEntity
  8
DIM
  6
Continuous
 62
    22
100
AcDbLine
 10
362.811577342984
 20
-7.601944453382429
 30
0.0
 11
362.811577342984
 21
-5.488926813209445
 31
0.0
  0
LINE
  5
11B56
330
18
100
AcDbEntity
  8
DIM
  6
Continuous
 62
    22
100
AcDbLine
 10
362.811577342984
 20
-5.488926813209445
 30
0.0
 11
362.1072381295928
 21
-5.488926813209445
 31
0.0
  0
LINE
  5
11B57
330
18
100
AcDbEntity
  8
DIM
  6
Continuous
 62
    22
100
AcDbLine
 10
362.1072381295928
 20
-5.488926813209445
 30
0.0
 11
362.1072381295928
 21
-3.8689466224032
 31
0.0
  0
LINE
  5
11B58
330
18
100
AcDbEntity
  8
DIM
  6
Continuous
 62
    22
100
AcDbLine
 10
362.1072381295928
 20
-3.8689466224032
 30
0.0
 11
363.5159165563748
 21
-3.8689466224032
 31
0.0
  0
LINE
  5
11B59
330
18
100
AcDbEntity
  8
DIM
  6
Continuous
 62
    22
100
AcDbLine
 10
363.5159165563748
 20
-3.8689466224032
 30
0.0
 11
363.5159165563748
 21
-2.178532510277818
 31
0.0
  0
LINE
  5
11B5A
330
18
100
AcDbEntity
  8
DIM
  6
Continuous
 62
    22
100
AcDbLine
 10
363.5159165563748
 20
-2.178532510277818
 30
0.0
 11
362.1072381295928
 21
-2.178532510277818
 31
0.0
  0
LINE
  5
11B5B
330
18
100
AcDbEntity
  8
DIM
  6
Continuous
 62
    22
100
AcDbLine
 10
362.1072381295928
 20
-2.178532510277818
 30
0.0
 11
362.1072381295928
 21
-0.558552319471346
 31
0.0
  0
LINE
  5
11B5C
330
18
100
AcDbEntity
  8
DIM
  6
Continuous
 62
    22
100
AcDbLine
 10
362.1072381295928
 20
-0.558552319471346
 30
0.0
 11
364.220255769766
 21
-0.558552319471346
 31
0.0
  0
LINE
  5
11B5D
330
18
100
AcDbEntity
  8
DIM
  6
Continuous
 62
    22
100
AcDbLine
 10
364.220255769766
 20
-0.558552319471346
 30
0.0
 11
364.220255769766
 21
-1.26289153286325
 31
0.0
  0
LINE
  5
11B5E
330
18
100
AcDbEntity
  8
DIM
  6
Continuous
 62
    22
100
AcDbLine
 10
364.220255769766
 20
-1.26289153286325
 30
0.0
 11
366.333273409939
 21
-1.26289153286325
 31
0.0
  0
LINE
  5
11B5F
330
18
100
AcDbEntity
  8
DIM
  6
Continuous
 62
    22
100
AcDbLine
 10
366.333273409939
 20
-1.26289153286325
 30
0.0
 11
366.333273409939
 21
1.554465320686631
 31
0.0
  0
LINE
  5
11B60
330
18
100
AcDbEntity
  8
DIM
  6
Continuous
 62
    22
100
AcDbLine
 10
366.333273409939
 20
1.554465320686631
 30
0.0
 11
357.8812028492466
 21
1.554465320686631
 31
0.0
  0
LINE
  5
11B61
330
18
100
AcDbEntity
  8
DIM
  6
Continuous
 62
    22
100
AcDbLine
 10
357.9301168199517
 20
1.527069277683949
 30
0.0
 11
357.9301168199517
 21
-0.558552319471346
 31
0.0
  0
LINE
  5
11B62
330
18
100
AcDbEntity
  8
DIM
  6
Continuous
 62
    22
100
AcDbLine
 10
357.9920680705245
 20
-0.6092890123500183
 30
0.0
 11
358.9311870217125
 21
-0.6092890123500183
 31
0.0
  0
ARC
  5
11B63
330
18
100
AcDbEntity
  8
DIM
  6
Continuous
 62
    22
100
AcDbCircle
 10
371.9679871170672
 20
-1.26289153286325
 30
0.0
 40
0.7043392133903155
100
AcDbArc
 50
270.000019318661
 51
89.99998633946532
  0
LINE
  5
11B64
330
18
100
AcDbEntity
  8
DIM
  6
Continuous
 62
    22
100
AcDbLine
 10
371.9679872849861
 20
-0.558552319471346
 30
0.0
 11
371.2636479036764
 21
-0.558552319471346
 31
0.0
  0
LINE
  5
11B65
330
18
100
AcDbEntity
  8
DIM
  6
Continuous
 62
    22
100
AcDbLine
 10
371.2636479036764
 20
-0.558552319471346
 30
0.0
 11
371.2636479036764
 21
-1.967230746253108
 31
0.0
  0
LINE
  5
11B66
330
18
100
AcDbEntity
  8
DIM
  6
Continuous
 62
    22
100
AcDbLine
 10
371.2636479036764
 20
-1.967230746253108
 30
0.0
 11
371.9679871170672
 21
-1.967230746253108
 31
0.0
  0
LINE
  5
11B67
330
18
100
AcDbEntity
  8
DIM
  6
Continuous
 62
    22
100
AcDbLine
 10
367.741951836721
 20
-5.488926813209445
 30
0.0
 11
367.0376126233303
 21
-5.488926813209445
 31
0.0
  0
LINE
  5
11B68
330
18
100
AcDbEntity
  8
DIM
  6
Continuous
 62
    22
100
AcDbLine
 10
367.0376126233303
 20
-5.488926813209445
 30
0.0
 11
367.741951836721
 21
-5.488926813209445
 31
0.0
  0
LINE
  5
11B69
330
18
100
AcDbEntity
  8
DIM
  6
Continuous
 62
    22
100
AcDbLine
 10
367.741951836721
 20
-5.488926813209445
 30
0.0
 11
367.741951836721
 21
-0.558552319471346
 31
0.0
  0
LINE
  5
11B6A
330
18
100
AcDbEntity
  8
DIM
  6
Continuous
 62
    22
100
AcDbLine
 10
367.741951836721
 20
-0.558552319471346
 30
0.0
 11
367.0376126233303
 21
-0.558552319471346
 31
0.0
  0
LINE
  5
11B6B
330
18
100
AcDbEntity
  8
DIM
  6
Continuous
 62
    22
100
AcDbLine
 10
367.0376126233303
 20
-0.558552319471346
 30
0.0
 11
367.0376126233303
 21
1.554465320686631
 31
0.0
  0
LINE
  5
11B6C
330
18
100
AcDbEntity
  8
DIM
  6
Continuous
 62
    22
100
AcDbLine
 10
367.0376126233303
 20
1.554465320686631
 30
0.0
 11
373.5575871944655
 21
1.554465320686631
 31
0.0
  0
ARC
  5
11B6D
330
18
100
AcDbEntity
  8
DIM
  6
Continuous
 62
    22
100
AcDbCircle
 10
373.7947922164251
 20
-1.004896827772427
 30
0.0
 40
2.570330879366269
100
AcDbArc
 50
299.3919370093872
 51
95.29512076164328
  0
LINE
  5
11B6E
330
18
100
AcDbEntity
  8
DIM
  6
Continuous
 62
    22
100
AcDbLine
 10
375.0562621524655
 20
-3.244382132480495
 30
0.0
 11
375.8418527906874
 21
-5.488926813209445
 31
0.0
  0
LINE
  5
11B6F
330
18
100
AcDbEntity
  8
DIM
  6
Continuous
 62
    22
100
AcDbLine
 10
375.8418527906874
 20
-5.488926813209445
 30
0.0
 11
376.5461920040782
 21
-5.488926813209445
 31
0.0
  0
LINE
  5
11B70
330
18
100
AcDbEntity
  8
DIM
  6
Continuous
 62
    22
100
AcDbLine
 10
376.5461920040782
 20
-5.488926813209445
 30
0.0
 11
376.5461920040782
 21
-7.601944453382429
 31
0.0
  0
LINE
  5
11B71
330
18
100
AcDbEntity
  8
DIM
  6
Continuous
 62
    22
100
AcDbLine
 10
376.5461920040782
 20
-7.601944453382429
 30
0.0
 11
373.4470994651701
 21
-7.601944453382429
 31
0.0
  0
LINE
  5
11B72
330
18
100
AcDbEntity
  8
DIM
  6
Continuous
 62
    22
100
AcDbLine
 10
373.4470994651701
 20
-7.601944453382429
 30
0.0
 11
371.9679871170672
 21
-3.375909173036234
 31
0.0
  0
LINE
  5
11B73
330
18
100
AcDbEntity
  8
DIM
  6
Continuous
 62
    22
100
AcDbLine
 10
371.9679871170672
 20
-3.375909173036234
 30
0.0
 11
371.2636479036764
 21
-3.375909173036234
 31
0.0
  0
LINE
  5
11B74
330
18
100
AcDbEntity
  8
DIM
  6
Continuous
 62
    22
100
AcDbLine
 10
371.2636479036764
 20
-3.375909173036234
 30
0.0
 11
371.2636479036764
 21
-5.488926813209445
 31
0.0
  0
LINE
  5
11B75
330
18
100
AcDbEntity
  8
DIM
  6
Continuous
 62
    22
100
AcDbLine
 10
371.2636479036764
 20
-5.488926813209445
 30
0.0
 11
371.9679871170672
 21
-5.488926813209445
 31
0.0
  0
LINE
  5
11B76
330
18
100
AcDbEntity
  8
DIM
  6
Continuous
 62
    22
100
AcDbLine
 10
371.9679871170672
 20
-5.488926813209445
 30
0.0
 11
371.9679871170672
 21
-7.601944453382429
 31
0.0
  0
LINE
  5
11B77
330
18
100
AcDbEntity
  8
DIM
  6
Continuous
 62
    22
100
AcDbLine
 10
371.9679871170672
 20
-7.601944453382429
 30
0.0
 11
367.0376126233303
 21
-7.601944453382429
 31
0.0
  0
LINE
  5
11B78
330
18
100
AcDbEntity
  8
DIM
  6
Continuous
 62
    22
100
AcDbLine
 10
367.0376126233303
 20
-7.601944453382429
 30
0.0
 11
367.0376126233303
 21
-5.488926813209445
 31
0.0
  0
LINE
  5
11B79
330
18
100
AcDbEntity
  8
DIM
  6
Continuous
 62
    22
100
AcDbLine
 10
357.1768636358554
 20
-12.88448855379965
 30
0.0
 11
376.8983616108046
 21
-12.88448855379965
 31
0.0
  0
LINE
  5
11B7A
330
18
100
AcDbEntity
  8
DIM
  6
Continuous
 62
    22
100
AcDbLine
 10
376.8983616108046
 20
-12.88448855379965
 30
0.0
 11
376.8983616108046
 21
6.837009421118636
 31
0.0
  0
LINE
  5
11B7B
330
18
100
AcDbEntity
  8
DIM
  6
Continuous
 62
    22
100
AcDbLine
 10
376.8983616108046
 20
6.837009421118636
 30
0.0
 11
357.1768636358554
 21
6.837009421118636
 31
0.0
  0
LINE
  5
11B7C
330
18
100
AcDbEntity
  8
DIM
  6
Continuous
 62
    22
100
AcDbLine
 10
357.1768636358554
 20
6.837009421118636
 30
0.0
 11
357.1768636358554
 21
-12.88448855379965
 31
0.0
  0
LINE
  5
11B7D
330
18
100
AcDbEntity
  8
DIM
  6
Continuous
 62
    22
100
AcDbLine
 10
398.3807076192004
 20
-0.558552319471346
 30
0.0
 11
398.3807076192004
 21
1.554465320686631
 31
0.0
  0
LINE
  5
11B7E
330
18
100
AcDbEntity
  8
DIM
  6
Continuous
 62
    22
100
AcDbLine
 10
398.3807076192004
 20
1.554465320686631
 30
0.0
 11
403.3110821129379
 21
1.554465320686631
 31
0.0
  0
LINE
  5
11B7F
330
18
100
AcDbEntity
  8
DIM
  6
Continuous
 62
    22
100
AcDbLine
 10
403.3110821129379
 20
1.554465320686631
 30
0.0
 11
403.3110821129379
 21
-0.558552319471346
 31
0.0
  0
LINE
  5
11B80
330
18
100
AcDbEntity
  8
DIM
  6
Continuous
 62
    22
100
AcDbLine
 10
403.3110821129379
 20
-0.558552319471346
 30
0.0
 11
402.6067428995467
 21
-0.558552319471346
 31
0.0
  0
LINE
  5
11B81
330
18
100
AcDbEntity
  8
DIM
  6
Continuous
 62
    22
100
AcDbLine
 10
402.6067428995467
 20
-0.558552319471346
 30
0.0
 11
402.6067428995467
 21
-2.473291153677564
 31
0.0
  0
LINE
  5
11B82
330
18
100
AcDbEntity
  8
DIM
  6
Continuous
 62
    22
100
AcDbLine
 10
402.6067428995467
 20
-2.473291153677564
 30
0.0
 11
404.3675909329933
 21
-0.558552319471346
 31
0.0
  0
LINE
  5
11B83
330
18
100
AcDbEntity
  8
DIM
  6
Continuous
 62
    22
100
AcDbLine
 10
404.3675909329933
 20
-0.558552319471346
 30
0.0
 11
403.6632517196026
 21
-0.558552319471346
 31
0.0
  0
LINE
  5
11B84
330
18
100
AcDbEntity
  8
DIM
  6
Continuous
 62
    22
100
AcDbLine
 10
403.6632517196026
 20
-0.558552319471346
 30
0.0
 11
403.6632517196026
 21
1.554465320686631
 31
0.0
  0
LINE
  5
11B85
330
18
100
AcDbEntity
  8
DIM
  6
Continuous
 62
    22
100
AcDbLine
 10
403.6632517196026
 20
1.554465320686631
 30
0.0
 11
407.8892869999488
 21
1.554465320686631
 31
0.0
  0
LINE
  5
11B86
330
18
100
AcDbEntity
  8
DIM
  6
Continuous
 62
    22
100
AcDbLine
 10
407.8892869999488
 20
1.554465320686631
 30
0.0
 11
407.8892869999488
 21
-0.558552319471346
 31
0.0
  0
LINE
  5
11B87
330
18
100
AcDbEntity
  8
DIM
  6
Continuous
 62
    22
100
AcDbLine
 10
407.8892869999488
 20
-0.558552319471346
 30
0.0
 11
407.1849477865575
 21
-0.558552319471346
 31
0.0
  0
LINE
  5
11B88
330
18
100
AcDbEntity
  8
DIM
  6
Continuous
 62
    22
100
AcDbLine
 10
407.1849477865575
 20
-0.558552319471346
 30
0.0
 11
405.4804063126994
 21
-2.412063634737478
 31
0.0
  0
LINE
  5
11B89
330
18
100
AcDbEntity
  8
DIM
  6
Continuous
 62
    22
100
AcDbLine
 10
405.4804063126994
 20
-2.412063634737478
 30
0.0
 11
407.5371173932222
 21
-5.488926813209445
 31
0.0
  0
LINE
  5
11B8A
330
18
100
AcDbEntity
  8
DIM
  6
Continuous
 62
    22
100
AcDbLine
 10
407.5371173932222
 20
-5.488926813209445
 30
0.0
 11
408.2414566066752
 21
-5.488926813209445
 31
0.0
  0
LINE
  5
11B8B
330
18
100
AcDbEntity
  8
DIM
  6
Continuous
 62
    22
100
AcDbLine
 10
408.2414566066752
 20
-5.488926813209445
 30
0.0
 11
408.2414566066752
 21
-7.601944453382429
 31
0.0
  0
LINE
  5
11B8C
330
18
100
AcDbEntity
  8
DIM
  6
Continuous
 62
    22
100
AcDbLine
 10
408.2414566066752
 20
-7.601944453382429
 30
0.0
 11
403.6632517196026
 21
-7.601944453382429
 31
0.0
  0
LINE
  5
11B8D
330
18
100
AcDbEntity
  8
DIM
  6
Continuous
 62
    22
100
AcDbLine
 10
403.6632517196026
 20
-7.601944453382429
 30
0.0
 11
403.6632517196026
 21
-5.488926813209445
 31
0.0
  0
LINE
  5
11B8E
330
18
100
AcDbEntity
  8
DIM
  6
Continuous
 62
    22
100
AcDbLine
 10
403.6632517196026
 20
-5.488926813209445
 30
0.0
 11
404.3675909329933
 21
-5.488926813209445
 31
0.0
  0
LINE
  5
11B8F
330
18
100
AcDbEntity
  8
DIM
  6
Continuous
 62
    22
100
AcDbLine
 10
404.3675909329933
 20
-5.488926813209445
 30
0.0
 11
402.6067428995467
 21
-2.854678119616664
 31
0.0
  0
LINE
  5
11B90
330
18
100
AcDbEntity
  8
DIM
  6
Continuous
 62
    22
100
AcDbLine
 10
402.6067428995467
 20
-2.854678119616664
 30
0.0
 11
402.6067428995467
 21
-5.488926813209445
 31
0.0
  0
LINE
  5
11B91
330
18
100
AcDbEntity
  8
DIM
  6
Continuous
 62
    22
100
AcDbLine
 10
402.6067428995467
 20
-5.488926813209445
 30
0.0
 11
403.3110821129379
 21
-5.488926813209445
 31
0.0
  0
LINE
  5
11B92
330
18
100
AcDbEntity
  8
DIM
  6
Continuous
 62
    22
100
AcDbLine
 10
403.3110821129379
 20
-5.488926813209445
 30
0.0
 11
403.3110821129379
 21
-7.601944453382429
 31
0.0
  0
LINE
  5
11B93
330
18
100
AcDbEntity
  8
DIM
  6
Continuous
 62
    22
100
AcDbLine
 10
403.3110821129379
 20
-7.601944453382429
 30
0.0
 11
398.3807076192004
 21
-7.601944453382429
 31
0.0
  0
LINE
  5
11B94
330
18
100
AcDbEntity
  8
DIM
  6
Continuous
 62
    22
100
AcDbLine
 10
398.3807076192004
 20
-7.601944453382429
 30
0.0
 11
398.3807076192004
 21
-5.488926813209445
 31
0.0
  0
LINE
  5
11B95
330
18
100
AcDbEntity
  8
DIM
  6
Continuous
 62
    22
100
AcDbLine
 10
398.3807076192004
 20
-5.488926813209445
 30
0.0
 11
399.0850468325916
 21
-5.488926813209445
 31
0.0
  0
LINE
  5
11B96
330
18
100
AcDbEntity
  8
DIM
  6
Continuous
 62
    22
100
AcDbLine
 10
399.0850468325916
 20
-5.488926813209445
 30
0.0
 11
399.0850468325916
 21
-0.558552319471346
 31
0.0
  0
LINE
  5
11B97
330
18
100
AcDbEntity
  8
DIM
  6
Continuous
 62
    22
100
AcDbLine
 10
399.0850468325916
 20
-0.558552319471346
 30
0.0
 11
398.3807076192004
 21
-0.558552319471346
 31
0.0
  0
LINE
  5
11B98
330
18
100
AcDbEntity
  8
DIM
  6
Continuous
 62
    22
100
AcDbLine
 10
398.3807076192004
 20
-0.558552319471346
 30
0.0
 11
399.0850468325916
 21
-0.558552319471346
 31
0.0
  0
LINE
  5
11B99
330
18
100
AcDbEntity
  8
DIM
  6
Continuous
 62
    22
100
AcDbLine
 10
398.028538012474
 20
6.837009421118636
 30
0.0
 11
398.028538012474
 21
-12.88448855379965
 31
0.0
  0
LINE
  5
11B9A
330
18
100
AcDbEntity
  8
DIM
  6
Continuous
 62
    22
100
AcDbLine
 10
398.028538012474
 20
-12.88448855379965
 30
0.0
 11
417.7500359874231
 21
-12.88448855379965
 31
0.0
  0
LINE
  5
11B9B
330
18
100
AcDbEntity
  8
DIM
  6
Continuous
 62
    22
100
AcDbLine
 10
417.7500359874231
 20
-12.88448855379965
 30
0.0
 11
417.7500359874231
 21
6.837009421118636
 31
0.0
  0
LINE
  5
11B9C
330
18
100
AcDbEntity
  8
DIM
  6
Continuous
 62
    22
100
AcDbLine
 10
417.7500359874231
 20
6.837009421118636
 30
0.0
 11
398.028538012474
 21
6.837009421118636
 31
0.0
  0
LINE
  5
11B9D
330
18
100
AcDbEntity
  8
DIM
  6
Continuous
 62
    22
100
AcDbLine
 10
387.4634498116084
 20
-0.558552319471346
 30
0.0
 11
387.4634498116084
 21
1.554465320686631
 31
0.0
  0
LINE
  5
11B9E
330
18
100
AcDbEntity
  8
DIM
  6
Continuous
 62
    22
100
AcDbLine
 10
387.4634498116084
 20
1.554465320686631
 30
0.0
 11
390.7839061033533
 21
1.554465320686631
 31
0.0
  0
LINE
  5
11B9F
330
18
100
AcDbEntity
  8
DIM
  6
Continuous
 62
    22
100
AcDbLine
 10
390.7839061033533
 20
1.554465320686631
 30
0.0
 11
393.8025027321278
 21
-2.671569959644784
 31
0.0
  0
LINE
  5
11BA0
330
18
100
AcDbEntity
  8
DIM
  6
Continuous
 62
    22
100
AcDbLine
 10
393.8025027321278
 20
-2.671569959644784
 30
0.0
 11
393.8025027321278
 21
-0.558552319471346
 31
0.0
  0
LINE
  5
11BA1
330
18
100
AcDbEntity
  8
DIM
  6
Continuous
 62
    22
100
AcDbLine
 10
393.8025027321278
 20
-0.558552319471346
 30
0.0
 11
393.098163518737
 21
-0.558552319471346
 31
0.0
  0
LINE
  5
11BA2
330
18
100
AcDbEntity
  8
DIM
  6
Continuous
 62
    22
100
AcDbLine
 10
393.098163518737
 20
-0.558552319471346
 30
0.0
 11
393.098163518737
 21
1.554465320686631
 31
0.0
  0
LINE
  5
11BA3
330
18
100
AcDbEntity
  8
DIM
  6
Continuous
 62
    22
100
AcDbLine
 10
393.098163518737
 20
1.554465320686631
 30
0.0
 11
396.619859585692
 21
1.554465320686631
 31
0.0
  0
LINE
  5
11BA4
330
18
100
AcDbEntity
  8
DIM
  6
Continuous
 62
    22
100
AcDbLine
 10
396.619859585692
 20
1.554465320686631
 30
0.0
 11
396.619859585692
 21
-0.558552319471346
 31
0.0
  0
LINE
  5
11BA5
330
18
100
AcDbEntity
  8
DIM
  6
Continuous
 62
    22
100
AcDbLine
 10
396.619859585692
 20
-0.558552319471346
 30
0.0
 11
395.9155203723008
 21
-0.558552319471346
 31
0.0
  0
LINE
  5
11BA6
330
18
100
AcDbEntity
  8
DIM
  6
Continuous
 62
    22
100
AcDbLine
 10
395.9155203723008
 20
-0.558552319471346
 30
0.0
 11
395.9155203723008
 21
-7.601944453382429
 31
0.0
  0
LINE
  5
11BA7
330
18
100
AcDbEntity
  8
DIM
  6
Continuous
 62
    22
100
AcDbLine
 10
395.9155203723008
 20
-7.601944453382429
 30
0.0
 11
393.8025027321278
 21
-7.601944453382429
 31
0.0
  0
LINE
  5
11BA8
330
18
100
AcDbEntity
  8
DIM
  6
Continuous
 62
    22
100
AcDbLine
 10
393.8025027321278
 20
-7.601944453382429
 30
0.0
 11
390.2808066651726
 21
-2.671569959644784
 31
0.0
  0
LINE
  5
11BA9
330
18
100
AcDbEntity
  8
DIM
  6
Continuous
 62
    22
100
AcDbLine
 10
390.2808066651726
 20
-2.671569959644784
 30
0.0
 11
390.2808066651726
 21
-5.488926813209445
 31
0.0
  0
LINE
  5
11BAA
330
18
100
AcDbEntity
  8
DIM
  6
Continuous
 62
    22
100
AcDbLine
 10
390.2808066651726
 20
-5.488926813209445
 30
0.0
 11
390.9851458785638
 21
-5.488926813209445
 31
0.0
  0
LINE
  5
11BAB
330
18
100
AcDbEntity
  8
DIM
  6
Continuous
 62
    22
100
AcDbLine
 10
390.9851458785638
 20
-5.488926813209445
 30
0.0
 11
390.9851458785638
 21
-7.601944453382429
 31
0.0
  0
LINE
  5
11BAC
330
18
100
AcDbEntity
  8
DIM
  6
Continuous
 62
    22
100
AcDbLine
 10
390.9851458785638
 20
-7.601944453382429
 30
0.0
 11
387.4634498116084
 21
-7.601944453382429
 31
0.0
  0
LINE
  5
11BAD
330
18
100
AcDbEntity
  8
DIM
  6
Continuous
 62
    22
100
AcDbLine
 10
387.4634498116084
 20
-7.601944453382429
 30
0.0
 11
387.4634498116084
 21
-5.488926813209445
 31
0.0
  0
LINE
  5
11BAE
330
18
100
AcDbEntity
  8
DIM
  6
Continuous
 62
    22
100
AcDbLine
 10
387.4634498116084
 20
-5.488926813209445
 30
0.0
 11
388.1677890249995
 21
-5.488926813209445
 31
0.0
  0
LINE
  5
11BAF
330
18
100
AcDbEntity
  8
DIM
  6
Continuous
 62
    22
100
AcDbLine
 10
388.1677890249995
 20
-5.488926813209445
 30
0.0
 11
388.1677890249995
 21
-0.558552319471346
 31
0.0
  0
LINE
  5
11BB0
330
18
100
AcDbEntity
  8
DIM
  6
Continuous
 62
    22
100
AcDbLine
 10
388.1677890249995
 20
-0.558552319471346
 30
0.0
 11
387.4634498116084
 21
-0.558552319471346
 31
0.0
  0
LINE
  5
11BB1
330
18
100
AcDbEntity
  8
DIM
  6
Continuous
 62
    22
100
AcDbLine
 10
387.4634498116084
 20
-0.558552319471346
 30
0.0
 11
388.1677890249995
 21
-0.558552319471346
 31
0.0
  0
LINE
  5
11BB2
330
18
100
AcDbEntity
  8
DIM
  6
Continuous
 62
    22
100
AcDbLine
 10
408.5936262133396
 20
-5.488926813209445
 30
0.0
 11
409.2979654267306
 21
-5.488926813209445
 31
0.0
  0
LINE
  5
11BB3
330
18
100
AcDbEntity
  8
DIM
  6
Continuous
 62
    22
100
AcDbLine
 10
409.2979654267306
 20
-5.488926813209445
 30
0.0
 11
408.5936262133396
 21
-5.488926813209445
 31
0.0
  0
LINE
  5
11BB4
330
18
100
AcDbEntity
  8
DIM
  6
Continuous
 62
    22
100
AcDbLine
 10
408.5936262133396
 20
-5.488926813209445
 30
0.0
 11
408.5936262133396
 21
-7.601944453382429
 31
0.0
  0
LINE
  5
11BB5
330
18
100
AcDbEntity
  8
DIM
  6
Continuous
 62
    22
100
AcDbLine
 10
408.5936262133396
 20
-7.601944453382429
 30
0.0
 11
417.0456967740324
 21
-7.601944453382429
 31
0.0
  0
LINE
  5
11BB6
330
18
100
AcDbEntity
  8
DIM
  6
Continuous
 62
    22
100
AcDbLine
 10
417.0456967740324
 20
-7.601944453382429
 30
0.0
 11
417.0456967740324
 21
-4.784587599817768
 31
0.0
  0
LINE
  5
11BB7
330
18
100
AcDbEntity
  8
DIM
  6
Continuous
 62
    22
100
AcDbLine
 10
417.0456967740324
 20
-4.784587599817768
 30
0.0
 11
414.9326791338593
 21
-4.784587599817768
 31
0.0
  0
LINE
  5
11BB8
330
18
100
AcDbEntity
  8
DIM
  6
Continuous
 62
    22
100
AcDbLine
 10
414.9326791338593
 20
-4.784587599817768
 30
0.0
 11
414.9326791338593
 21
-5.488926813209445
 31
0.0
  0
LINE
  5
11BB9
330
18
100
AcDbEntity
  8
DIM
  6
Continuous
 62
    22
100
AcDbLine
 10
414.9326791338593
 20
-5.488926813209445
 30
0.0
 11
412.8196614936862
 21
-5.488926813209445
 31
0.0
  0
LINE
  5
11BBA
330
18
100
AcDbEntity
  8
DIM
  6
Continuous
 62
    22
100
AcDbLine
 10
412.8196614936862
 20
-5.488926813209445
 30
0.0
 11
412.8196614936862
 21
-3.8689466224032
 31
0.0
  0
LINE
  5
11BBB
330
18
100
AcDbEntity
  8
DIM
  6
Continuous
 62
    22
100
AcDbLine
 10
412.8196614936862
 20
-3.8689466224032
 30
0.0
 11
414.2283399204682
 21
-3.8689466224032
 31
0.0
  0
LINE
  5
11BBC
330
18
100
AcDbEntity
  8
DIM
  6
Continuous
 62
    22
100
AcDbLine
 10
414.2283399204682
 20
-3.8689466224032
 30
0.0
 11
414.2283399204682
 21
-2.178532510277818
 31
0.0
  0
LINE
  5
11BBD
330
18
100
AcDbEntity
  8
DIM
  6
Continuous
 62
    22
100
AcDbLine
 10
414.2283399204682
 20
-2.178532510277818
 30
0.0
 11
412.8196614936862
 21
-2.178532510277818
 31
0.0
  0
LINE
  5
11BBE
330
18
100
AcDbEntity
  8
DIM
  6
Continuous
 62
    22
100
AcDbLine
 10
412.8196614936862
 20
-2.178532510277818
 30
0.0
 11
412.8196614936862
 21
-0.558552319471346
 31
0.0
  0
LINE
  5
11BBF
330
18
100
AcDbEntity
  8
DIM
  6
Continuous
 62
    22
100
AcDbLine
 10
412.8196614936862
 20
-0.558552319471346
 30
0.0
 11
414.9326791338593
 21
-0.558552319471346
 31
0.0
  0
LINE
  5
11BC0
330
18
100
AcDbEntity
  8
DIM
  6
Continuous
 62
    22
100
AcDbLine
 10
414.9326791338593
 20
-0.558552319471346
 30
0.0
 11
414.9326791338593
 21
-1.26289153286325
 31
0.0
  0
LINE
  5
11BC1
330
18
100
AcDbEntity
  8
DIM
  6
Continuous
 62
    22
100
AcDbLine
 10
414.9326791338593
 20
-1.26289153286325
 30
0.0
 11
417.0456967740324
 21
-1.26289153286325
 31
0.0
  0
LINE
  5
11BC2
330
18
100
AcDbEntity
  8
DIM
  6
Continuous
 62
    22
100
AcDbLine
 10
417.0456967740324
 20
-1.26289153286325
 30
0.0
 11
417.0456967740324
 21
1.554465320686631
 31
0.0
  0
LINE
  5
11BC3
330
18
100
AcDbEntity
  8
DIM
  6
Continuous
 62
    22
100
AcDbLine
 10
417.0456967740324
 20
1.554465320686631
 30
0.0
 11
408.5936262133396
 21
1.554465320686631
 31
0.0
  0
LINE
  5
11BC4
330
18
100
AcDbEntity
  8
DIM
  6
Continuous
 62
    22
100
AcDbLine
 10
408.5936262133396
 20
1.554465320686631
 30
0.0
 11
408.5936262133396
 21
-0.558552319471346
 31
0.0
  0
LINE
  5
11BC5
330
18
100
AcDbEntity
  8
DIM
  6
Continuous
 62
    22
100
AcDbLine
 10
408.5936262133396
 20
-0.558552319471346
 30
0.0
 11
409.2979654267306
 21
-0.558552319471346
 31
0.0
  0
LINE
  5
11BC6
330
18
100
AcDbEntity
  8
DIM
  6
Continuous
 62
    22
100
AcDbLine
 10
409.2979654267306
 20
-0.558552319471346
 30
0.0
 11
409.2979654267306
 21
-5.488926813209445
 31
0.0
  0
TEXT
  5
11BC7
330
18
100
AcDbEntity
  8
P-0000
  6
Continuous
 62
    22
100
AcDbText
 10
361.4931275800577
 20
298.3087434305576
 30
0.0
 40
6.696526051202761
  1
CUT-OUT TEMPLATE FOR ELG11022
  7
Franke
100
AcDbText
1001
TOP
1070
     1
  0
MTEXT
  5
11BC8
330
18
100
AcDbEntity
  8
DIM
  6
Continuous
 62
    22
100
AcDbMText
 10
358.6407540020716
 20
-41.20296459119981
 30
0.0
 40
5.022394538402071
 41
74.09365619278912
 46
0.0
 71
     7
 72
     5
  1
Questions?  Call Franke Customer Service USA 1-800-626-5771
  7
Franke
 73
     2
 44
0.9035999999999999
1001
TOP
1070
    22
  0
DIMENSION
  5
11BC9
330
18
100
AcDbEntity
  8
0
100
AcDbDimension
280
     0
  2
*D3
 10
893.228958989167
 20
48.2878943836522
 30
0.0
 11
686.2108916172401
 21
48.2878943836522
 31
0.0
 70
   160
  1
{\H0.28571x;22-3/8"}
 71
     5
 42
568.3248400000004
 73
     0
 74
     0
 75
     0
  3
Lead of KS-STANDARD$0
100
AcDbAlignedDimension
 13
324.9041189891666
 23
-41.7742468411252
 33
0.0
 14
893.228958989167
 24
-41.7742468411252
 34
0.0
100
AcDbRotatedDimension
1001
ACAD_DSTYLE_DIMINSPECT
1070
   396
1000
100%
1070
   395
1000

1070
   394
1070
    33
1070
   393
1070
     0
1001
ACAD
1000
DSTYLE
1002
{
1070
   176
1070
     1
1070
   178
1070
     1
1002
}
  0
DIMENSION
  5
11BCA
330
18
100
AcDbEntity
  8
0
100
AcDbDimension
280
     0
  2
*D4
 10
899.5772876335617
 20
-72.97324797672629
 30
0.0
 11
793.6328936266138
 21
-40.29871276536048
 31
0.0
 70
   164
  1
R 25mm
 71
     5
 42
11.99999999999738
 73
     0
 74
     0
 75
     0
  3
Lead of KS-STANDARD
100
AcDbRadialDimension
 15
888.2984292810151
 25
-68.87601058268521
 35
0.0
 40
0.0
1001
ACAD_DSTYLE_DIMRADIAL_EXTENSION
1070
   387
1070
     1
1070
   388
1040
3.141592653589793
1070
   390
1040
4.712388980384689
1001
ACAD_DSTYLE_DIMINSPECT
1070
   396
1000
100%
1070
   395
1000

1070
   394
1070
    33
1070
   393
1070
     0
1001
ACAD
1000
DSTYLE
1002
{
1070
   140
1040
0.7
1070
   176
1070
     1
1070
   178
1070
     1
1070
   288
1070
     1
1002
}
  0
DIMENSION
  5
11BCB
330
18
100
AcDbEntity
  8
0
100
AcDbDimension
280
     0
  2
*D5
 10
602.4041189891668
 20
-79.47424684112521
 30
0.0
 11
602.4041189891668
 21
285.1164252483593
 31
0.0
 70
   160
  1
{\H0.28571x;17 3/8"}
 71
     5
 42
441.4815049240307
 73
     0
 74
     0
 75
     0
  3
Lead of KS-STANDARD$0
100
AcDbAlignedDimension
 13
609.066538989167
 23
362.0072580829055
 33
0.0
 14
602.4041189891668
 24
-79.47424684112521
 34
0.0
 50
90.0
100
AcDbRotatedDimension
1001
ACAD
1000
DSTYLE
1002
{
1070
   176
1070
     1
1070
   178
1070
     1
1002
}
1001
ACAD_DSTYLE_DIMINSPECT
1070
   396
1000
100%
1070
   395
1000

1070
   394
1070
    33
1070
   393
1070
     0
  0
MTEXT
  5
12070
330
18
100
AcDbEntity
  8
P-0000
  6
Continuous
 62
    22
100
AcDbMText
 10
359.792163278649
 20
-65.85670736929114
 30
0.0
 40
5.022394538402071
 41
74.09365619278912
 46
0.0
 71
     7
 72
     5
  1
TEM-ELG11022
  7
Franke
 73
     2
 44
0.9035999999999999
1001
TOP
1070
    22
  0
MTEXT
  5
1214B
102
{ACAD_XDICTIONARY
360
1214C
102
}
330
18
100
AcDbEntity
  8
P-0000
  6
Continuous
 62
    22
100
AcDbMText
 10
360.2210225709448
 20
280.0014250701695
 30
0.0
 40
5.5
 41
228.7030505324378
 46
0.0
 71
     1
 72
     5
  3
\pi-16.5,l16.5,t16.5;Any deviation from this template could prevent the homeowner from being able to\Puse the Franke custom fit accessories that match this sink, so we strongly\Precommend following this cutout template.\P\PClosely follow installation
  3
 instructions before making any cuts to countertop\P\PThis template file, like any template, is meant to be a guideline.  The actual sink\Pand accessories should ALWAYS be present to ensure a perfect cut.\P\pi0,l0,tz;\PFRANKE IS NOT RESPONSIBLE FOR A
  1
N IMPROPERLY CUT COUNTERTOP OR \PAN IMPROPER INSTALLATION\P
  7
Franke
 73
     1
 44
1.0
1001
ACAD
1000
ACAD_MTEXT_COLUMN_INFO_BEGIN
1070
    75
1070
     2
1070
    79
1070
     0
1070
    76
1070
     1
1070
    78
1070
     0
1070
    48
1040
228.7030505324378
1070
    49
1040
15.0
1070
    50
1070
     1
1040
163.6401225953889
1000
ACAD_MTEXT_COLUMN_INFO_END
  0
VIEWPORT
  5
3D
330
15
100
AcDbEntity
 67
     1
  8
0
100
AcDbViewport
 10
525.3966560082797
 20
279.721810686172
 30
0.0
 40
1147.911497960293
 41
564.0706122915755
 68
     1
 69
     1
 12
525.3966560082797
 22
279.721810686172
 13
0.0
 23
0.0
 14
0.5
 24
0.5
 15
0.5
 25
0.5
 16
0.0
 26
0.0
 36
1.0
 17
0.0
 27
0.0
 37
0.0
 42
50.0
 43
0.0
 44
0.0
 45
564.0706122915755
 50
0.0
 51
0.0
 72
   100
 90
    32800
  1

281
     0
 71
     1
 74
     0
110
0.0
120
0.0
130
0.0
111
1.0
121
0.0
131
0.0
112
0.0
122
1.0
132
0.0
 79
     0
146
0.0
170
     0
 61
     5
348
1032C
292
     1
282
     1
141
0.0
142
0.0
 63
   250
421
  3355443
1001
GENIUS_GENSCREG_15
1000
PF
1040
1.0
1000
DF
1040
1.0
1000
MIN
1011
-48.55909297186667
1021
-2.313495459615751
1031
0.0
1000
MAX
1011
1099.352404988426
1021
561.7571168319598
1031
0.0
1000
FLAGS
1070
     4
1001
GENIUS_GENOBJ-N-SDF_13
1002
{
1000
OWNER
1000
GEN
1002
}
1001
GENIUS_GENODEF_13
1002
{
1000
HIER
1070
     0
1002
}
1002
{
1000
MANEDIT
1070
     0
1002
}
1002
{
1000
NOSEL
1070
     0
1002
}
1002
{
1000
BEHIND
1070
     0
1002
}
1002
{
1000
OTHER
1070
     0
1002
}
1002
{
1000
REACTOR
1002
}
  0
VIEWPORT
  5
91
330
15
100
AcDbEntity
 67
     1
  8
VP
100
AcDbViewport
 10
413.0
 20
268.0
 30
0.0
 40
826.0
 41
536.0
 68
     2
 69
     2
 12
811.0234970296616
 22
9.111154105251671
 13
0.0
 23
0.0
 14
0.5
 24
0.5
 15
0.5
 25
0.5
 16
0.0
 26
0.0
 36
1.0
 17
0.0
 27
0.0
 37
0.0
 42
50.0
 43
0.0
 44
0.0
 45
1071.999999720118
 50
0.0
 51
0.0
 72
   100
 90
    32800
  1

281
     0
 71
     1
 74
     0
110
0.0
120
0.0
130
0.0
111
1.0
121
0.0
131
0.0
112
0.0
122
1.0
132
0.0
 79
     0
146
0.0
170
     0
 61
     5
348
1032C
292
     1
282
     1
141
0.0
142
0.0
 63
   250
421
  3355443
1001
GENIUS_GENSCREG_15
1000
PF
1040
0.0
1000
DF
1040
0.0
1000
MIN
1011
0.0
1021
0.0
1031
0.0
1000
MAX
1011
826.0
1021
536.0
1031
0.0
1000
FLAGS
1070
     4
1001
GENIUS_GENOBJ-N-SDF_13
1002
{
1000
OWNER
1000
GEN
1002
}
1001
GENIUS_GENODEF_13
1002
{
1000
HIER
1070
     0
1002
}
1002
{
1000
MANEDIT
1070
     0
1002
}
1002
{
1000
NOSEL
1070
     0
1002
}
1002
{
1000
BEHIND
1070
     0
1002
}
1002
{
1000
OTHER
1070
     0
1002
}
1002
{
1000
REACTOR
1002
}
  0
TEXT
  5
C3
330
15
100
AcDbEntity
 67
     1
  8
SHEET
100
AcDbText
 10
643.6074401272232
 20
29.1462164538458
 30
0.0
 40
7.0
  1
CARRON PHOENIX LIMITED
 41
1.25
  7
TITLE
100
AcDbText
  0
TEXT
  5
C4
330
15
100
AcDbEntity
 67
     1
  8
SHEET
100
AcDbText
 10
686.277084038376
 20
9.996084583200172
 30
0.0
 40
3.0
  1
T. PATON
100
AcDbText
  0
TEXT
  5
C5
330
15
100
AcDbEntity
 67
     1
  8
SHEET
100
AcDbText
 10
632.8414978404748
 20
9.996084583200172
 30
0.0
 40
3.0
  1
SCALE
100
AcDbText
  0
TEXT
  5
C6
330
15
100
AcDbEntity
 67
     1
  8
SHEET
100
AcDbText
 10
661.9584781159993
 20
20.99891592694101
 30
0.0
 40
4.0
  1
FALKIRK
 41
1.25
  7
TITLE
100
AcDbText
  0
TEXT
  5
C7
330
15
100
AcDbEntity
 67
     1
  8
SHEET
100
AcDbText
 10
660.8840537883387
 20
9.996084583200172
 30
0.0
 40
3.0
  1
DRN.
100
AcDbText
  0
TEXT
  5
C8
330
15
100
AcDbEntity
 67
     1
  8
SHEET
100
AcDbText
 10
741.4796427340283
 20
20.99891592694101
 30
0.0
 40
4.0
  1
SCOTLAND
 41
1.25
  7
TITLE
100
AcDbText
  0
TEXT
  5
C9
330
15
100
AcDbEntity
 67
     1
  8
SHEET
100
AcDbText
 10
742.0273106036347
 20
9.996084583200172
 30
0.0
 40
3.0
  1
18/02/15
100
AcDbText
  0
TEXT
  5
CA
330
15
100
AcDbEntity
 67
     1
  8
SHEET
100
AcDbText
 10
718.9266097362026
 20
9.996084583200172
 30
0.0
 40
3.0
  1
DATE
100
AcDbText
  0
TEXT
  5
CB
330
15
100
AcDbEntity
 67
     1
  8
SHEET
100
AcDbText
 10
768.4372487231684
 20
9.996084583200172
 30
0.0
 40
3.0
  1
DWG. No.
100
AcDbText
  0
TEXT
  5
CD
330
15
100
AcDbEntity
 67
     1
  8
SHEET
100
AcDbText
 10
709.3563473153826
 20
55.45675693379303
 30
0.0
 40
8.0
  1
ELG 110
  7
TITLE
100
AcDbText
  0
TEXT
  5
CE
330
15
100
AcDbEntity
 67
     1
  8
SHEET
100
AcDbText
 10
628.4372487231686
 20
64.52122657551583
 30
0.0
 40
3.5
  1
TITLE
100
AcDbText
  0
LINE
  5
D0
330
15
100
AcDbEntity
 67
     1
  8
SHEET
100
AcDbLine
 10
626.0
 20
38.0
 30
0.0
 11
826.0
 21
38.0
 31
0.0
  0
LINE
  5
D1
330
15
100
AcDbEntity
 67
     1
  8
SHEET
100
AcDbLine
 10
626.0
 20
16.0
 30
0.0
 11
826.0
 21
16.0
 31
0.0
  0
LINE
  5
D2
330
15
100
AcDbEntity
 67
     1
  8
SHEET
100
AcDbLine
 10
626.0
 20
70.0
 30
0.0
 11
826.0
 21
70.0
 31
0.0
  0
LINE
  5
D3
330
15
100
AcDbEntity
 67
     1
  8
SHEET
100
AcDbLine
 10
626.0
 20
0.0
 30
0.0
 11
626.0
 21
70.0
 31
0.0
  0
LINE
  5
D4
330
15
100
AcDbEntity
 67
     1
  8
SHEET
100
AcDbLine
 10
766.0
 20
8.0
 30
0.0
 11
626.0
 21
8.0
 31
0.0
  0
TEXT
  5
D5
330
15
100
AcDbEntity
 67
     1
  8
SHEET
100
AcDbText
 10
636.0230835199595
 20
1.996084583200172
 30
0.0
 40
3.0
  1
1 : 2
100
AcDbText
  0
LINE
  5
D6
330
15
100
AcDbEntity
 67
     1
  8
SHEET
100
AcDbLine
 10
656.0
 20
16.0
 30
0.0
 11
656.0
 21
0.0
 31
0.0
  0
TEXT
  5
D7
330
15
100
AcDbEntity
 67
     1
  8
SHEET
100
AcDbText
 10
718.9266097362026
 20
1.996084583200172
 30
0.0
 40
3.0
  1
DATE
100
AcDbText
  0
LINE
  5
D8
330
15
100
AcDbEntity
 67
     1
  8
SHEET
100
AcDbLine
 10
716.0
 20
16.0
 30
0.0
 11
716.0
 21
0.0
 31
0.0
  0
LINE
  5
D9
330
15
100
AcDbEntity
 67
     1
  8
SHEET
100
AcDbLine
 10
736.0
 20
16.0
 30
0.0
 11
736.0
 21
0.0
 31
0.0
  0
LINE
  5
DA
330
15
100
AcDbEntity
 67
     1
  8
SHEET
100
AcDbLine
 10
766.0
 20
16.0
 30
0.0
 11
766.0
 21
0.0
 31
0.0
  0
TEXT
  5
14C
330
15
100
AcDbEntity
 67
     1
  8
SHEET
100
AcDbText
 10
394.3111155747608
 20
542.7165616792604
 30
0.0
 40
3.0
  1
UNTOLERANCED DIMENSIONS +/-2
  7
EUROROMAN
100
AcDbText
  0
TEXT
  5
14D
330
15
100
AcDbEntity
 67
     1
  8
SHEET
100
AcDbText
 10
394.3111155747608
 20
547.7165616792603
 30
0.0
 40
3.0
  1
UNLESS OTHERWISE SPECIFIED ALL
  7
EUROROMAN
100
AcDbText
  0
TEXT
  5
170
330
15
100
AcDbEntity
 67
     1
  8
SHEET
100
AcDbText
 10
645.7143374186281
 20
544.5964358029121
 30
0.0
 40
4.0
  1
THIRD ANGLE PROJECTION
 41
1.25
  7
TITLE
100
AcDbText
  0
TEXT
  5
171
330
15
100
AcDbEntity
 67
     1
  8
SHEET
100
AcDbText
 10
482.2548096935725
 20
542.0929519229177
 30
0.0
 40
3.0
  1
UNLESS OTHERWISE SPECIFIED
  7
TITLE
100
AcDbText
  0
TEXT
  5
172
330
15
100
AcDbEntity
 67
     1
  8
SHEET
100
AcDbText
 10
478.2731496697663
 20
547.7365066104174
 30
0.0
 40
3.0
  1
ALL DIMENSIONS IN MILLIMETRES
  7
TITLE
100
AcDbText
  0
TEXT
  5
173
330
15
100
AcDbEntity
 67
     1
  8
SHEET
100
AcDbText
 10
581.9291848841144
 20
542.0929519229177
 30
0.0
 40
3.0
  1
IF IN DOUBT ASK
  7
TITLE
100
AcDbText
  0
TEXT
  5
174
330
15
100
AcDbEntity
 67
     1
  8
SHEET
100
AcDbText
 10
560.6918259577939
 20
547.7365066104174
 30
0.0
 40
3.0
  1
DO NOT SCALE FROM THIS DRAWING
  7
TITLE
100
AcDbText
  0
LINE
  5
175
330
15
100
AcDbEntity
 67
     1
  8
SHEET
100
AcDbLine
 10
776.0
 20
551.4999604751336
 30
0.0
 11
811.0
 21
553.9999604751336
 31
0.0
  0
LINE
  5
176
330
15
100
AcDbEntity
 67
     1
  8
SHEET
  6
CENTER
100
AcDbLine
 10
741.0
 20
546.4999604751336
 30
0.0
 11
816.0
 21
546.4999604751336
 31
0.0
  0
LINE
  5
177
330
15
100
AcDbEntity
 67
     1
  8
SHEET
100
AcDbLine
 10
776.0
 20
541.4999604751336
 30
0.0
 11
811.0
 21
538.9999604751336
 31
0.0
  0
CIRCLE
  5
178
330
15
100
AcDbEntity
 67
     1
  8
SHEET
100
AcDbCircle
 10
751.0
 20
546.4999604751336
 30
0.0
 40
5.0
  0
CIRCLE
  5
179
330
15
100
AcDbEntity
 67
     1
  8
SHEET
100
AcDbCircle
 10
751.0
 20
546.4999604751336
 30
0.0
 40
7.5
  0
LINE
  5
17A
330
15
100
AcDbEntity
 67
     1
  8
SHEET
  6
CENTER
100
AcDbLine
 10
751.0
 20
536.4999604751337
 30
0.0
 11
751.0
 21
556.4999604751336
 31
0.0
  0
LINE
  5
17B
330
15
100
AcDbEntity
 67
     1
  8
SHEET
100
AcDbLine
 10
776.0
 20
541.4999604751336
 30
0.0
 11
776.0
 21
551.4999604751336
 31
0.0
  0
LINE
  5
17C
330
15
100
AcDbEntity
 67
     1
  8
SHEET
100
AcDbLine
 10
811.0
 20
538.9999604751336
 30
0.0
 11
811.0
 21
553.9999604751336
 31
0.0
  0
LINE
  5
1184
330
15
100
AcDbEntity
 67
     1
  8
SHEET
100
AcDbLine
 10
676.0
 20
16.0
 30
0.0
 11
676.0
 21
0.0
 31
0.0
  0
TEXT
  5
2F5D
330
15
100
AcDbEntity
 67
     1
  8
SHEET
100
AcDbText
 10
689.1696353061774
 20
45.22399627243316
 30
0.0
 40
5.0
  1
MACHINE DIMENSIONS
  7
TITLE
100
AcDbText
  0
LINE
  5
4B8C
330
15
100
AcDbEntity
 67
     1
  8
SHEET
100
AcDbLine
 10
48.10977352972173
 20
559.0
 30
0.0
 11
48.10977352972173
 21
534.0
 31
0.0
  0
TEXT
  5
4B8F
330
15
100
AcDbEntity
 67
     1
  8
SHEET
100
AcDbText
 10
0.8543636042879256
 20
544.3549735064748
 30
0.0
 40
4.5
  1
AMENDMENTS
  7
TITLE
100
AcDbText
  0
LINE
  5
4B90
330
15
100
AcDbEntity
 67
     1
  8
SHEET
100
AcDbLine
 10
0.0
 20
559.0
 30
0.0
 11
826.0
 21
559.0
 31
0.0
  0
LINE
  5
4B97
330
15
100
AcDbEntity
 67
     1
  8
SHEET
100
AcDbLine
 10
0.0
 20
534.0
 30
0.0
 11
826.0
 21
534.0
 31
0.0
  0
LINE
  5
4B98
330
15
100
AcDbEntity
 67
     1
  8
SHEET
100
AcDbLine
 10
0.0
 20
0.0
 30
0.0
 11
0.0
 21
559.0
 31
0.0
  0
LINE
  5
4B9A
330
15
100
AcDbEntity
 67
     1
  8
SHEET
100
AcDbLine
 10
826.0
 20
0.0
 30
0.0
 11
826.0
 21
559.0
 31
0.0
  0
LINE
  5
4B9B
330
15
100
AcDbEntity
 67
     1
  8
SHEET
100
AcDbLine
 10
0.0
 20
0.0
 30
0.0
 11
826.0
 21
0.0
 31
0.0
  0
LINE
  5
56E2
330
15
100
AcDbEntity
 67
     1
  8
SHEET
100
AcDbLine
 10
642.2710003186033
 20
533.9999999999998
 30
0.0
 11
642.2710003186032
 21
436.0026349802402
 31
0.0
  0
LINE
  5
577F
330
15
100
AcDbEntity
 67
     1
  8
SHEET
100
AcDbLine
 10
642.2710003186031
 20
436.0024206105359
 30
0.0
 11
826.0
 21
435.9999999891512
 31
0.0
  0
TEXT
  5
5799
330
15
100
AcDbEntity
 67
     1
  8
SHEET
  6
Continuous
100
AcDbText
 10
643.9168054606873
 20
438.5010539747381
 30
0.0
 40
5.0
  1
SCALE 1 : 1
 72
     1
 11
662.2710003186035
 21
438.5010539747381
 31
0.0
100
AcDbText
  0
TEXT
  5
57E6
330
15
100
AcDbEntity
 67
     1
  8
SHEET
100
AcDbText
 10
690.9950483152873
 20
440.6794353207529
 30
0.0
 40
3.75
  1
SECTION A-A
  7
ROMANS
 72
     4
 11
710.0129054581445
 21
442.554435320753
 31
0.0
100
AcDbText
  0
TEXT
  5
57F3
330
15
100
AcDbEntity
 67
     1
  8
SHEET
100
AcDbText
 10
737.6398327002566
 20
440.7568682431336
 30
0.0
 40
2.5
  1
VIEW OF FOREDGE SECTION
  7
ROMANS
 72
     4
 11
763.7112612716852
 21
442.0068682431336
 31
0.0
100
AcDbText
  0
LINE
  5
5A42
330
15
100
AcDbEntity
 67
     1
  8
DIM
 62
     1
100
AcDbLine
 10
780.7042768091597
 20
509.7027864878675
 30
0.0
 11
794.5929035724154
 21
509.7027864878675
 31
0.0
  0
LINE
  5
5A43
330
15
100
AcDbEntity
 67
     1
  8
DIM
 62
     1
100
AcDbLine
 10
780.7042768091597
 20
496.9821125450279
 30
0.0
 11
794.5929035724154
 21
496.9821125450279
 31
0.0
  0
LINE
  5
5A44
330
15
100
AcDbEntity
 67
     1
  8
DIM
 62
     1
100
AcDbLine
 10
794.4129035724155
 20
514.7027864878675
 30
0.0
 11
794.4129035724155
 21
519.7027864878675
 31
0.0
  0
LINE
  5
5A45
330
15
100
AcDbEntity
 67
     1
  8
DIM
 62
     1
100
AcDbLine
 10
794.4129035724155
 20
491.9821125450278
 30
0.0
 11
794.4129035724155
 21
486.9821125450278
 31
0.0
  0
SOLID
  5
5A47
330
15
100
AcDbEntity
 67
     1
  8
DIM
 62
     1
100
AcDbTrace
 10
793.5795702390821
 20
514.7027864878675
 30
0.0
 11
795.2462369057489
 21
514.7027864878675
 31
0.0
 12
794.4129035724155
 22
509.7027864878675
 32
0.0
 13
794.4129035724155
 23
509.7027864878675
 33
0.0
  0
SOLID
  5
5A48
330
15
100
AcDbEntity
 67
     1
  8
DIM
 62
     1
100
AcDbTrace
 10
793.5795702390821
 20
491.9821125450278
 30
0.0
 11
795.2462369057489
 21
491.9821125450278
 31
0.0
 12
794.4129035724155
 22
496.9821125450278
 32
0.0
 13
794.4129035724155
 23
496.9821125450278
 33
0.0
  0
MTEXT
  5
5A49
330
15
100
AcDbEntity
 67
     1
  8
DIM
  6
ByBlock
 62
     1
100
AcDbMText
 10
795.9059938510781
 20
502.8727018932106
 30
0.0
 40
3.0
 41
0.0
 46
0.0
 71
     5
 72
     5
  1
12.70%%P1
 73
     1
 44
1.0
  0
LINE
  5
5B7C
330
15
100
AcDbEntity
 67
     1
  8
SHEET
100
AcDbLine
 10
103.1097735297217
 20
559.0
 30
0.0
 11
103.1097735297217
 21
534.0
 31
0.0
  0
TEXT
  5
5B7D
330
15
100
AcDbEntity
 67
     1
  8
SHEET
100
AcDbText
 10
49.8179114701345
 20
542.5018345610635
 30
0.0
 40
3.0
  1
TP  ECN321  18/02/15
  7
EUROROMAN
100
AcDbText
  0
TEXT
  5
5B7E
330
15
100
AcDbEntity
 67
     1
  8
SHEET
100
AcDbText
 10
49.8179114701345
 20
547.5018345610635
 30
0.0
 40
3.0
  1
ISSUED TO PRODUCTION
  7
EUROROMAN
100
AcDbText
  0
TEXT
  5
5B7F
330
15
100
AcDbEntity
 67
     1
  8
SHEET
100
AcDbText
 10
48.9473677858723
 20
555.6444888966905
 30
0.0
 40
3.0
  1
A
  7
EUROROMAN
100
AcDbText
  0
LINE
  5
5B80
330
15
100
AcDbEntity
 67
     1
  8
SHEET
100
AcDbLine
 10
53.10977352972173
 20
559.0
 30
0.0
 11
53.10977352972173
 21
555.0
 31
0.0
  0
LINE
  5
5B81
330
15
100
AcDbEntity
 67
     1
  8
SHEET
100
AcDbLine
 10
53.10977352972173
 20
555.0
 30
0.0
 11
48.10977352972173
 21
555.0
 31
0.0
  0
TEXT
  5
96AA
330
15
100
AcDbEntity
 67
     1
  8
SHEET
100
AcDbText
 10
792.3857929534583
 20
5.57783144135169
 30
0.0
 40
2.5
  1
ELG110--X
100
AcDbText
  0
LINE
  5
10732
330
15
100
AcDbEntity
 67
     1
  8
SINK
100
AcDbLine
 10
735.2474243989495
 20
509.6821125450264
 30
0.0
 11
754.2427884469321
 21
509.6821125450264
 31
0.0
  0
LINE
  5
10733
330
15
100
AcDbEntity
 67
     1
  8
CL
100
AcDbLine
 10
780.6481967939576
 20
507.1821125450273
 30
0.0
 11
780.6481967939567
 21
512.1821125450282
 31
0.0
  0
LINE
  5
10734
330
15
100
AcDbEntity
 67
     1
  8
CL
100
AcDbLine
 10
778.1481967939575
 20
509.6821125450273
 30
0.0
 11
783.1481967939566
 21
509.6821125450282
 31
0.0
  0
LINE
  5
10737
330
15
100
AcDbEntity
 67
     1
  8
SINK
100
AcDbLine
 10
765.6481967939571
 20
509.6821125450264
 30
0.0
 11
754.2427884469321
 21
509.6821125450264
 31
0.0
  0
LINE
  5
10738
330
15
100
AcDbEntity
 67
     1
  8
SINK
100
AcDbLine
 10
764.5555552455367
 20
499.6821125450264
 30
0.0
 11
764.3894471739223
 21
499.6821125450264
 31
0.0
  0
ARC
  5
10739
330
15
100
AcDbEntity
 67
     1
  8
SINK
100
AcDbCircle
 10
764.3894471739223
 20
494.6821125450264
 30
0.0
 40
5.0
100
AcDbArc
 50
90.0
 51
155.000000000024
  0
ARC
  5
1073A
330
15
100
AcDbEntity
 67
     1
  8
SINK
100
AcDbCircle
 10
764.5555552455367
 20
494.6821125450264
 30
0.0
 40
5.0
100
AcDbArc
 50
45.0000000000069
 51
90.0
  0
LINE
  5
1073B
330
15
100
AcDbEntity
 67
     1
  8
SINK
100
AcDbLine
 10
741.9501214282428
 20
475.8340084626829
 30
0.0
 11
740.7153780958867
 21
467.0483531407209
 31
0.0
  0
ARC
  5
1073C
330
15
100
AcDbEntity
 67
     1
  8
SINK
100
AcDbCircle
 10
749.6481967939567
 20
483.1821125450264
 30
0.0
 40
3.5
100
AcDbArc
 50
251.1467538454625
 51
335.000000000024
  0
ARC
  5
1073D
330
15
100
AcDbEntity
 67
     1
  8
SINK
100
AcDbCircle
 10
746.9014617719509
 20
475.1381429578827
 30
0.0
 40
5.0
100
AcDbArc
 50
71.14675384546257
 51
172.000000000012
  0
LINE
  5
1073E
330
15
100
AcDbEntity
 67
     1
  8
SINK
100
AcDbLine
 10
752.8202740485845
 20
481.7029486289342
 30
0.0
 11
759.8579082387392
 21
496.7952038537299
 31
0.0
  0
LINE
  5
1073F
330
15
100
AcDbEntity
 67
     1
  8
SINK
100
AcDbLine
 10
739.503853029336
 20
501.539683570249
 30
0.0
 11
734.6564126607743
 21
467.0483531407209
 31
0.0
  0
ELLIPSE
  5
10741
330
15
100
AcDbEntity
 67
     1
  8
SINK
100
AcDbEllipse
 10
754.2427884469321
 20
499.6821125450264
 30
0.0
 11
-15.0
 21
0.0
 31
0.0
210
0.0
220
0.0
230
-1.0
 40
0.6666666666666666
 41
6.470027626238897
 42
7.853981633974482
  0
ELLIPSE
  5
10742
330
15
100
AcDbEntity
 67
     1
  8
SINK
100
AcDbEllipse
 10
765.6481967939571
 20
499.6821125450264
 30
0.0
 11
14.81119760775209
 21
0.0
 31
0.0
210
0.0
220
0.0
230
-1.0
 40
0.6751648492466308
 41
4.712388980384689
 42
6.283185307179586
  0
LINE
  5
10743
330
15
100
AcDbEntity
 67
     1
  8
SINK
100
AcDbLine
 39
0.4
 10
734.6564126607743
 20
467.0483531407209
 30
0.0
 11
735.4539076884434
 21
466.7691787642185
 31
0.0
  0
LINE
  5
10744
330
15
100
AcDbEntity
 67
     1
  8
SINK
100
AcDbLine
 39
0.4
 10
735.4539076884434
 20
466.7691787642185
 30
0.0
 11
736.918893161273
 21
467.1450124984486
 31
0.0
  0
LINE
  5
10745
330
15
100
AcDbEntity
 67
     1
  8
SINK
100
AcDbLine
 39
0.4
 10
736.918893161273
 20
467.1450124984486
 30
0.0
 11
738.2347854029007
 21
466.6525412715192
 31
0.0
  0
LINE
  5
10746
330
15
100
AcDbEntity
 67
     1
  8
SINK
100
AcDbLine
 39
0.4
 10
738.2347854029007
 20
466.6525412715192
 30
0.0
 11
740.335026762455
 21
467.3134897834467
 31
0.0
  0
LINE
  5
10747
330
15
100
AcDbEntity
 67
     1
  8
SINK
100
AcDbLine
 39
0.4
 10
740.335026762455
 20
467.3134897834467
 30
0.0
 11
740.7153780958867
 21
467.0483531407209
 31
0.0
  0
LINE
  5
10DF0
330
15
100
AcDbEntity
 67
     1
  8
SINK
100
AcDbLine
 10
780.4593944017092
 20
499.6821125450287
 30
0.0
 11
780.648196793957
 21
496.9821125450265
 31
0.0
  0
LINE
  5
10DF8
330
15
100
AcDbEntity
 67
     1
  8
SINK
100
AcDbLine
 10
768.0910891514677
 20
498.2176464509611
 30
0.0
 11
769.3266230574042
 21
496.9821125450265
 31
0.0
  0
LINE
  5
110B0
330
15
100
AcDbEntity
 67
     1
  8
SHEET
100
AcDbLine
 10
158.1097735297217
 20
559.0
 30
0.0
 11
158.1097735297217
 21
534.0
 31
0.0
  0
TEXT
  5
110B1
330
15
100
AcDbEntity
 67
     1
  8
SHEET
100
AcDbText
 10
104.8179114701345
 20
536.1709071481254
 30
0.0
 40
3.0
  1
TP  ECN321  18/02/15
  7
EUROROMAN
100
AcDbText
  0
TEXT
  5
110B2
330
15
100
AcDbEntity
 67
     1
  8
SHEET
100
AcDbText
 10
104.8179114701345
 20
547.5018345610635
 30
0.0
 40
3.0
  1
FROM 45 DEGREES TO 
  7
EUROROMAN
100
AcDbText
  0
TEXT
  5
110B3
330
15
100
AcDbEntity
 67
     1
  8
SHEET
100
AcDbText
 10
103.9473677858723
 20
555.6444888966905
 30
0.0
 40
3.0
  1
B
  7
EUROROMAN
100
AcDbText
  0
LINE
  5
110B4
330
15
100
AcDbEntity
 67
     1
  8
SHEET
100
AcDbLine
 10
108.1097735297217
 20
559.0
 30
0.0
 11
108.1097735297217
 21
555.0
 31
0.0
  0
LINE
  5
110B5
330
15
100
AcDbEntity
 67
     1
  8
SHEET
100
AcDbLine
 10
108.1097735297217
 20
555.0
 30
0.0
 11
103.1097735297217
 21
555.0
 31
0.0
  0
TEXT
  5
110B7
330
15
100
AcDbEntity
 67
     1
  8
SHEET
100
AcDbText
 10
104.8179114701345
 20
542.0150312407882
 30
0.0
 40
3.0
  1
HORIZONTAL
  7
EUROROMAN
100
AcDbText
  0
TEXT
  5
110B8
330
15
100
AcDbEntity
 67
     1
  8
SHEET
100
AcDbText
 10
110.5186936203174
 20
554.1493086728519
 30
0.0
 40
3.0
  1
FLASH CUT CHANGED
  7
EUROROMAN
100
AcDbText
  0
LINE
  5
110B9
330
15
100
AcDbEntity
 67
     1
  8
SINK
100
AcDbLine
 39
0.4
 10
780.648196793957
 20
496.9821125450265
 30
0.0
 11
769.3266230574042
 21
496.9821125450265
 31
0.0
  0
HATCH
  5
110BB
330
15
100
AcDbEntity
 67
     1
  8
HATCH
100
AcDbHatch
 10
0.0
 20
0.0
 30
0.0
210
0.0
220
0.0
230
1.0
  2
ANSI34
 70
     0
 71
     0
 91
        1
 92
        1
 93
       19
 72
     1
 10
740.335026762455
 20
467.3134897834467
 11
740.7153780958867
 21
467.0483531407209
 72
     1
 10
740.7153780958867
 20
467.0483531407209
 11
741.9501214282428
 21
475.8340084626829
 72
     2
 10
746.9014617719509
 20
475.1381429578827
 40
5.0
 50
187.9999999999879
 51
288.8532461545375
 73
     0
 72
     2
 10
749.6481967939567
 20
483.1821125450264
 40
3.5
 50
251.1467538454625
 51
335.000000000024
 73
     1
 72
     1
 10
752.8202740485845
 20
481.7029486289342
 11
759.8579082387392
 21
496.7952038537299
 72
     2
 10
764.3894471739223
 20
494.6821125450264
 40
5.0
 50
204.9999999999759
 51
270.0
 73
     0
 72
     1
 10
764.3894471739223
 20
499.6821125450264
 11
764.5555552455367
 21
499.6821125450264
 72
     2
 10
764.5555552455367
 20
494.6821125450264
 40
5.0
 50
270.0
 51
314.9999999999931
 73
     0
 72
     1
 10
768.0910891514677
 20
498.2176464509611
 11
769.3266230574042
 21
496.9821125450265
 72
     1
 10
769.3266230574042
 20
496.9821125450265
 11
780.648196793957
 21
496.9821125450265
 72
     1
 10
780.648196793957
 20
496.9821125450265
 11
780.4593944017092
 21
499.6821125450287
 72
     3
 10
765.6481967939571
 20
499.6821125450264
 11
14.81119760775209
 21
0.0
 40
0.6751648492466308
 50
0.0
 51
90.0
 73
     1
 72
     1
 10
765.6481967939571
 20
509.6821125450264
 11
754.2427884469321
 21
509.6821125450264
 72
     3
 10
754.2427884469321
 20
499.6821125450264
 11
-15.0
 21
0.0
 40
0.6666666666666666
 50
-90.0
 51
-7.183203689740437
 73
     1
 72
     1
 10
739.503853029336
 20
501.539683570249
 11
734.6564126607743
 21
467.0483531407209
 72
     1
 10
734.6564126607743
 20
467.0483531407209
 11
735.4539076884434
 21
466.7691787642185
 72
     1
 10
735.4539076884434
 20
466.7691787642185
 11
736.918893161273
 21
467.1450124984486
 72
     1
 10
736.918893161273
 20
467.1450124984486
 11
738.2347854029007
 21
466.6525412715192
 72
     1
 10
738.2347854029007
 20
466.6525412715192
 11
740.335026762455
 21
467.3134897834467
 97
        0
 75
     1
 76
     1
 52
0.0
 41
10.0
 77
     0
 78
     4
 53
45.0
 43
0.0
 44
0.0
 45
-5.303300858899105
 46
5.303300858899106
 79
     0
 53
45.0
 43
1.76776695
 44
0.0
 45
-5.303300858899105
 46
5.303300858899106
 79
     0
 53
45.0
 43
3.535533909999999
 44
0.0
 45
-5.303300858899105
 46
5.303300858899106
 79
     0
 53
45.0
 43
5.30330086
 44
0.0
 45
-5.303300858899105
 46
5.303300858899106
 79
     0
 98
        1
 10
0.0
 20
0.0
1001
GradientColor1ACI
1070
     5
1001
GradientColor2ACI
1070
     2
1001
ACAD
1010
0.0
1020
0.0
1030
0.0
  0
ENDSEC
  0
SECTION
  2
OBJECTS
  0
DICTIONARY
  5
C
330
0
100
AcDbDictionary
281
     1
  3
ACAD_CIP_PREVIOUS_PRODUCT_INFO
350
10CEE
  3
ACAD_COLOR
350
D99F
  3
ACAD_DETAILVIEWSTYLE
350
10CE4
  3
ACAD_FIELDLIST
350
11369
  3
ACAD_GROUP
350
D
  3
ACAD_LAYOUT
350
5C1F
  3
ACAD_MATERIAL
350
D99E
  3
ACAD_MLEADERSTYLE
350
10359
  3
ACAD_MLINESTYLE
350
1B
  3
ACAD_PLOTSETTINGS
350
5C20
  3
ACAD_PLOTSTYLENAME
350
5C1D
  3
ACAD_SCALELIST
350
10337
  3
ACAD_SECTIONVIEWSTYLE
350
10CE2
  3
ACAD_TABLESTYLE
350
D9A0
  3
ACAD_VISUALSTYLE
350
10326
  3
AcadDim
350
F973
  3
ACDB_RECOMPOSE_DATA
350
1214F
  3
ACDBVARIABLEDICTIONARY
350
2C7C
  3
AcDsDecomposeData
350
12155
  3
AcmDictionary
350
11331
  3
AMG
350
11319
  3
AMGSNAPSETTINGS
350
11379
  0
DICTIONARY
  5
10CA6
330
8
100
AcDbDictionary
280
     1
281
     1
  0
DICTIONARY
  5
D9A6
330
2
100
AcDbDictionary
280
     1
281
     1
  3
ACAD_LAYERSTATES
360
D9A7
  0
DICTIONARY
  5
10372
330
E
100
AcDbDictionary
280
     1
281
     1
  3
ADSK_XREC_LAYER_RECONCILED
360
10373
  0
DICTIONARY
  5
10374
330
34
100
AcDbDictionary
280
     1
281
     1
  3
ADSK_XREC_LAYER_RECONCILED
360
10375
  0
DICTIONARY
  5
10376
330
36
100
AcDbDictionary
280
     1
281
     1
  3
ADSK_XREC_LAYER_RECONCILED
360
10377
  0
DICTIONARY
  5
10378
330
38
100
AcDbDictionary
280
     1
281
     1
  3
ADSK_XREC_LAYER_RECONCILED
360
10379
  0
DICTIONARY
  5
1037A
330
39
100
AcDbDictionary
280
     1
281
     1
  3
ADSK_XREC_LAYER_RECONCILED
360
1037B
  0
DICTIONARY
  5
1037C
330
1D50
100
AcDbDictionary
280
     1
281
     1
  3
ADSK_XREC_LAYER_RECONCILED
360
1037D
  0
DICTIONARY
  5
1037E
330
43B1
100
AcDbDictionary
280
     1
281
     1
  3
ADSK_XREC_LAYER_RECONCILED
360
1037F
  0
DICTIONARY
  5
11A83
330
11A82
100
AcDbDictionary
280
     1
281
     1
  0
DICTIONARY
  5
982C
330
18
100
AcDbDictionary
280
     1
281
     1
  3
ACAD_LAYOUTSELFREF
360
982D
  3
ACAD_SORTENTS
360
D9EB
  0
DICTIONARY
  5
982A
330
15
100
AcDbDictionary
280
     1
281
     1
  3
ACAD_LAYOUTSELFREF
360
982B
  3
ACAD_SORTENTS
360
DE28
  0
DICTIONARY
  5
1214C
330
1214B
100
AcDbDictionary
280
     1
281
     1
  3
ACAD_MTEXT_2008_RT
360
1214E
  0
XRECORD
  5
10CEE
102
{ACAD_REACTORS
330
C
102
}
330
C
100
AcDbXrecord
280
     1
300
AMECH_PP
300
2014
300
PDSP_F_S
  0
DICTIONARY
  5
D99F
102
{ACAD_REACTORS
330
C
102
}
330
C
100
AcDbDictionary
281
     1
  0
DICTIONARY
  5
10CE4
102
{ACAD_REACTORS
330
C
102
}
330
C
100
AcDbDictionary
281
     1
  3
Imperial24
350
10CE5
  3
Metric50
350
11A8B
  0
FIELDLIST
  5
11369
102
{ACAD_REACTORS
330
C
102
}
330
C
100
AcDbIdSet
 90
        7
330
11367
330
11368
330
1136A
330
1136B
330
12120
330
12121
330
12122
100
AcDbFieldList
  0
DICTIONARY
  5
D
102
{ACAD_REACTORS
330
C
102
}
330
0
100
AcDbDictionary
281
     1
  0
DICTIONARY
  5
5C1F
102
{ACAD_REACTORS
330
C
102
}
330
C
100
AcDbDictionary
281
     1
  3
Layout1
350
5C22
  3
Model
350
5C21
  0
DICTIONARY
  5
D99E
102
{ACAD_REACTORS
330
C
102
}
330
C
100
AcDbDictionary
281
     1
  3
ByBlock
350
10316
  3
ByLayer
350
1030E
  3
Global
350
1031E
  0
DICTIONARY
  5
10359
102
{ACAD_REACTORS
330
C
102
}
330
C
100
AcDbDictionary
281
     1
  3
Standard
350
1035A
  0
DICTIONARY
  5
1B
102
{ACAD_REACTORS
330
C
102
}
330
0
100
AcDbDictionary
281
     1
  3
STANDARD
350
1C
  0
DICTIONARY
  5
5C20
102
{ACAD_REACTORS
330
C
102
}
330
C
100
AcDbDictionary
281
     1
  0
ACDBDICTIONARYWDFLT
  5
5C1D
102
{ACAD_REACTORS
330
C
102
}
330
C
100
AcDbDictionary
281
     1
  3
Normal
350
5C1E
100
AcDbDictionaryWithDefault
340
5C1E
  0
DICTIONARY
  5
10337
102
{ACAD_REACTORS
330
C
102
}
330
C
100
AcDbDictionary
281
     1
  3
A0
350
10338
  3
A1
350
10339
  3
A2
350
1033A
  3
A3
350
1033B
  3
A4
350
1033C
  3
A5
350
1033D
  3
A6
350
1033E
  3
A7
350
1033F
  3
A8
350
10340
  3
A9
350
10341
  3
B0
350
10342
  3
B1
350
10343
  3
B2
350
10344
  3
B3
350
10345
  3
B4
350
10346
  3
B5
350
10347
  3
B6
350
10348
  3
B7
350
10349
  3
B8
350
1034A
  3
B9
350
1034B
  3
C0
350
1034C
  3
C1
350
1034D
  3
C2
350
1034E
  3
C3
350
1034F
  3
C4
350
10350
  3
C5
350
10351
  3
C6
350
10352
  3
C7
350
10353
  3
C8
350
10354
  3
C9
350
10355
  3
D0
350
10356
  3
D1
350
10357
  3
D2
350
10358
  0
DICTIONARY
  5
10CE2
102
{ACAD_REACTORS
330
C
102
}
330
C
100
AcDbDictionary
281
     1
  3
Imperial24
350
10CE3
  3
Metric50
350
11A89
  0
DICTIONARY
  5
D9A0
102
{ACAD_REACTORS
330
C
102
}
330
C
100
AcDbDictionary
281
     1
  3
Standard
350
D9A1
  0
DICTIONARY
  5
10326
102
{ACAD_REACTORS
330
C
102
}
330
C
100
AcDbDictionary
281
     1
  3
2dWireframe
350
1032C
  3
3D Hidden
350
1032E
  3
3dWireframe
350
1032D
  3
Basic
350
1032B
  3
Brighten
350
10332
  3
ColorChange
350
10336
  3
Conceptual
350
1032F
  3
Dim
350
10331
  3
EdgeColorOff
350
10B7C
  3
Facepattern
350
10335
  3
Flat
350
10327
  3
FlatWithEdges
350
10328
  3
Gouraud
350
10329
  3
GouraudWithEdges
350
1032A
  3
Hidden
350
10CDC
  3
JitterOff
350
10B7A
  3
Linepattern
350
10334
  3
OverhangOff
350
10B7B
  3
Realistic
350
10330
  3
Shaded
350
10CE1
  3
Shaded with edges
350
10CE0
  3
Shades of Gray
350
10CDD
  3
Sketchy
350
10CDE
  3
Thicken
350
10333
  3
Wireframe
350
10CDB
  3
X-Ray
350
10CDF
  0
XRECORD
  5
F973
102
{ACAD_REACTORS
330
C
102
}
330
C
100
AcDbXrecord
280
     1
 90
   990106
  3

 60
     0
 61
     0
 62
     1
 63
     3
 64
     0
 65
     0
 66
     0
 67
     3
 68
     1
 69
     0
 70
     0
 71
     0
 72
     0
 40
0.0
170
     0
  0
XRECORD
  5
1214F
102
{ACAD_REACTORS
330
C
102
}
330
C
100
AcDbXrecord
280
     1
 90
        1
330
D9A1
330
1214B
  0
DICTIONARY
  5
2C7C
102
{ACAD_REACTORS
330
C
102
}
330
C
100
AcDbDictionary
281
     1
  3
CANNOSCALE
350
103A7
  3
CMLEADERSTYLE
350
103A5
  3
CTABLESTYLE
350
D9C1
  3
CVIEWDETAILSTYLE
350
10D05
  3
CVIEWSECTIONSTYLE
350
10D06
  3
DIMASSOC
350
D99B
  3
LAYEREVAL
350
10D07
  3
LAYERNOTIFY
350
10D08
  3
LIGHTINGUNITS
350
103A8
  3
MSLTSCALE
350
103A6
  3
SORTENTS
350
2C7D
  0
DICTIONARY
  5
12155
102
{ACAD_REACTORS
330
C
102
}
330
C
100
AcDbDictionary
281
     1
  3
AcDsRecords
350
12157
  3
AcDsSchemas
350
12156
1001
ACAD
1070
     2
  0
DICTIONARY
  5
11331
102
{ACAD_REACTORS
330
C
102
}
330
C
100
AcDbDictionary
281
     1
  3
AcmStdDictionary
350
11338
  0
DICTIONARY
  5
11319
102
{ACAD_REACTORS
330
C
102
}
330
C
100
AcDbDictionary
281
     1
  0
DICTIONARY
  5
11379
102
{ACAD_REACTORS
330
C
102
}
330
C
100
AcDbDictionary
281
     1
  0
DICTIONARY
  5
D9A7
102
{ACAD_REACTORS
330
D9A6
102
}
330
D9A6
100
AcDbDictionary
281
     1
  0
XRECORD
  5
10373
102
{ACAD_REACTORS
330
10372
102
}
330
10372
100
AcDbXrecord
280
     1
290
     1
  0
XRECORD
  5
10375
102
{ACAD_REACTORS
330
10374
102
}
330
10374
100
AcDbXrecord
280
     1
290
     1
  0
XRECORD
  5
10377
102
{ACAD_REACTORS
330
10376
102
}
330
10376
100
AcDbXrecord
280
     1
290
     1
  0
XRECORD
  5
10379
102
{ACAD_REACTORS
330
10378
102
}
330
10378
100
AcDbXrecord
280
     1
290
     1
  0
XRECORD
  5
1037B
102
{ACAD_REACTORS
330
1037A
102
}
330
1037A
100
AcDbXrecord
280
     1
290
     1
  0
XRECORD
  5
1037D
102
{ACAD_REACTORS
330
1037C
102
}
330
1037C
100
AcDbXrecord
280
     1
290
     1
  0
XRECORD
  5
1037F
102
{ACAD_REACTORS
330
1037E
102
}
330
1037E
100
AcDbXrecord
280
     1
290
     1
  0
XRECORD
  5
982D
102
{ACAD_REACTORS
330
982C
102
}
330
982C
100
AcDbXrecord
280
     1
340
18
  0
SORTENTSTABLE
  5
D9EB
102
{ACAD_REACTORS
330
982C
102
}
330
982C
100
AcDbSortentsTable
330
18
331
1053E
  5
105AA
331
11B7E
  5
11B7E
331
11B3F
  5
11B3F
331
11B7A
  5
11B7A
331
11B3B
  5
11B3B
331
11B76
  5
11B76
331
11BB5
  5
11BB5
331
11B72
  5
11B72
331
11BB1
  5
11BB1
331
11B37
  5
11B37
331
11B6E
  5
11B6E
331
11BAD
  5
11BAD
331
11BA9
  5
11BA9
331
11B6A
  5
11B6A
331
11B66
  5
11B66
331
11BA5
  5
11BA5
331
11B62
  5
11B62
331
11BA1
  5
11BA1
331
11B5E
  5
11B5E
331
11B9D
  5
11B9D
331
11B5A
  5
11B5A
331
11B99
  5
11B99
331
11B95
  5
11B95
331
11B56
  5
11B56
331
11B91
  5
11B91
331
11B52
  5
11B52
331
11BC8
  5
11BC8
331
11B8D
  5
11B8D
331
11B4E
  5
11B4E
331
11A13
  5
119D3
331
11B4A
  5
11B4A
331
11BC4
  5
11BC4
331
11B89
  5
11B89
331
11B85
  5
11B85
331
11BC0
  5
11BC0
331
11B46
  5
11B46
331
11B81
  5
11B81
331
11BBC
  5
11BBC
331
11B42
  5
11B42
331
11BB8
  5
11BB8
331
11B7D
  5
11B7D
331
11B3E
  5
11B3E
331
11B79
  5
11B79
331
11B3A
  5
11B3A
331
11B75
  5
11B75
331
11BB4
  5
11BB4
331
11B71
  5
11B71
331
11BB0
  5
11BB0
331
11B36
  5
11B36
331
11B6D
  5
11B6D
331
11BAC
  5
11BAC
331
11BA8
  5
11BA8
331
11B69
  5
11B69
331
11B65
  5
11B65
331
11BA4
  5
11BA4
331
11B61
  5
11B61
331
11BA0
  5
11BA0
331
11B5D
  5
11B5D
331
11B9C
  5
11B9C
331
11B98
  5
11B98
331
11B59
  5
11B59
331
11B94
  5
11B94
331
11B55
  5
11B55
331
11B90
  5
11B90
331
11BCB
  5
11BCB
331
11B51
  5
11B51
331
10550
  5
11A11
331
11A12
  5
105AF
331
11B4D
  5
11B4D
331
11BC7
  5
11BC7
331
11B8C
  5
11B8C
331
119F6
  5
10F05
331
11B49
  5
11B49
331
11BC3
  5
11BC3
331
11B88
  5
11B88
331
11B84
  5
11B84
331
11BBF
  5
11BBF
331
11B45
  5
11B45
331
11B80
  5
11B80
331
11BBB
  5
11BBB
331
11B41
  5
11B41
331
10540
  5
10DA7
331
11B7C
  5
11B7C
331
11B3D
  5
11B3D
331
11B78
  5
11B78
331
11BB7
  5
11BB7
331
11B39
  5
11B39
331
11B74
  5
11B74
331
11BB3
  5
11BB3
331
11B70
  5
11B70
331
11BAF
  5
11BAF
331
11B35
  5
11B35
331
11B6C
  5
11B6C
331
11BAB
  5
11BAB
331
11B68
  5
11B68
331
11BA7
  5
11BA7
331
11B64
  5
11B64
331
11BA3
  5
11BA3
331
11B60
  5
11B60
331
11B9F
  5
11B9F
331
11B5C
  5
11B5C
331
11B9B
  5
11B9B
331
11B97
  5
11B97
331
11B58
  5
11B58
331
11B93
  5
11B93
331
11B54
  5
11B54
331
11BCA
  5
11BCA
331
11B50
  5
11B50
331
1054F
  5
119F6
331
11B8F
  5
11B8F
331
11B4C
  5
11B4C
331
11BC6
  5
11BC6
331
11B8B
  5
11B8B
331
119F5
  5
105A4
331
11B87
  5
11B87
331
11BC2
  5
11BC2
331
11B48
  5
11B48
331
11B83
  5
11B83
331
11BBE
  5
11BBE
331
11B44
  5
11B44
331
11BBA
  5
11BBA
331
11B40
  5
11B40
331
1053F
  5
10623
331
11B7F
  5
11B7F
331
11B7B
  5
11B7B
331
11B3C
  5
11B3C
331
11B77
  5
11B77
331
11BB6
  5
11BB6
331
11B38
  5
11B38
331
11B73
  5
11B73
331
11BB2
  5
11BB2
331
11B6F
  5
11B6F
331
11BAE
  5
11BAE
331
11B34
  5
11B34
331
11B6B
  5
11B6B
331
11BAA
  5
11BAA
331
11B67
  5
11B67
331
11BA6
  5
11BA6
331
11B63
  5
11B63
331
11BA2
  5
11BA2
331
11B9E
  5
11B9E
331
11B5F
  5
11B5F
331
11B5B
  5
11B5B
331
11B9A
  5
11B9A
331
11B96
  5
11B96
331
11B57
  5
11B57
331
11B92
  5
11B92
331
11B53
  5
11B53
331
11BC9
  5
11BC9
331
1054E
  5
11988
331
11B8E
  5
11B8E
331
11B4F
  5
11B4F
331
11B4B
  5
11B4B
331
11BC5
  5
11BC5
331
11B8A
  5
11B8A
331
11B86
  5
11B86
331
11BC1
  5
11BC1
331
11B47
  5
11B47
331
11B82
  5
11B82
331
11BBD
  5
11BBD
331
11B43
  5
11B43
331
11BB9
  5
11BB9
  0
XRECORD
  5
982B
102
{ACAD_REACTORS
330
982A
102
}
330
982A
100
AcDbXrecord
280
     1
340
15
  0
SORTENTSTABLE
  5
DE28
102
{ACAD_REACTORS
330
982A
102
}
330
982A
100
AcDbSortentsTable
330
15
331
10DF8
  5
10E1F
331
1073E
  5
10742
331
C5
  5
C5
331
96AA
  5
DDE8
331
D2
  5
D2
331
10733
  5
10733
331
4B9A
  5
4B9A
331
171
  5
171
331
10741
  5
10744
331
4B9B
  5
4B9B
331
10734
  5
10734
331
1073F
  5
10743
331
C6
  5
C6
331
D3
  5
D3
331
1184
  5
1184
331
172
  5
172
331
C8
  5
C8
331
10742
  5
10745
331
4B8F
  5
4B8F
331
5A42
  5
5A45
331
C7
  5
C7
331
D4
  5
D4
331
173
  5
173
331
C9
  5
C9
331
10DF0
  5
10DF3
331
10743
  5
10746
331
5A43
  5
5A47
331
D5
  5
D5
331
4B90
  5
4B90
331
174
  5
174
331
CA
  5
CA
331
D8
  5
D8
331
10744
  5
10747
331
10737
  5
10737
331
D6
  5
D6
331
5A44
  5
5A48
331
175
  5
175
331
CB
  5
CB
331
10745
  5
10DF0
331
10738
  5
1073B
331
D7
  5
D7
331
5A45
  5
5A49
331
176
  5
176
331
D9
  5
D9
331
178
  5
178
331
5A48
  5
5B7D
331
DA
  5
DA
331
10746
  5
10DF1
331
10739
  5
1073C
331
177
  5
177
331
CD
  5
CD
331
57F3
  5
57F3
331
179
  5
179
331
5A49
  5
5B7E
331
17A
  5
17A
331
10747
  5
10DF2
331
1073A
  5
1073D
331
5B7C
  5
5B7F
331
5A47
  5
5B7C
331
CE
  5
CE
331
2F5D
  5
2F5D
331
577F
  5
577F
331
56E2
  5
56E2
331
5B7D
  5
5B80
331
3D
  5
3D
331
14C
  5
14C
331
1073B
  5
1073E
331
17B
  5
17B
331
4B98
  5
4B98
331
5B80
  5
743A
331
17C
  5
17C
331
D0
  5
D0
331
C3
  5
C3
331
5B7E
  5
5B81
331
14D
  5
14D
331
1073C
  5
1073F
331
5B81
  5
94F6
331
4B8C
  5
4B8C
331
C4
  5
C4
331
5B7F
  5
621A
331
4B97
  5
4B97
331
1073D
  5
10741
331
5799
  5
5799
331
D1
  5
D1
331
57E6
  5
57E6
331
10732
  5
10732
331
91
  5
91
331
170
  5
170
  0
XRECORD
  5
1214E
102
{ACAD_REACTORS
330
1214C
102
}
330
1214C
100
AcDbXrecord
280
     1
 40
13572559.0
  1
\pxi-3,l3,t3;Any deviation from this template could prevent the homeowner from being able to\Puse the Franke custom fit accessories that match this sink, so we strongly\Precommend following this cutout template.\P\PClosely follow installation instruc
  1
tions before making any cuts to countertop\P\PThis template file, like any template, is meant to be a guideline.  The actual sink\Pand accessories should ALWAYS be present to ensure a perfect cut.\P\pi0,l0,tz;\P\pr2.2207;FRANKE IS NOT RESPONSIBLE FOR
  1
 AN IMPROPERLY CUT COUNTERTOP OR AN IMPROPER INSTALLATION
  0
ACDBDETAILVIEWSTYLE
  5
10CE5
102
{ACAD_XDICTIONARY
360
10D02
102
}
102
{ACAD_REACTORS
330
10CE4
330
11359
102
}
330
10CE4
100
AcDbModelDocViewStyle
 70
     0
  3
Imperial24
290
     0
100
AcDbDetailViewStyle
 70
     0
 71
     0
 90
        3
 71
     1
340
F
 62
   256
 40
0.24
340
0
 62
   256
 40
0.24
300

 40
0.36
280
     3
 71
     2
340
14
 90
       25
 62
   256
 71
     3
340
F
 62
   256
 40
0.24
 90
        1
 40
0.75
 90
        1
300
%<\AcVar ViewType \f "%tc1">% %<\AcVar ViewDetailId>%\PSCALE %<\AcVar ViewScale \f "%sn">%
 71
     4
340
14
 90
       25
 62
   256
340
14
 90
       25
 62
   256
280
     0
  0
ACDBDETAILVIEWSTYLE
  5
11A8B
102
{ACAD_XDICTIONARY
360
11A8C
102
}
102
{ACAD_REACTORS
330
10CE4
330
11B2C
102
}
330
10CE4
100
AcDbModelDocViewStyle
 70
     0
  3
Metric50
290
     0
100
AcDbDetailViewStyle
 70
     0
 71
     0
 90
        3
 71
     1
340
F
 62
   256
 40
5.0
340
0
 62
   256
 40
5.0
300

 40
0.0
280
     1
 71
     2
340
14
 90
       25
 62
   256
 71
     3
340
F
 62
   256
 40
5.0
 90
        0
 40
15.0
 90
        1
300
%<\AcVar ViewDetailId>% (%<\AcVar ViewScale \f "%sn">%)
 71
     4
340
14
 90
       25
 62
   256
340
14
 90
       25
 62
   256
280
     0
  0
LAYOUT
  5
5C22
102
{ACAD_XDICTIONARY
360
D9BE
102
}
102
{ACAD_REACTORS
330
5C1F
102
}
330
5C1F
100
AcDbPlotSettings
  1

  2
pdfFactory Pro
  4
A4
  6

 40
7.143749713897705
 41
7.143725872039794
 42
7.14373779296875
 43
7.14373779296875
 44
209.9733276367187
 45
297.0106506347656
 46
2.106907312109015
 47
0.0
 48
1.0
 49
1.0
140
283.535793
141
174.335932
142
1.0
143
2.921904535653535
 70
   692
 72
     1
 73
     1
 74
     1
  7
Carron Phoenix.ctb
 75
     0
147
0.342242529760245
 76
     0
 77
     2
 78
   300
148
0.0576990226281851
149
0.0096632142285671
100
AcDbLayout
  1
Layout1
 70
     1
 71
     1
 10
-20.93101888142316
 20
-27.03919993629285
 11
846.9057483457062
 21
586.4828184517015
 12
0.0
 22
0.0
 32
0.0
 14
0.0
 24
0.0
 34
0.0
 15
826.0
 25
559.4330351521971
 35
0.4
146
0.0
 13
0.0
 23
0.0
 33
0.0
 16
1.0
 26
0.0
 36
0.0
 17
0.0
 27
1.0
 37
0.0
 76
     0
330
15
331
3D
1001
ACAD_PSEXT
1000
pdfFactory Pro
1000
pdfFactory 2
1000
FPP2:
1000

1070
     0
  0
LAYOUT
  5
5C21
102
{ACAD_XDICTIONARY
360
10C18
102
}
102
{ACAD_REACTORS
330
5C1F
102
}
330
5C1F
100
AcDbPlotSettings
  1

  2
\\FGP10G\FGP023P
  4
A4
  6
P
 40
4.233333110809326
 41
4.233306884765625
 42
4.233322143554687
 43
4.23333740234375
 44
209.9733276367187
 45
296.9683227539062
 46
0.0
 47
48.16157973144507
 48
55.40606791075333
 49
-427.0414123713544
140
1016.589484499585
141
580.79688729824
142
1.0
143
5.001513288638116
 70
 11956
 72
     1
 73
     1
 74
     4
  7
Carron Phoenix.ctb
 75
     0
147
0.1999394867692723
 76
     0
 77
     2
 78
   300
148
-55.40606791075333
149
427.0414123713544
100
AcDbLayout
  1
Model
 70
     1
 71
     0
 10
0.0
 20
0.0
 11
12.0
 21
9.0
 12
0.0
 22
0.0
 32
0.0
 14
0.0
 24
0.0
 34
0.0
 15
0.0
 25
0.0
 35
0.0
146
0.0
 13
0.0
 23
0.0
 33
0.0
 16
1.0
 26
0.0
 36
0.0
 17
0.0
 27
1.0
 37
0.0
 76
     0
330
18
331
102FD
1001
ACAD_PSEXT
1000
\\FGP10G\FGP023P
1000
HP Universal Printing PCL 6
1000
FGP/Product management
1000
HP 4015 PCL6 10.28.0.23 CNFY838268
1070
     0
  0
MATERIAL
  5
10316
102
{ACAD_XDICTIONARY
360
10317
102
}
102
{ACAD_REACTORS
330
D99E
102
}
330
D99E
100
AcDbMaterial
  1
ByBlock
 72
     0
 43
0.0208333333333333
 43
0.0
 43
0.0
 43
0.0
 43
0.0
 43
0.0208333333333333
 43
0.0
 43
0.0
 43
0.0
 43
0.0
 43
1.0
 43
0.0
 43
0.0
 43
0.0
 43
0.0
 43
1.0
 77
     0
 47
0.0208333333333333
 47
0.0
 47
0.0
 47
0.0
 47
0.0
 47
0.0208333333333333
 47
0.0
 47
0.0
 47
0.0
 47
0.0
 47
1.0
 47
0.0
 47
0.0
 47
0.0
 47
0.0
 47
1.0
171
     0
 49
0.0208333333333333
 49
0.0
 49
0.0
 49
0.0
 49
0.0
 49
0.0208333333333333
 49
0.0
 49
0.0
 49
0.0
 49
0.0
 49
1.0
 49
0.0
 49
0.0
 49
0.0
 49
0.0
 49
1.0
175
     0
142
0.0208333333333333
142
0.0
142
0.0
142
0.0
142
0.0
142
0.0208333333333333
142
0.0
142
0.0
142
0.0
142
0.0
142
1.0
142
0.0
142
0.0
142
0.0
142
0.0
142
1.0
179
     0
144
0.0208333333333333
144
0.0
144
0.0
144
0.0
144
0.0
144
0.0208333333333333
144
0.0
144
0.0
144
0.0
144
0.0
144
1.0
144
0.0
144
0.0
144
0.0
144
0.0
144
1.0
147
0.0208333333333333
147
0.0
147
0.0
147
0.0
147
0.0
147
0.0208333333333333
147
0.0
147
0.0
147
0.0
147
0.0
147
1.0
147
0.0
147
0.0
147
0.0
147
0.0
147
1.0
  0
MATERIAL
  5
1030E
102
{ACAD_XDICTIONARY
360
1030F
102
}
102
{ACAD_REACTORS
330
D99E
102
}
330
D99E
100
AcDbMaterial
  1
ByLayer
 72
     0
 43
0.0208333333333333
 43
0.0
 43
0.0
 43
0.0
 43
0.0
 43
0.0208333333333333
 43
0.0
 43
0.0
 43
0.0
 43
0.0
 43
1.0
 43
0.0
 43
0.0
 43
0.0
 43
0.0
 43
1.0
 77
     0
 47
0.0208333333333333
 47
0.0
 47
0.0
 47
0.0
 47
0.0
 47
0.0208333333333333
 47
0.0
 47
0.0
 47
0.0
 47
0.0
 47
1.0
 47
0.0
 47
0.0
 47
0.0
 47
0.0
 47
1.0
171
     0
 49
0.0208333333333333
 49
0.0
 49
0.0
 49
0.0
 49
0.0
 49
0.0208333333333333
 49
0.0
 49
0.0
 49
0.0
 49
0.0
 49
1.0
 49
0.0
 49
0.0
 49
0.0
 49
0.0
 49
1.0
175
     0
142
0.0208333333333333
142
0.0
142
0.0
142
0.0
142
0.0
142
0.0208333333333333
142
0.0
142
0.0
142
0.0
142
0.0
142
1.0
142
0.0
142
0.0
142
0.0
142
0.0
142
1.0
179
     0
144
0.0208333333333333
144
0.0
144
0.0
144
0.0
144
0.0
144
0.0208333333333333
144
0.0
144
0.0
144
0.0
144
0.0
144
1.0
144
0.0
144
0.0
144
0.0
144
0.0
144
1.0
147
0.0208333333333333
147
0.0
147
0.0
147
0.0
147
0.0
147
0.0208333333333333
147
0.0
147
0.0
147
0.0
147
0.0
147
1.0
147
0.0
147
0.0
147
0.0
147
0.0
147
1.0
  0
MATERIAL
  5
1031E
102
{ACAD_XDICTIONARY
360
1031F
102
}
102
{ACAD_REACTORS
330
D99E
102
}
330
D99E
100
AcDbMaterial
  1
Global
 72
     0
 43
0.0208333333333333
 43
0.0
 43
0.0
 43
0.0
 43
0.0
 43
0.0208333333333333
 43
0.0
 43
0.0
 43
0.0
 43
0.0
 43
1.0
 43
0.0
 43
0.0
 43
0.0
 43
0.0
 43
1.0
 77
     0
 47
0.0208333333333333
 47
0.0
 47
0.0
 47
0.0
 47
0.0
 47
0.0208333333333333
 47
0.0
 47
0.0
 47
0.0
 47
0.0
 47
1.0
 47
0.0
 47
0.0
 47
0.0
 47
0.0
 47
1.0
171
     0
 49
0.0208333333333333
 49
0.0
 49
0.0
 49
0.0
 49
0.0
 49
0.0208333333333333
 49
0.0
 49
0.0
 49
0.0
 49
0.0
 49
1.0
 49
0.0
 49
0.0
 49
0.0
 49
0.0
 49
1.0
175
     0
142
0.0208333333333333
142
0.0
142
0.0
142
0.0
142
0.0
142
0.0208333333333333
142
0.0
142
0.0
142
0.0
142
0.0
142
1.0
142
0.0
142
0.0
142
0.0
142
0.0
142
1.0
179
     0
144
0.0208333333333333
144
0.0
144
0.0
144
0.0
144
0.0
144
0.0208333333333333
144
0.0
144
0.0
144
0.0
144
0.0
144
1.0
144
0.0
144
0.0
144
0.0
144
0.0
144
1.0
147
0.0208333333333333
147
0.0
147
0.0
147
0.0
147
0.0
147
0.0208333333333333
147
0.0
147
0.0
147
0.0
147
0.0
147
1.0
147
0.0
147
0.0
147
0.0
147
0.0
147
1.0
  0
MLEADERSTYLE
  5
1035A
102
{ACAD_REACTORS
330
10359
102
}
330
10359
100
AcDbMLeaderStyle
179
     2
170
     2
171
     1
172
     0
 90
        2
 40
0.0
 41
0.0
173
     1
 91
-1056964608
340
12
 92
       -2
290
     1
 42
0.09
291
     1
 43
0.36
  3
Standard
 44
0.18
300

342
F
174
     1
178
     6
175
     1
176
     0
 93
-1056964608
 45
0.18
292
     0
297
     0
 46
0.18
 94
-1056964608
 47
1.0
 49
1.0
140
1.0
293
     1
141
0.0
294
     1
177
     0
142
1.0
295
     0
296
     0
143
0.125
271
     0
272
     9
273
     9
  0
MLINESTYLE
  5
1C
102
{ACAD_REACTORS
330
1B
102
}
330
0
100
AcDbMlineStyle
  2
STANDARD
 70
     0
  3

 62
   256
 51
90.0
 52
90.0
 71
     2
 49
0.5
 62
   256
  6
BYLAYER
 49
-0.5
 62
   256
  6
BYLAYER
  0
ACDBPLACEHOLDER
  5
5C1E
102
{ACAD_REACTORS
330
5C1D
102
}
330
5C1D
  0
SCALE
  5
10338
102
{ACAD_REACTORS
330
10337
102
}
330
10337
100
AcDbScale
 70
     0
300
1:1
140
1.0
141
1.0
290
     1
  0
SCALE
  5
10339
102
{ACAD_REACTORS
330
10337
102
}
330
10337
100
AcDbScale
 70
     0
300
1:2
140
1.0
141
2.0
290
     0
  0
SCALE
  5
1033A
102
{ACAD_REACTORS
330
10337
102
}
330
10337
100
AcDbScale
 70
     0
300
1:4
140
1.0
141
4.0
290
     0
  0
SCALE
  5
1033B
102
{ACAD_REACTORS
330
10337
102
}
330
10337
100
AcDbScale
 70
     0
300
1:5
140
1.0
141
5.0
290
     0
  0
SCALE
  5
1033C
102
{ACAD_REACTORS
330
10337
102
}
330
10337
100
AcDbScale
 70
     0
300
1:8
140
1.0
141
8.0
290
     0
  0
SCALE
  5
1033D
102
{ACAD_REACTORS
330
10337
102
}
330
10337
100
AcDbScale
 70
     0
300
1:10
140
1.0
141
10.0
290
     0
  0
SCALE
  5
1033E
102
{ACAD_REACTORS
330
10337
102
}
330
10337
100
AcDbScale
 70
     0
300
1:16
140
1.0
141
16.0
290
     0
  0
SCALE
  5
1033F
102
{ACAD_REACTORS
330
10337
102
}
330
10337
100
AcDbScale
 70
     0
300
1:20
140
1.0
141
20.0
290
     0
  0
SCALE
  5
10340
102
{ACAD_REACTORS
330
10337
102
}
330
10337
100
AcDbScale
 70
     0
300
1:30
140
1.0
141
30.0
290
     0
  0
SCALE
  5
10341
102
{ACAD_REACTORS
330
10337
102
}
330
10337
100
AcDbScale
 70
     0
300
1:40
140
1.0
141
40.0
290
     0
  0
SCALE
  5
10342
102
{ACAD_REACTORS
330
10337
102
}
330
10337
100
AcDbScale
 70
     0
300
1:50
140
1.0
141
50.0
290
     0
  0
SCALE
  5
10343
102
{ACAD_REACTORS
330
10337
102
}
330
10337
100
AcDbScale
 70
     0
300
1:100
140
1.0
141
100.0
290
     0
  0
SCALE
  5
10344
102
{ACAD_REACTORS
330
10337
102
}
330
10337
100
AcDbScale
 70
     0
300
2:1
140
2.0
141
1.0
290
     0
  0
SCALE
  5
10345
102
{ACAD_REACTORS
330
10337
102
}
330
10337
100
AcDbScale
 70
     0
300
4:1
140
4.0
141
1.0
290
     0
  0
SCALE
  5
10346
102
{ACAD_REACTORS
330
10337
102
}
330
10337
100
AcDbScale
 70
     0
300
8:1
140
8.0
141
1.0
290
     0
  0
SCALE
  5
10347
102
{ACAD_REACTORS
330
10337
102
}
330
10337
100
AcDbScale
 70
     0
300
10:1
140
10.0
141
1.0
290
     0
  0
SCALE
  5
10348
102
{ACAD_REACTORS
330
10337
102
}
330
10337
100
AcDbScale
 70
     0
300
100:1
140
100.0
141
1.0
290
     0
  0
SCALE
  5
10349
102
{ACAD_REACTORS
330
10337
102
}
330
10337
100
AcDbScale
 70
     0
300
1/128" = 1'-0"
140
0.0078125
141
12.0
290
     0
  0
SCALE
  5
1034A
102
{ACAD_REACTORS
330
10337
102
}
330
10337
100
AcDbScale
 70
     0
300
1/64" = 1'-0"
140
0.015625
141
12.0
290
     0
  0
SCALE
  5
1034B
102
{ACAD_REACTORS
330
10337
102
}
330
10337
100
AcDbScale
 70
     0
300
1/32" = 1'-0"
140
0.03125
141
12.0
290
     0
  0
SCALE
  5
1034C
102
{ACAD_REACTORS
330
10337
102
}
330
10337
100
AcDbScale
 70
     0
300
1/16" = 1'-0"
140
0.0625
141
12.0
290
     0
  0
SCALE
  5
1034D
102
{ACAD_REACTORS
330
10337
102
}
330
10337
100
AcDbScale
 70
     0
300
3/32" = 1'-0"
140
0.09375
141
12.0
290
     0
  0
SCALE
  5
1034E
102
{ACAD_REACTORS
330
10337
102
}
330
10337
100
AcDbScale
 70
     0
300
1/8" = 1'-0"
140
0.125
141
12.0
290
     0
  0
SCALE
  5
1034F
102
{ACAD_REACTORS
330
10337
102
}
330
10337
100
AcDbScale
 70
     0
300
3/16" = 1'-0"
140
0.1875
141
12.0
290
     0
  0
SCALE
  5
10350
102
{ACAD_REACTORS
330
10337
102
}
330
10337
100
AcDbScale
 70
     0
300
1/4" = 1'-0"
140
0.25
141
12.0
290
     0
  0
SCALE
  5
10351
102
{ACAD_REACTORS
330
10337
102
}
330
10337
100
AcDbScale
 70
     0
300
3/8" = 1'-0"
140
0.375
141
12.0
290
     0
  0
SCALE
  5
10352
102
{ACAD_REACTORS
330
10337
102
}
330
10337
100
AcDbScale
 70
     0
300
1/2" = 1'-0"
140
0.5
141
12.0
290
     0
  0
SCALE
  5
10353
102
{ACAD_REACTORS
330
10337
102
}
330
10337
100
AcDbScale
 70
     0
300
3/4" = 1'-0"
140
0.75
141
12.0
290
     0
  0
SCALE
  5
10354
102
{ACAD_REACTORS
330
10337
102
}
330
10337
100
AcDbScale
 70
     0
300
1" = 1'-0"
140
1.0
141
12.0
290
     0
  0
SCALE
  5
10355
102
{ACAD_REACTORS
330
10337
102
}
330
10337
100
AcDbScale
 70
     0
300
1-1/2" = 1'-0"
140
1.5
141
12.0
290
     0
  0
SCALE
  5
10356
102
{ACAD_REACTORS
330
10337
102
}
330
10337
100
AcDbScale
 70
     0
300
3" = 1'-0"
140
3.0
141
12.0
290
     0
  0
SCALE
  5
10357
102
{ACAD_REACTORS
330
10337
102
}
330
10337
100
AcDbScale
 70
     0
300
6" = 1'-0"
140
6.0
141
12.0
290
     0
  0
SCALE
  5
10358
102
{ACAD_REACTORS
330
10337
102
}
330
10337
100
AcDbScale
 70
     0
300
1'-0" = 1'-0"
140
12.0
141
12.0
290
     0
  0
ACDBSECTIONVIEWSTYLE
  5
10CE3
102
{ACAD_XDICTIONARY
360
10D00
102
}
102
{ACAD_REACTORS
330
10CE2
330
11358
102
}
330
10CE2
100
AcDbModelDocViewStyle
 70
     0
  3
Imperial24
290
     0
100
AcDbSectionViewStyle
 70
     0
 71
     0
 90
       78
 71
     1
340
F
 62
   256
 40
0.24
340
0
340
0
 62
   256
 40
0.24
300
I, O, Q, S, X, Z
 40
0.48
 90
        3
 40
0.18
 90
        1
 71
     2
340
14
 90
       25
 62
   256
340
14
 90
       50
 62
   256
 40
0.24
 40
0.0
 40
0.24
 71
     3
340
F
 62
   256
 40
0.24
 90
        1
 40
0.75
 90
        1
300
%<\AcVar ViewType \f "%tc1">% %<\AcVar ViewSectionStartId>%-%<\AcVar ViewSectionEndId>%\PSCALE %<\AcVar ViewScale \f "%sn">%
 71
     4
 62
   256
 62
   257
300
ANSI31
 40
1.0
 90
        0
290
     0
290
     0
 90
        6
 40
0.0
 40
1.570796326794896
 40
0.2617993877991494
 40
1.308996938995747
 40
-0.2617993877991494
 40
1.832595714594046
  0
ACDBSECTIONVIEWSTYLE
  5
11A89
102
{ACAD_XDICTIONARY
360
11A8A
102
}
102
{ACAD_REACTORS
330
10CE2
330
11B2D
102
}
330
10CE2
100
AcDbModelDocViewStyle
 70
     0
  3
Metric50
290
     0
100
AcDbSectionViewStyle
 70
     0
 71
     0
 90
      102
 71
     1
340
F
 62
   256
 40
5.0
340
0
340
0
 62
   256
 40
5.0
300
I, O, Q, S, X, Z
 40
10.0
 90
        0
 40
2.5
 90
        0
 71
     2
340
14
 90
       25
 62
   256
340
14
 90
       50
 62
   256
 40
5.0
 40
2.5
 40
5.0
 71
     3
340
F
 62
   256
 40
5.0
 90
        0
 40
15.0
 90
        1
300
%<\AcVar ViewSectionStartId>%-%<\AcVar ViewSectionEndId>% (%<\AcVar ViewScale \f "%sn">%)
 71
     4
 62
   256
 62
   257
300
ANSI31
 40
1.0
 90
        0
290
     0
290
     0
 90
        6
 40
0.0
 40
1.570796326794896
 40
0.2617993877991494
 40
1.308996938995747
 40
-0.2617993877991494
 40
1.832595714594046
  0
TABLESTYLE
  5
D9A1
102
{ACAD_XDICTIONARY
360
103A2
102
}
102
{ACAD_REACTORS
330
D9A0
102
}
330
D9A0
100
AcDbTableStyle
280
     0
  3
Standard
 70
     0
 71
     0
 40
0.06
 41
0.06
280
     0
281
     0
  7
STANDARD
140
0.18
170
     2
 62
     0
 63
     7
283
     0
 90
        4
 91
        0
  1

274
    -2
284
     1
 64
     0
275
    -2
285
     1
 65
     0
276
    -2
286
     1
 66
     0
277
    -2
287
     1
 67
     0
278
    -2
288
     1
 68
     0
279
    -2
289
     1
 69
     0
  7
STANDARD
140
0.25
170
     5
 62
     0
 63
     7
283
     0
 90
        4
 91
        0
  1

274
    -2
284
     1
 64
     0
275
    -2
285
     1
 65
     0
276
    -2
286
     1
 66
     0
277
    -2
287
     1
 67
     0
278
    -2
288
     1
 68
     0
279
    -2
289
     1
 69
     0
  7
STANDARD
140
0.18
170
     5
 62
     0
 63
     7
283
     0
 90
        4
 91
        0
  1

274
    -2
284
     1
 64
     0
275
    -2
285
     1
 65
     0
276
    -2
286
     1
 66
     0
277
    -2
287
     1
 67
     0
278
    -2
288
     1
 68
     0
279
    -2
289
     1
 69
     0
  0
VISUALSTYLE
  5
1032C
102
{ACAD_XDICTIONARY
360
12162
102
}
102
{ACAD_REACTORS
330
10326
102
}
330
10326
100
AcDbVisualStyle
  2
2dWireframe
 70
     4
177
     2
291
     0
 71
     0
176
     1
 72
     2
176
     1
 73
     0
176
     1
 90
        0
176
     1
 40
0.6
176
     1
 41
30.0
176
     1
 63
     7
421
 16777215
176
     1
 74
     1
176
     1
 91
        4
176
     1
 64
     7
176
     1
 65
   257
176
     1
 75
     1
176
     1
175
     1
176
     1
 42
1.0
176
     1
 92
        0
176
     1
 66
   257
176
     1
 43
1.0
176
     1
 76
     1
176
     1
 77
     6
176
     1
 78
     2
176
     1
 67
     7
176
     1
 79
     5
176
     1
170
     0
176
     1
171
     0
176
     1
290
     0
176
     1
 93
        1
176
     1
 44
0.0
176
     1
173
     0
176
     1
1001
ACAD
1000
AcDbSavedByObjectVersion
1070
     0
  0
VISUALSTYLE
  5
1032E
102
{ACAD_XDICTIONARY
360
12166
102
}
102
{ACAD_REACTORS
330
10326
102
}
330
10326
100
AcDbVisualStyle
  2
3D Hidden
 70
     6
177
     2
291
     0
 71
     1
176
     1
 72
     2
176
     1
 73
     2
176
     1
 90
        0
176
     1
 40
0.6
176
     1
 41
30.0
176
     1
 63
     7
421
 16777215
176
     1
 74
     2
176
     1
 91
        2
176
     1
 64
     7
176
     1
 65
   257
176
     1
 75
     2
176
     1
175
     1
176
     1
 42
40.0
176
     1
 92
        0
176
     1
 66
   257
176
     1
 43
1.0
176
     1
 76
     1
176
     1
 77
     6
176
     1
 78
     2
176
     1
 67
     7
176
     1
 79
     3
176
     1
170
     0
176
     1
171
     0
176
     1
290
     0
176
     1
 93
        1
176
     1
 44
0.0
176
     1
173
     0
176
     1
1001
ACAD
1000
AcDbSavedByObjectVersion
1070
     0
  0
VISUALSTYLE
  5
1032D
102
{ACAD_XDICTIONARY
360
12164
102
}
102
{ACAD_REACTORS
330
10326
102
}
330
10326
100
AcDbVisualStyle
  2
3dWireframe
 70
     5
177
     2
291
     0
 71
     0
176
     1
 72
     2
176
     1
 73
     0
176
     1
 90
        0
176
     1
 40
0.6
176
     1
 41
30.0
176
     1
 63
     7
421
 16777215
176
     1
 74
     1
176
     1
 91
        4
176
     1
 64
     7
176
     1
 65
   257
176
     1
 75
     1
176
     1
175
     1
176
     1
 42
1.0
176
     1
 92
        0
176
     1
 66
   257
176
     1
 43
1.0
176
     1
 76
     1
176
     1
 77
     6
176
     1
 78
     2
176
     1
 67
     7
176
     1
 79
     5
176
     1
170
     0
176
     1
171
     0
176
     1
290
     0
176
     1
 93
        1
176
     1
 44
0.0
176
     1
173
     0
176
     1
1001
ACAD
1000
AcDbSavedByObjectVersion
1070
     0
  0
VISUALSTYLE
  5
1032B
102
{ACAD_XDICTIONARY
360
12160
102
}
102
{ACAD_REACTORS
330
10326
102
}
330
10326
100
AcDbVisualStyle
  2
Basic
 70
     7
177
     2
291
     1
 71
     1
176
     1
 72
     0
176
     1
 73
     1
176
     1
 90
        0
176
     1
 40
0.6
176
     1
 41
30.0
176
     1
 63
     7
421
 16777215
176
     1
 74
     0
176
     1
 91
        4
176
     1
 64
     7
176
     1
 65
   257
176
     1
 75
     1
176
     1
175
     1
176
     1
 42
1.0
176
     1
 92
        8
176
     1
 66
     7
176
     1
 43
1.0
176
     1
 76
     1
176
     1
 77
     6
176
     1
 78
     2
176
     1
 67
     7
176
     1
 79
     5
176
     1
170
     0
176
     1
171
     0
176
     1
290
     0
176
     1
 93
        1
176
     1
 44
0.0
176
     1
173
     0
176
     1
1001
ACAD
1000
AcDbSavedByObjectVersion
1070
     0
  0
VISUALSTYLE
  5
10332
102
{ACAD_XDICTIONARY
360
1216E
102
}
102
{ACAD_REACTORS
330
10326
102
}
330
10326
100
AcDbVisualStyle
  2
Brighten
 70
    12
177
     2
291
     1
 71
     2
176
     1
 72
     2
176
     1
 73
     0
176
     1
 90
        0
176
     1
 40
0.6
176
     1
 41
30.0
176
     1
 63
     7
421
 16777215
176
     1
 74
     1
176
     1
 91
        4
176
     1
 64
     7
176
     1
 65
   257
176
     1
 75
     1
176
     1
175
     1
176
     1
 42
1.0
176
     1
 92
        8
176
     1
 66
     7
176
     1
 43
1.0
176
     1
 76
     1
176
     1
 77
     6
176
     1
 78
     2
176
     1
 67
     7
176
     1
 79
     5
176
     1
170
     0
176
     1
171
     0
176
     1
290
     0
176
     1
 93
        1
176
     1
 44
50.0
176
     1
173
     0
176
     1
1001
ACAD
1000
AcDbSavedByObjectVersion
1070
     0
  0
VISUALSTYLE
  5
10336
102
{ACAD_XDICTIONARY
360
12176
102
}
102
{ACAD_REACTORS
330
10326
102
}
330
10326
100
AcDbVisualStyle
  2
ColorChange
 70
    16
177
     2
291
     1
 71
     2
176
     1
 72
     2
176
     1
 73
     3
176
     1
 90
        0
176
     1
 40
0.6
176
     1
 41
30.0
176
     1
 63
     8
421
  8421504
176
     1
 74
     1
176
     1
 91
        4
176
     1
 64
     7
176
     1
 65
   257
176
     1
 75
     1
176
     1
175
     1
176
     1
 42
1.0
176
     1
 92
        8
176
     1
 66
     8
424
  8421504
176
     1
 43
1.0
176
     1
 76
     1
176
     1
 77
     6
176
     1
 78
     2
176
     1
 67
     7
176
     1
 79
     5
176
     1
170
     0
176
     1
171
     0
176
     1
290
     0
176
     1
 93
        1
176
     1
 44
0.0
176
     1
173
     0
176
     1
1001
ACAD
1000
AcDbSavedByObjectVersion
1070
     0
  0
VISUALSTYLE
  5
1032F
102
{ACAD_XDICTIONARY
360
12168
102
}
102
{ACAD_REACTORS
330
10326
102
}
330
10326
100
AcDbVisualStyle
  2
Conceptual
 70
     9
177
     2
291
     0
 71
     3
176
     1
 72
     2
176
     1
 73
     0
176
     1
 90
        0
176
     1
 40
0.6
176
     1
 41
30.0
176
     1
 63
     7
421
 16777215
176
     1
 74
     2
176
     1
 91
        2
176
     1
 64
     7
176
     1
 65
   257
176
     1
 75
     1
176
     1
175
     1
176
     1
 42
40.0
176
     1
 92
        8
176
     1
 66
     7
176
     1
 43
1.0
176
     1
 76
     1
176
     1
 77
     6
176
     1
 78
     2
176
     1
 67
     7
176
     1
 79
     3
176
     1
170
     0
176
     1
171
     0
176
     1
290
     0
176
     1
 93
        1
176
     1
 44
0.0
176
     1
173
     0
176
     1
1001
ACAD
1000
AcDbSavedByObjectVersion
1070
     0
  0
VISUALSTYLE
  5
10331
102
{ACAD_XDICTIONARY
360
1216C
102
}
102
{ACAD_REACTORS
330
10326
102
}
330
10326
100
AcDbVisualStyle
  2
Dim
 70
    11
177
     2
291
     1
 71
     2
176
     1
 72
     2
176
     1
 73
     0
176
     1
 90
        0
176
     1
 40
0.6
176
     1
 41
30.0
176
     1
 63
     7
421
 16777215
176
     1
 74
     1
176
     1
 91
        4
176
     1
 64
     7
176
     1
 65
   257
176
     1
 75
     1
176
     1
175
     1
176
     1
 42
1.0
176
     1
 92
        8
176
     1
 66
     7
176
     1
 43
1.0
176
     1
 76
     1
176
     1
 77
     6
176
     1
 78
     2
176
     1
 67
     7
176
     1
 79
     5
176
     1
170
     0
176
     1
171
     0
176
     1
290
     0
176
     1
 93
        1
176
     1
 44
-50.0
176
     1
173
     0
176
     1
1001
ACAD
1000
AcDbSavedByObjectVersion
1070
     0
  0
VISUALSTYLE
  5
10B7C
102
{ACAD_XDICTIONARY
360
1217C
102
}
102
{ACAD_REACTORS
330
10326
102
}
330
10326
100
AcDbVisualStyle
  2
EdgeColorOff
 70
    22
177
     2
291
     1
 71
     2
176
     0
 72
     2
176
     0
 73
     0
176
     0
 90
        0
176
     0
 40
0.6
176
     0
 41
30.0
176
     0
 63
     7
421
 16777215
176
     0
 74
     1
176
     0
 91
        4
176
     0
 64
     7
176
     0
 65
   257
176
     0
 75
     1
176
     0
175
     1
176
     0
 42
1.0
176
     0
 92
        8
176
     2
 66
     7
176
     0
 43
1.0
176
     0
 76
     1
176
     0
 77
     6
176
     0
 78
     2
176
     0
 67
     7
176
     0
 79
     5
176
     0
170
     0
176
     0
171
     0
176
     0
290
     0
176
     0
 93
        1
176
     0
 44
0.0
176
     0
173
     0
176
     0
1001
ACAD
1000
AcDbSavedByObjectVersion
1070
     0
  0
VISUALSTYLE
  5
10335
102
{ACAD_XDICTIONARY
360
12174
102
}
102
{ACAD_REACTORS
330
10326
102
}
330
10326
100
AcDbVisualStyle
  2
Facepattern
 70
    15
177
     2
291
     1
 71
     2
176
     1
 72
     2
176
     1
 73
     0
176
     1
 90
        0
176
     1
 40
0.6
176
     1
 41
30.0
176
     1
 63
     7
421
 16777215
176
     1
 74
     1
176
     1
 91
        4
176
     1
 64
     7
176
     1
 65
   257
176
     1
 75
     1
176
     1
175
     1
176
     1
 42
1.0
176
     1
 92
        8
176
     1
 66
     7
176
     1
 43
1.0
176
     1
 76
     1
176
     1
 77
     6
176
     1
 78
     2
176
     1
 67
     7
176
     1
 79
     5
176
     1
170
     0
176
     1
171
     0
176
     1
290
     0
176
     1
 93
        1
176
     1
 44
0.0
176
     1
173
     0
176
     1
1001
ACAD
1000
AcDbSavedByObjectVersion
1070
     0
  0
VISUALSTYLE
  5
10327
102
{ACAD_XDICTIONARY
360
12158
102
}
102
{ACAD_REACTORS
330
10326
102
}
330
10326
100
AcDbVisualStyle
  2
Flat
 70
     0
177
     2
291
     1
 71
     2
176
     1
 72
     1
176
     1
 73
     1
176
     1
 90
        2
176
     1
 40
0.6
176
     1
 41
30.0
176
     1
 63
     7
421
 16777215
176
     1
 74
     0
176
     1
 91
        4
176
     1
 64
     7
176
     1
 65
   257
176
     1
 75
     1
176
     1
175
     1
176
     1
 42
1.0
176
     1
 92
        8
176
     1
 66
     7
176
     1
 43
1.0
176
     1
 76
     1
176
     1
 77
     6
176
     1
 78
     2
176
     1
 67
     7
176
     1
 79
     5
176
     1
170
     0
176
     1
171
     0
176
     1
290
     0
176
     1
 93
       13
176
     1
 44
0.0
176
     1
173
     0
176
     1
1001
ACAD
1000
AcDbSavedByObjectVersion
1070
     0
  0
VISUALSTYLE
  5
10328
102
{ACAD_XDICTIONARY
360
1215A
102
}
102
{ACAD_REACTORS
330
10326
102
}
330
10326
100
AcDbVisualStyle
  2
FlatWithEdges
 70
     1
177
     2
291
     1
 71
     2
176
     1
 72
     1
176
     1
 73
     1
176
     1
 90
        2
176
     1
 40
0.6
176
     1
 41
30.0
176
     1
 63
     7
421
 16777215
176
     1
 74
     1
176
     1
 91
        4
176
     1
 64
     7
176
     1
 65
   257
176
     1
 75
     1
176
     1
175
     1
176
     1
 42
1.0
176
     1
 92
        0
176
     1
 66
   257
176
     1
 43
1.0
176
     1
 76
     1
176
     1
 77
     6
176
     1
 78
     2
176
     1
 67
     7
176
     1
 79
     5
176
     1
170
     0
176
     1
171
     0
176
     1
290
     0
176
     1
 93
       13
176
     1
 44
0.0
176
     1
173
     0
176
     1
1001
ACAD
1000
AcDbSavedByObjectVersion
1070
     0
  0
VISUALSTYLE
  5
10329
102
{ACAD_XDICTIONARY
360
1215C
102
}
102
{ACAD_REACTORS
330
10326
102
}
330
10326
100
AcDbVisualStyle
  2
Gouraud
 70
     2
177
     2
291
     1
 71
     2
176
     1
 72
     2
176
     1
 73
     1
176
     1
 90
        2
176
     1
 40
0.6
176
     1
 41
30.0
176
     1
 63
     7
421
 16777215
176
     1
 74
     0
176
     1
 91
        4
176
     1
 64
     7
176
     1
 65
   257
176
     1
 75
     1
176
     1
175
     1
176
     1
 42
1.0
176
     1
 92
        0
176
     1
 66
     7
176
     1
 43
1.0
176
     1
 76
     1
176
     1
 77
     6
176
     1
 78
     2
176
     1
 67
     7
176
     1
 79
     5
176
     1
170
     0
176
     1
171
     0
176
     1
290
     0
176
     1
 93
       13
176
     1
 44
0.0
176
     1
173
     0
176
     1
1001
ACAD
1000
AcDbSavedByObjectVersion
1070
     0
  0
VISUALSTYLE
  5
1032A
102
{ACAD_XDICTIONARY
360
1215E
102
}
102
{ACAD_REACTORS
330
10326
102
}
330
10326
100
AcDbVisualStyle
  2
GouraudWithEdges
 70
     3
177
     2
291
     1
 71
     2
176
     1
 72
     2
176
     1
 73
     1
176
     1
 90
        2
176
     1
 40
0.6
176
     1
 41
30.0
176
     1
 63
     7
421
 16777215
176
     1
 74
     1
176
     1
 91
        4
176
     1
 64
     7
176
     1
 65
   257
176
     1
 75
     1
176
     1
175
     1
176
     1
 42
1.0
176
     1
 92
        0
176
     1
 66
   257
176
     1
 43
1.0
176
     1
 76
     1
176
     1
 77
     6
176
     1
 78
     2
176
     1
 67
     7
176
     1
 79
     5
176
     1
170
     0
176
     1
171
     0
176
     1
290
     0
176
     1
 93
       13
176
     1
 44
0.0
176
     1
173
     0
176
     1
1001
ACAD
1000
AcDbSavedByObjectVersion
1070
     0
  0
VISUALSTYLE
  5
10CDC
102
{ACAD_XDICTIONARY
360
12180
102
}
102
{ACAD_REACTORS
330
10326
102
}
330
10326
100
AcDbVisualStyle
  2
Hidden
 70
     6
177
     2
291
     0
 71
     1
176
     1
 72
     2
176
     1
 73
     2
176
     1
 90
        0
176
     1
 40
0.6
176
     1
 41
30.0
176
     1
 63
     7
421
 16777215
176
     1
 74
     2
176
     1
 91
        2
176
     1
 64
     7
176
     1
 65
   257
176
     1
 75
     2
176
     1
175
     1
176
     1
 42
40.0
176
     1
 92
        0
176
     1
 66
   257
176
     1
 43
1.0
176
     1
 76
     1
176
     1
 77
     6
176
     1
 78
     2
176
     1
 67
     7
176
     1
 79
     3
176
     1
170
     0
176
     1
171
     0
176
     1
290
     0
176
     1
 93
        1
176
     1
 44
0.0
176
     1
173
     0
176
     1
1001
ACAD
1000
AcDbSavedByObjectVersion
1070
     0
  0
VISUALSTYLE
  5
10B7A
102
{ACAD_XDICTIONARY
360
12178
102
}
102
{ACAD_REACTORS
330
10326
102
}
330
10326
100
AcDbVisualStyle
  2
JitterOff
 70
    20
177
     2
291
     1
 71
     2
176
     0
 72
     2
176
     0
 73
     0
176
     0
 90
        0
176
     0
 40
0.6
176
     0
 41
30.0
176
     0
 63
     7
421
 16777215
176
     0
 74
     1
176
     0
 91
        4
176
     0
 64
     7
176
     0
 65
   257
176
     0
 75
     1
176
     0
175
     1
176
     0
 42
1.0
176
     0
 92
       10
176
     2
 66
     7
176
     0
 43
1.0
176
     0
 76
     1
176
     0
 77
     6
176
     0
 78
     2
176
     0
 67
     7
176
     0
 79
     5
176
     0
170
     0
176
     0
171
     0
176
     0
290
     0
176
     0
 93
        1
176
     0
 44
0.0
176
     0
173
     0
176
     0
1001
ACAD
1000
AcDbSavedByObjectVersion
1070
     0
  0
VISUALSTYLE
  5
10334
102
{ACAD_XDICTIONARY
360
12172
102
}
102
{ACAD_REACTORS
330
10326
102
}
330
10326
100
AcDbVisualStyle
  2
Linepattern
 70
    14
177
     2
291
     1
 71
     2
176
     1
 72
     2
176
     1
 73
     0
176
     1
 90
        0
176
     1
 40
0.6
176
     1
 41
30.0
176
     1
 63
     7
421
 16777215
176
     1
 74
     1
176
     1
 91
        4
176
     1
 64
     7
176
     1
 65
   257
176
     1
 75
     7
176
     1
175
     7
176
     1
 42
1.0
176
     1
 92
        8
176
     1
 66
     7
176
     1
 43
1.0
176
     1
 76
     1
176
     1
 77
     6
176
     1
 78
     2
176
     1
 67
     7
176
     1
 79
     5
176
     1
170
     0
176
     1
171
     0
176
     1
290
     0
176
     1
 93
        1
176
     1
 44
0.0
176
     1
173
     0
176
     1
1001
ACAD
1000
AcDbSavedByObjectVersion
1070
     0
  0
VISUALSTYLE
  5
10B7B
102
{ACAD_XDICTIONARY
360
1217A
102
}
102
{ACAD_REACTORS
330
10326
102
}
330
10326
100
AcDbVisualStyle
  2
OverhangOff
 70
    21
177
     2
291
     1
 71
     2
176
     0
 72
     2
176
     0
 73
     0
176
     0
 90
        0
176
     0
 40
0.6
176
     0
 41
30.0
176
     0
 63
     7
421
 16777215
176
     0
 74
     1
176
     0
 91
        4
176
     0
 64
     7
176
     0
 65
   257
176
     0
 75
     1
176
     0
175
     1
176
     0
 42
1.0
176
     0
 92
        9
176
     2
 66
     7
176
     0
 43
1.0
176
     0
 76
     1
176
     0
 77
     6
176
     0
 78
     2
176
     0
 67
     7
176
     0
 79
     5
176
     0
170
     0
176
     0
171
     0
176
     0
290
     0
176
     0
 93
        1
176
     0
 44
0.0
176
     0
173
     0
176
     0
1001
ACAD
1000
AcDbSavedByObjectVersion
1070
     0
  0
VISUALSTYLE
  5
10330
102
{ACAD_XDICTIONARY
360
1216A
102
}
102
{ACAD_REACTORS
330
10326
102
}
330
10326
100
AcDbVisualStyle
  2
Realistic
 70
     8
177
     2
291
     0
 71
     2
176
     1
 72
     2
176
     1
 73
     0
176
     1
 90
        0
176
     1
 40
0.6
176
     1
 41
30.0
176
     1
 63
     7
421
 16777215
176
     1
 74
     1
176
     1
 91
        0
176
     1
 64
     7
176
     1
 65
   257
176
     1
 75
     1
176
     1
175
     1
176
     1
 42
1.0
176
     1
 92
        8
176
     1
 66
     8
424
  7895160
176
     1
 43
1.0
176
     1
 76
     1
176
     1
 77
     6
176
     1
 78
     2
176
     1
 67
     7
176
     1
 79
     5
176
     1
170
     0
176
     1
171
     0
176
     1
290
     0
176
     1
 93
       13
176
     1
 44
0.0
176
     1
173
     0
176
     1
1001
ACAD
1000
AcDbSavedByObjectVersion
1070
     0
  0
VISUALSTYLE
  5
10CE1
102
{ACAD_XDICTIONARY
360
1218A
102
}
102
{ACAD_REACTORS
330
10326
102
}
330
10326
100
AcDbVisualStyle
  2
Shaded
 70
    27
177
     2
291
     0
 71
     2
176
     1
 72
     2
176
     1
 73
     1
176
     1
 90
        2
176
     1
 40
0.6
176
     1
 41
30.0
176
     1
 63
     7
421
 16777215
176
     1
 74
     0
176
     1
 91
        4
176
     1
 64
     7
176
     1
 65
   257
176
     1
 75
     1
176
     1
175
     1
176
     1
 42
1.0
176
     1
 92
        8
176
     1
 66
   257
176
     1
 43
1.0
176
     1
 76
     1
176
     1
 77
     6
176
     1
 78
     2
176
     1
 67
     8
425
  7895160
176
     1
 79
     3
176
     1
170
     0
176
     1
171
     0
176
     1
290
     0
176
     1
 93
        5
176
     1
 44
0.0
176
     1
173
     0
176
     1
1001
ACAD
1000
AcDbSavedByObjectVersion
1070
     0
  0
VISUALSTYLE
  5
10CE0
102
{ACAD_XDICTIONARY
360
12188
102
}
102
{ACAD_REACTORS
330
10326
102
}
330
10326
100
AcDbVisualStyle
  2
Shaded with edges
 70
    26
177
     2
291
     0
 71
     2
176
     1
 72
     2
176
     1
 73
     1
176
     1
 90
        2
176
     1
 40
0.6
176
     1
 41
30.0
176
     1
 63
     7
421
 16777215
176
     1
 74
     1
176
     1
 91
       10
176
     1
 64
     7
176
     1
 65
   257
176
     1
 75
     2
176
     1
175
     1
176
     1
 42
1.0
176
     1
 92
        8
176
     1
 66
   257
176
     1
 43
1.0
176
     1
 76
     1
176
     1
 77
     6
176
     1
 78
     2
176
     1
 67
     7
176
     1
 79
     3
176
     1
170
     0
176
     1
171
     0
176
     1
290
     0
176
     1
 93
        5
176
     1
 44
0.0
176
     1
173
     0
176
     1
1001
ACAD
1000
AcDbSavedByObjectVersion
1070
     0
  0
VISUALSTYLE
  5
10CDD
102
{ACAD_XDICTIONARY
360
12182
102
}
102
{ACAD_REACTORS
330
10326
102
}
330
10326
100
AcDbVisualStyle
  2
Shades of Gray
 70
    23
177
     2
291
     0
 71
     2
176
     1
 72
     2
176
     1
 73
     3
176
     1
 90
        0
176
     1
 40
0.6
176
     1
 41
30.0
176
     1
 63
     7
421
 16777215
176
     1
 74
     2
176
     1
 91
        2
176
     1
 64
     7
176
     1
 65
     7
176
     1
 75
     1
176
     1
175
     1
176
     1
 42
40.0
176
     1
 92
        8
176
     1
 66
     7
176
     1
 43
1.0
176
     1
 76
     1
176
     1
 77
     6
176
     1
 78
     2
176
     1
 67
     7
176
     1
 79
     3
176
     1
170
     0
176
     1
171
     0
176
     1
290
     0
176
     1
 93
        1
176
     1
 44
0.0
176
     1
173
     0
176
     1
1001
ACAD
1000
AcDbSavedByObjectVersion
1070
     0
  0
VISUALSTYLE
  5
10CDE
102
{ACAD_XDICTIONARY
360
12184
102
}
102
{ACAD_REACTORS
330
10326
102
}
330
10326
100
AcDbVisualStyle
  2
Sketchy
 70
    24
177
     2
291
     0
 71
     1
176
     1
 72
     2
176
     1
 73
     2
176
     1
 90
        0
176
     1
 40
0.6
176
     1
 41
30.0
176
     1
 63
     7
421
 16777215
176
     1
 74
     2
176
     1
 91
        2
176
     1
 64
     7
176
     1
 65
     7
176
     1
 75
     1
176
     1
175
     1
176
     1
 42
40.0
176
     1
 92
       11
176
     1
 66
     7
176
     1
 43
1.0
176
     1
 76
     1
176
     1
 77
     6
176
     1
 78
     2
176
     1
 67
     7
176
     1
 79
     6
176
     1
170
     0
176
     1
171
     0
176
     1
290
     0
176
     1
 93
        1
176
     1
 44
0.0
176
     1
173
     0
176
     1
1001
ACAD
1000
AcDbSavedByObjectVersion
1070
     0
  0
VISUALSTYLE
  5
10333
102
{ACAD_XDICTIONARY
360
12170
102
}
102
{ACAD_REACTORS
330
10326
102
}
330
10326
100
AcDbVisualStyle
  2
Thicken
 70
    13
177
     2
291
     1
 71
     2
176
     1
 72
     2
176
     1
 73
     0
176
     1
 90
        0
176
     1
 40
0.6
176
     1
 41
30.0
176
     1
 63
     7
421
 16777215
176
     1
 74
     1
176
     1
 91
        4
176
     1
 64
     7
176
     1
 65
   257
176
     1
 75
     1
176
     1
175
     1
176
     1
 42
1.0
176
     1
 92
       12
176
     1
 66
     7
176
     1
 43
1.0
176
     1
 76
     1
176
     1
 77
     6
176
     1
 78
     2
176
     1
 67
     7
176
     1
 79
     5
176
     1
170
     0
176
     1
171
     0
176
     1
290
     0
176
     1
 93
        1
176
     1
 44
0.0
176
     1
173
     0
176
     1
1001
ACAD
1000
AcDbSavedByObjectVersion
1070
     0
  0
VISUALSTYLE
  5
10CDB
102
{ACAD_XDICTIONARY
360
1217E
102
}
102
{ACAD_REACTORS
330
10326
102
}
330
10326
100
AcDbVisualStyle
  2
Wireframe
 70
     5
177
     2
291
     0
 71
     0
176
     1
 72
     2
176
     1
 73
     0
176
     1
 90
        0
176
     1
 40
0.6
176
     1
 41
30.0
176
     1
 63
     7
421
 16777215
176
     1
 74
     1
176
     1
 91
        4
176
     1
 64
     7
176
     1
 65
   257
176
     1
 75
     1
176
     1
175
     1
176
     1
 42
1.0
176
     1
 92
        0
176
     1
 66
   257
176
     1
 43
1.0
176
     1
 76
     1
176
     1
 77
     6
176
     1
 78
     2
176
     1
 67
     7
176
     1
 79
     3
176
     1
170
     0
176
     1
171
     0
176
     1
290
     0
176
     1
 93
        1
176
     1
 44
0.0
176
     1
173
     0
176
     1
1001
ACAD
1000
AcDbSavedByObjectVersion
1070
     0
  0
VISUALSTYLE
  5
10CDF
102
{ACAD_XDICTIONARY
360
12186
102
}
102
{ACAD_REACTORS
330
10326
102
}
330
10326
100
AcDbVisualStyle
  2
X-Ray
 70
    25
177
     2
291
     0
 71
     2
176
     1
 72
     2
176
     1
 73
     1
176
     1
 90
        1
176
     1
 40
0.5
176
     1
 41
30.0
176
     1
 63
     7
421
 16777215
176
     1
 74
     1
176
     1
 91
        0
176
     1
 64
     7
176
     1
 65
   257
176
     1
 75
     1
176
     1
175
     1
176
     1
 42
1.0
176
     1
 92
        8
176
     1
 66
     7
176
     1
 43
1.0
176
     1
 76
     1
176
     1
 77
     6
176
     1
 78
     2
176
     1
 67
     7
176
     1
 79
     3
176
     1
170
     0
176
     1
171
     0
176
     1
290
     0
176
     1
 93
       13
176
     1
 44
0.0
176
     1
173
     0
176
     1
1001
ACAD
1000
AcDbSavedByObjectVersion
1070
     0
  0
DICTIONARYVAR
  5
103A7
102
{ACAD_REACTORS
330
2C7C
102
}
330
2C7C
100
DictionaryVariables
280
     0
  1
1:1
  0
DICTIONARYVAR
  5
103A5
102
{ACAD_REACTORS
330
2C7C
102
}
330
2C7C
100
DictionaryVariables
280
     0
  1
STANDARD
  0
DICTIONARYVAR
  5
D9C1
102
{ACAD_REACTORS
330
2C7C
102
}
330
2C7C
100
DictionaryVariables
280
     0
  1
STANDARD
  0
DICTIONARYVAR
  5
10D05
102
{ACAD_REACTORS
330
2C7C
102
}
330
2C7C
100
DictionaryVariables
280
     0
  1
Metric50
  0
DICTIONARYVAR
  5
10D06
102
{ACAD_REACTORS
330
2C7C
102
}
330
2C7C
100
DictionaryVariables
280
     0
  1
Metric50
  0
DICTIONARYVAR
  5
D99B
102
{ACAD_REACTORS
330
2C7C
102
}
330
2C7C
100
DictionaryVariables
280
     0
  1
1
  0
DICTIONARYVAR
  5
10D07
102
{ACAD_REACTORS
330
2C7C
102
}
330
2C7C
100
DictionaryVariables
280
     0
  1
1
  0
DICTIONARYVAR
  5
10D08
102
{ACAD_REACTORS
330
2C7C
102
}
330
2C7C
100
DictionaryVariables
280
     0
  1
15
  0
DICTIONARYVAR
  5
103A8
102
{ACAD_REACTORS
330
2C7C
102
}
330
2C7C
100
DictionaryVariables
280
     0
  1
0
  0
DICTIONARYVAR
  5
103A6
102
{ACAD_REACTORS
330
2C7C
102
}
330
2C7C
100
DictionaryVariables
280
     0
  1
0
  0
DICTIONARYVAR
  5
2C7D
102
{ACAD_REACTORS
330
2C7C
102
}
330
2C7C
100
DictionaryVariables
280
     0
  1
96
  0
DICTIONARY
  5
12157
102
{ACAD_REACTORS
330
12155
102
}
330
12155
100
AcDbDictionary
281
     1
  0
DICTIONARY
  5
12156
102
{ACAD_REACTORS
330
12155
102
}
330
12155
100
AcDbDictionary
281
     1
  3
8796087864576
350
12150
  3
8796087864592
350
12151
  3
8796087864608
350
12152
  3
8796087864624
350
12153
  3
8796087864640
350
12154
  0
DICTIONARY
  5
11338
102
{ACAD_REACTORS
330
11331
102
}
330
11331
100
AcDbDictionary
281
     1
  0
DICTIONARY
  5
10D02
330
10CE5
100
AcDbDictionary
280
     1
281
     1
  3
ACAD_XREC_ROUNDTRIP
360
1218D
  0
DICTIONARY
  5
11A8C
330
11A8B
100
AcDbDictionary
280
     1
281
     1
  3
ACAD_XREC_ROUNDTRIP
360
1218F
  0
DICTIONARY
  5
D9BE
330
5C22
100
AcDbDictionary
280
     1
281
     1
  0
DICTIONARY
  5
10C18
330
5C21
100
AcDbDictionary
280
     1
281
     1
  0
DICTIONARY
  5
10317
330
10316
100
AcDbDictionary
280
     1
281
     1
  3
BUMPTILE
360
10319
  3
DIFFUSETILE
360
10318
  3
OPACITYTILE
360
1031C
  3
REFLECTIONTILE
360
1031B
  3
REFRACTIONTILE
360
1031D
  3
SPECULARTILE
360
1031A
  0
DICTIONARY
  5
1030F
330
1030E
100
AcDbDictionary
280
     1
281
     1
  3
BUMPTILE
360
10311
  3
DIFFUSETILE
360
10310
  3
OPACITYTILE
360
10314
  3
REFLECTIONTILE
360
10313
  3
REFRACTIONTILE
360
10315
  3
SPECULARTILE
360
10312
  0
DICTIONARY
  5
1031F
330
1031E
100
AcDbDictionary
280
     1
281
     1
  3
BUMPTILE
360
10321
  3
DIFFUSETILE
360
10320
  3
OPACITYTILE
360
10324
  3
REFLECTIONTILE
360
10323
  3
REFRACTIONTILE
360
10325
  3
SPECULARTILE
360
10322
  0
DICTIONARY
  5
10D00
330
10CE3
100
AcDbDictionary
280
     1
281
     1
  3
ACAD_XREC_ROUNDTRIP
360
1218C
  0
DICTIONARY
  5
11A8A
330
11A89
100
AcDbDictionary
280
     1
281
     1
  3
ACAD_XREC_ROUNDTRIP
360
1218E
  0
DICTIONARY
  5
103A2
330
D9A1
100
AcDbDictionary
280
     1
281
     1
  3
ACAD_ROUNDTRIP_2008_TABLESTYLE_CELLSTYLEMAP
360
1214D
  0
DICTIONARY
  5
12162
330
1032C
100
AcDbDictionary
280
     1
281
     1
  3
ACAD_XREC_ROUNDTRIP
360
12163
  0
DICTIONARY
  5
12166
330
1032E
100
AcDbDictionary
280
     1
281
     1
  3
ACAD_XREC_ROUNDTRIP
360
12167
  0
DICTIONARY
  5
12164
330
1032D
100
AcDbDictionary
280
     1
281
     1
  3
ACAD_XREC_ROUNDTRIP
360
12165
  0
DICTIONARY
  5
12160
330
1032B
100
AcDbDictionary
280
     1
281
     1
  3
ACAD_XREC_ROUNDTRIP
360
12161
  0
DICTIONARY
  5
1216E
330
10332
100
AcDbDictionary
280
     1
281
     1
  3
ACAD_XREC_ROUNDTRIP
360
1216F
  0
DICTIONARY
  5
12176
330
10336
100
AcDbDictionary
280
     1
281
     1
  3
ACAD_XREC_ROUNDTRIP
360
12177
  0
DICTIONARY
  5
12168
330
1032F
100
AcDbDictionary
280
     1
281
     1
  3
ACAD_XREC_ROUNDTRIP
360
12169
  0
DICTIONARY
  5
1216C
330
10331
100
AcDbDictionary
280
     1
281
     1
  3
ACAD_XREC_ROUNDTRIP
360
1216D
  0
DICTIONARY
  5
1217C
330
10B7C
100
AcDbDictionary
280
     1
281
     1
  3
ACAD_XREC_ROUNDTRIP
360
1217D
  0
DICTIONARY
  5
12174
330
10335
100
AcDbDictionary
280
     1
281
     1
  3
ACAD_XREC_ROUNDTRIP
360
12175
  0
DICTIONARY
  5
12158
330
10327
100
AcDbDictionary
280
     1
281
     1
  3
ACAD_XREC_ROUNDTRIP
360
12159
  0
DICTIONARY
  5
1215A
330
10328
100
AcDbDictionary
280
     1
281
     1
  3
ACAD_XREC_ROUNDTRIP
360
1215B
  0
DICTIONARY
  5
1215C
330
10329
100
AcDbDictionary
280
     1
281
     1
  3
ACAD_XREC_ROUNDTRIP
360
1215D
  0
DICTIONARY
  5
1215E
330
1032A
100
AcDbDictionary
280
     1
281
     1
  3
ACAD_XREC_ROUNDTRIP
360
1215F
  0
DICTIONARY
  5
12180
330
10CDC
100
AcDbDictionary
280
     1
281
     1
  3
ACAD_XREC_ROUNDTRIP
360
12181
  0
DICTIONARY
  5
12178
330
10B7A
100
AcDbDictionary
280
     1
281
     1
  3
ACAD_XREC_ROUNDTRIP
360
12179
  0
DICTIONARY
  5
12172
330
10334
100
AcDbDictionary
280
     1
281
     1
  3
ACAD_XREC_ROUNDTRIP
360
12173
  0
DICTIONARY
  5
1217A
330
10B7B
100
AcDbDictionary
280
     1
281
     1
  3
ACAD_XREC_ROUNDTRIP
360
1217B
  0
DICTIONARY
  5
1216A
330
10330
100
AcDbDictionary
280
     1
281
     1
  3
ACAD_XREC_ROUNDTRIP
360
1216B
  0
DICTIONARY
  5
1218A
330
10CE1
100
AcDbDictionary
280
     1
281
     1
  3
ACAD_XREC_ROUNDTRIP
360
1218B
  0
DICTIONARY
  5
12188
330
10CE0
100
AcDbDictionary
280
     1
281
     1
  3
ACAD_XREC_ROUNDTRIP
360
12189
  0
DICTIONARY
  5
12182
330
10CDD
100
AcDbDictionary
280
     1
281
     1
  3
ACAD_XREC_ROUNDTRIP
360
12183
  0
DICTIONARY
  5
12184
330
10CDE
100
AcDbDictionary
280
     1
281
     1
  3
ACAD_XREC_ROUNDTRIP
360
12185
  0
DICTIONARY
  5
12170
330
10333
100
AcDbDictionary
280
     1
281
     1
  3
ACAD_XREC_ROUNDTRIP
360
12171
  0
DICTIONARY
  5
1217E
330
10CDB
100
AcDbDictionary
280
     1
281
     1
  3
ACAD_XREC_ROUNDTRIP
360
1217F
  0
DICTIONARY
  5
12186
330
10CDF
100
AcDbDictionary
280
     1
281
     1
  3
ACAD_XREC_ROUNDTRIP
360
12187
  0
XRECORD
  5
12150
102
{ACAD_REACTORS
330
12156
102
}
330
12156
100
AcDbXrecord
280
     1
  1
AcDb_Thumbnail_Schema
102
{ATTRRECORD
341
12151
  2
AcDbDs::TreatedAsObjectData
280
     1
291
     1
102
ATTRRECORD}
102
{ATTRRECORD
341
12152
  2
AcDbDs::Legacy
280
     1
291
     1
102
ATTRRECORD}
  2
AcDbDs::ID
280
    10
 91
        8
102
{ATTRRECORD
341
12153
  2
AcDs:Indexable
280
     1
291
     1
102
ATTRRECORD}
102
{ATTRRECORD
341
12154
  2
AcDbDs::HandleAttribute
280
     7
282
     1
102
ATTRRECORD}
  2
Thumbnail_Data
280
    15
 91
        0
  0
XRECORD
  5
12151
102
{ACAD_REACTORS
330
12156
102
}
330
12156
100
AcDbXrecord
280
     1
  1
AcDbDs::TreatedAsObjectDataSchema
  2
AcDbDs::TreatedAsObjectData
280
     1
 91
        0
  0
XRECORD
  5
12152
102
{ACAD_REACTORS
330
12156
102
}
330
12156
100
AcDbXrecord
280
     1
  1
AcDbDs::LegacySchema
  2
AcDbDs::Legacy
280
     1
 91
        0
  0
XRECORD
  5
12153
102
{ACAD_REACTORS
330
12156
102
}
330
12156
100
AcDbXrecord
280
     1
  1
AcDbDs::IndexedPropertySchema
  2
AcDs:Indexable
280
     1
 91
        0
  0
XRECORD
  5
12154
102
{ACAD_REACTORS
330
12156
102
}
330
12156
100
AcDbXrecord
280
     1
  1
AcDbDs::HandleAttributeSchema
  2
AcDbDs::HandleAttribute
280
     7
 91
        1
284
     1
  0
XRECORD
  5
1218D
102
{ACAD_REACTORS
330
10D02
102
}
330
10D02
100
AcDbXrecord
280
     1
102
DISPLAYNAME
  1
Imperial24
102
FLAGS
 90
        0
  0
XRECORD
  5
1218F
102
{ACAD_REACTORS
330
11A8C
102
}
330
11A8C
100
AcDbXrecord
280
     1
102
DISPLAYNAME
  1
Metric50
102
FLAGS
 90
        0
  0
XRECORD
  5
10319
102
{ACAD_REACTORS
330
10317
102
}
330
10317
100
AcDbXrecord
280
     1
270
     1
271
     1
  0
XRECORD
  5
10318
102
{ACAD_REACTORS
330
10317
102
}
330
10317
100
AcDbXrecord
280
     1
270
     1
271
     1
  0
XRECORD
  5
1031C
102
{ACAD_REACTORS
330
10317
102
}
330
10317
100
AcDbXrecord
280
     1
270
     1
271
     1
  0
XRECORD
  5
1031B
102
{ACAD_REACTORS
330
10317
102
}
330
10317
100
AcDbXrecord
280
     1
270
     1
271
     1
  0
XRECORD
  5
1031D
102
{ACAD_REACTORS
330
10317
102
}
330
10317
100
AcDbXrecord
280
     1
270
     1
271
     1
  0
XRECORD
  5
1031A
102
{ACAD_REACTORS
330
10317
102
}
330
10317
100
AcDbXrecord
280
     1
270
     1
271
     1
  0
XRECORD
  5
10311
102
{ACAD_REACTORS
330
1030F
102
}
330
1030F
100
AcDbXrecord
280
     1
270
     1
271
     1
  0
XRECORD
  5
10310
102
{ACAD_REACTORS
330
1030F
102
}
330
1030F
100
AcDbXrecord
280
     1
270
     1
271
     1
  0
XRECORD
  5
10314
102
{ACAD_REACTORS
330
1030F
102
}
330
1030F
100
AcDbXrecord
280
     1
270
     1
271
     1
  0
XRECORD
  5
10313
102
{ACAD_REACTORS
330
1030F
102
}
330
1030F
100
AcDbXrecord
280
     1
270
     1
271
     1
  0
XRECORD
  5
10315
102
{ACAD_REACTORS
330
1030F
102
}
330
1030F
100
AcDbXrecord
280
     1
270
     1
271
     1
  0
XRECORD
  5
10312
102
{ACAD_REACTORS
330
1030F
102
}
330
1030F
100
AcDbXrecord
280
     1
270
     1
271
     1
  0
XRECORD
  5
10321
102
{ACAD_REACTORS
330
1031F
102
}
330
1031F
100
AcDbXrecord
280
     1
270
     1
271
     1
  0
XRECORD
  5
10320
102
{ACAD_REACTORS
330
1031F
102
}
330
1031F
100
AcDbXrecord
280
     1
270
     1
271
     1
  0
XRECORD
  5
10324
102
{ACAD_REACTORS
330
1031F
102
}
330
1031F
100
AcDbXrecord
280
     1
270
     1
271
     1
  0
XRECORD
  5
10323
102
{ACAD_REACTORS
330
1031F
102
}
330
1031F
100
AcDbXrecord
280
     1
270
     1
271
     1
  0
XRECORD
  5
10325
102
{ACAD_REACTORS
330
1031F
102
}
330
1031F
100
AcDbXrecord
280
     1
270
     1
271
     1
  0
XRECORD
  5
10322
102
{ACAD_REACTORS
330
1031F
102
}
330
1031F
100
AcDbXrecord
280
     1
270
     1
271
     1
  0
XRECORD
  5
1218C
102
{ACAD_REACTORS
330
10D00
102
}
330
10D00
100
AcDbXrecord
280
     1
102
DISPLAYNAME
  1
Imperial24
102
FLAGS
 90
        0
  0
XRECORD
  5
1218E
102
{ACAD_REACTORS
330
11A8A
102
}
330
11A8A
100
AcDbXrecord
280
     1
102
DISPLAYNAME
  1
Metric50
102
FLAGS
 90
        0
  0
CELLSTYLEMAP
  5
1214D
102
{ACAD_REACTORS
330
103A2
102
}
330
103A2
100
AcDbCellStyleMap
 90
        3
300
CELLSTYLE
  1
TABLEFORMAT_BEGIN
 90
        5
170
     1
 91
        0
 92
    32768
 62
   257
 93
        1
300
CONTENTFORMAT
  1
CONTENTFORMAT_BEGIN
 90
        0
 91
        0
 92
        4
 93
        0
300

 40
0.0
140
1.0
 94
        5
 62
     0
340
F
144
0.25
309
CONTENTFORMAT_END
171
     0
 94
        6
 95
        1
302
GRIDFORMAT
  1
GRIDFORMAT_BEGIN
 90
        0
 91
        1
 62
     0
 92
       -2
340
0
 93
        0
 40
0.045
309
GRIDFORMAT_END
 95
        2
302
GRIDFORMAT
  1
GRIDFORMAT_BEGIN
 90
        0
 91
        1
 62
     0
 92
       -2
340
0
 93
        0
 40
0.045
309
GRIDFORMAT_END
 95
        4
302
GRIDFORMAT
  1
GRIDFORMAT_BEGIN
 90
        0
 91
        1
 62
     0
 92
       -2
340
0
 93
        0
 40
0.045
309
GRIDFORMAT_END
 95
        8
302
GRIDFORMAT
  1
GRIDFORMAT_BEGIN
 90
        0
 91
        1
 62
     0
 92
       -2
340
0
 93
        0
 40
0.045
309
GRIDFORMAT_END
 95
       16
302
GRIDFORMAT
  1
GRIDFORMAT_BEGIN
 90
        0
 91
        1
 62
     0
 92
       -2
340
0
 93
        0
 40
0.045
309
GRIDFORMAT_END
 95
       32
302
GRIDFORMAT
  1
GRIDFORMAT_BEGIN
 90
        0
 91
        1
 62
     0
 92
       -2
340
0
 93
        0
 40
0.045
309
GRIDFORMAT_END
309
TABLEFORMAT_END
  1
CELLSTYLE_BEGIN
 90
        1
 91
        1
300
_TITLE
309
CELLSTYLE_END
300
CELLSTYLE
  1
TABLEFORMAT_BEGIN
 90
        5
170
     1
 91
        0
 92
        0
 62
   257
 93
        1
300
CONTENTFORMAT
  1
CONTENTFORMAT_BEGIN
 90
        0
 91
        0
 92
        4
 93
        0
300

 40
0.0
140
1.0
 94
        5
 62
     0
340
F
144
0.18
309
CONTENTFORMAT_END
171
     0
 94
        6
 95
        1
302
GRIDFORMAT
  1
GRIDFORMAT_BEGIN
 90
        0
 91
        1
 62
     0
 92
       -2
340
0
 93
        0
 40
0.045
309
GRIDFORMAT_END
 95
        2
302
GRIDFORMAT
  1
GRIDFORMAT_BEGIN
 90
        0
 91
        1
 62
     0
 92
       -2
340
0
 93
        0
 40
0.045
309
GRIDFORMAT_END
 95
        4
302
GRIDFORMAT
  1
GRIDFORMAT_BEGIN
 90
        0
 91
        1
 62
     0
 92
       -2
340
0
 93
        0
 40
0.045
309
GRIDFORMAT_END
 95
        8
302
GRIDFORMAT
  1
GRIDFORMAT_BEGIN
 90
        0
 91
        1
 62
     0
 92
       -2
340
0
 93
        0
 40
0.045
309
GRIDFORMAT_END
 95
       16
302
GRIDFORMAT
  1
GRIDFORMAT_BEGIN
 90
        0
 91
        1
 62
     0
 92
       -2
340
0
 93
        0
 40
0.045
309
GRIDFORMAT_END
 95
       32
302
GRIDFORMAT
  1
GRIDFORMAT_BEGIN
 90
        0
 91
        1
 62
     0
 92
       -2
340
0
 93
        0
 40
0.045
309
GRIDFORMAT_END
309
TABLEFORMAT_END
  1
CELLSTYLE_BEGIN
 90
        2
 91
        1
300
_HEADER
309
CELLSTYLE_END
300
CELLSTYLE
  1
TABLEFORMAT_BEGIN
 90
        5
170
     1
 91
        0
 92
        0
 62
   257
 93
        1
300
CONTENTFORMAT
  1
CONTENTFORMAT_BEGIN
 90
        0
 91
        0
 92
        4
 93
        0
300

 40
0.0
140
1.0
 94
        2
 62
     0
340
F
144
0.18
309
CONTENTFORMAT_END
171
     0
 94
        6
 95
        1
302
GRIDFORMAT
  1
GRIDFORMAT_BEGIN
 90
        0
 91
        1
 62
     0
 92
       -2
340
0
 93
        0
 40
0.045
309
GRIDFORMAT_END
 95
        2
302
GRIDFORMAT
  1
GRIDFORMAT_BEGIN
 90
        0
 91
        1
 62
     0
 92
       -2
340
0
 93
        0
 40
0.045
309
GRIDFORMAT_END
 95
        4
302
GRIDFORMAT
  1
GRIDFORMAT_BEGIN
 90
        0
 91
        1
 62
     0
 92
       -2
340
0
 93
        0
 40
0.045
309
GRIDFORMAT_END
 95
        8
302
GRIDFORMAT
  1
GRIDFORMAT_BEGIN
 90
        0
 91
        1
 62
     0
 92
       -2
340
0
 93
        0
 40
0.045
309
GRIDFORMAT_END
 95
       16
302
GRIDFORMAT
  1
GRIDFORMAT_BEGIN
 90
        0
 91
        1
 62
     0
 92
       -2
340
0
 93
        0
 40
0.045
309
GRIDFORMAT_END
 95
       32
302
GRIDFORMAT
  1
GRIDFORMAT_BEGIN
 90
        0
 91
        1
 62
     0
 92
       -2
340
0
 93
        0
 40
0.045
309
GRIDFORMAT_END
309
TABLEFORMAT_END
  1
CELLSTYLE_BEGIN
 90
        3
 91
        2
300
_DATA
309
CELLSTYLE_END
  0
XRECORD
  5
12163
102
{ACAD_REACTORS
330
12162
102
}
330
12162
100
AcDbXrecord
280
     1
102
RTVSPost2010Prop28
280
     1
102
RTVSPost2010PropOp28
 70
     1
102
RTVSPost2010Prop29
280
     1
102
RTVSPost2010PropOp29
 70
     1
102
RTVSPost2010Prop30
280
     0
102
RTVSPost2010PropOp30
 70
     1
102
RTVSPost2010Prop31
280
     0
102
RTVSPost2010PropOp31
 70
     1
102
RTVSPost2010Prop32
280
     0
102
RTVSPost2010PropOp32
 70
     1
102
RTVSPost2010Prop33
280
     0
102
RTVSPost2010PropOp33
 70
     1
102
RTVSPost2010Prop34
280
     0
102
RTVSPost2010PropOp34
 70
     1
102
RTVSPost2010Prop35
280
     0
102
RTVSPost2010PropOp35
 70
     1
102
RTVSPost2010Prop36
280
     0
102
RTVSPost2010PropOp36
 70
     1
102
RTVSPost2010Prop37
 90
       50
102
RTVSPost2010PropOp37
 70
     1
102
RTVSPost2010Prop38
140
0.0
102
RTVSPost2010PropOp38
 70
     1
102
RTVSPost2010Prop39
140
1.0
102
RTVSPost2010PropOp39
 70
     1
102
RTVSPost2010Prop40
 90
        0
102
RTVSPost2010PropOp40
 70
     1
102
RTVSPost2010Prop41ColorIndex
 90
       18
102
RTVSPost2010Prop41ColorRGB
 90
        0
102
RTVSPost2010PropOp41
 70
     1
102
RTVSPost2010Prop42
 90
       50
102
RTVSPost2010PropOp42
 70
     1
102
RTVSPost2010Prop43
 90
        3
102
RTVSPost2010PropOp43
 70
     1
102
RTVSPost2010Prop44ColorIndex
 90
        5
102
RTVSPost2010Prop44ColorRGB
 90
      255
102
RTVSPost2010PropOp44
 70
     1
102
RTVSPost2010Prop45
280
     0
102
RTVSPost2010PropOp45
 70
     1
102
RTVSPost2010Prop46
 90
       50
102
RTVSPost2010PropOp46
 70
     1
102
RTVSPost2010Prop47
 90
       50
102
RTVSPost2010PropOp47
 70
     1
102
RTVSPost2010Prop48
 90
       50
102
RTVSPost2010PropOp48
 70
     1
102
RTVSPost2010Prop49
280
     0
102
RTVSPost2010PropOp49
 70
     1
102
RTVSPost2010Prop50
 90
       50
102
RTVSPost2010PropOp50
 70
     1
102
RTVSPost2010Prop51ColorIndex
 90
      256
102
RTVSPost2010Prop51ColorRGB
 90
-16777216
102
RTVSPost2010PropOp51
 70
     0
102
RTVSPost2010Prop52
140
1.0
102
RTVSPost2010PropOp52
 70
     0
102
RTVSPost2010Prop53
 90
        2
102
RTVSPost2010PropOp53
 70
     1
102
RTVSPost2010Prop54
  1
strokes_ogs.tif
102
RTVSPost2010PropOp54
 70
     1
102
RTVSPost2010Prop55
280
     0
102
RTVSPost2010PropOp55
 70
     1
102
RTVSPost2010Prop56
140
1.0
102
RTVSPost2010PropOp56
 70
     1
102
RTVSPost2010Prop57
140
1.0
102
RTVSPost2010PropOp57
 70
     1
  0
XRECORD
  5
12167
102
{ACAD_REACTORS
330
12166
102
}
330
12166
100
AcDbXrecord
280
     1
102
RTVSPost2010Prop28
280
     0
102
RTVSPost2010PropOp28
 70
     1
102
RTVSPost2010Prop29
280
     1
102
RTVSPost2010PropOp29
 70
     1
102
RTVSPost2010Prop30
280
     1
102
RTVSPost2010PropOp30
 70
     1
102
RTVSPost2010Prop31
280
     0
102
RTVSPost2010PropOp31
 70
     1
102
RTVSPost2010Prop32
280
     0
102
RTVSPost2010PropOp32
 70
     1
102
RTVSPost2010Prop33
280
     0
102
RTVSPost2010PropOp33
 70
     1
102
RTVSPost2010Prop34
280
     0
102
RTVSPost2010PropOp34
 70
     1
102
RTVSPost2010Prop35
280
     0
102
RTVSPost2010PropOp35
 70
     1
102
RTVSPost2010Prop36
280
     0
102
RTVSPost2010PropOp36
 70
     1
102
RTVSPost2010Prop37
 90
       50
102
RTVSPost2010PropOp37
 70
     1
102
RTVSPost2010Prop38
140
0.0
102
RTVSPost2010PropOp38
 70
     1
102
RTVSPost2010Prop39
140
1.0
102
RTVSPost2010PropOp39
 70
     1
102
RTVSPost2010Prop40
 90
        0
102
RTVSPost2010PropOp40
 70
     1
102
RTVSPost2010Prop41ColorIndex
 90
       18
102
RTVSPost2010Prop41ColorRGB
 90
        0
102
RTVSPost2010PropOp41
 70
     1
102
RTVSPost2010Prop42
 90
       50
102
RTVSPost2010PropOp42
 70
     1
102
RTVSPost2010Prop43
 90
        3
102
RTVSPost2010PropOp43
 70
     1
102
RTVSPost2010Prop44ColorIndex
 90
        5
102
RTVSPost2010Prop44ColorRGB
 90
      255
102
RTVSPost2010PropOp44
 70
     1
102
RTVSPost2010Prop45
280
     0
102
RTVSPost2010PropOp45
 70
     1
102
RTVSPost2010Prop46
 90
       50
102
RTVSPost2010PropOp46
 70
     1
102
RTVSPost2010Prop47
 90
       50
102
RTVSPost2010PropOp47
 70
     1
102
RTVSPost2010Prop48
 90
       50
102
RTVSPost2010PropOp48
 70
     1
102
RTVSPost2010Prop49
280
     0
102
RTVSPost2010PropOp49
 70
     1
102
RTVSPost2010Prop50
 90
       50
102
RTVSPost2010PropOp50
 70
     1
102
RTVSPost2010Prop51ColorIndex
 90
      256
102
RTVSPost2010Prop51ColorRGB
 90
-16777216
102
RTVSPost2010PropOp51
 70
     0
102
RTVSPost2010Prop52
140
1.0
102
RTVSPost2010PropOp52
 70
     0
102
RTVSPost2010Prop53
 90
        2
102
RTVSPost2010PropOp53
 70
     1
102
RTVSPost2010Prop54
  1
strokes_ogs.tif
102
RTVSPost2010PropOp54
 70
     1
102
RTVSPost2010Prop55
280
     0
102
RTVSPost2010PropOp55
 70
     1
102
RTVSPost2010Prop56
140
1.0
102
RTVSPost2010PropOp56
 70
     1
102
RTVSPost2010Prop57
140
1.0
102
RTVSPost2010PropOp57
 70
     1
  0
XRECORD
  5
12165
102
{ACAD_REACTORS
330
12164
102
}
330
12164
100
AcDbXrecord
280
     1
102
RTVSPost2010Prop28
280
     0
102
RTVSPost2010PropOp28
 70
     1
102
RTVSPost2010Prop29
280
     1
102
RTVSPost2010PropOp29
 70
     1
102
RTVSPost2010Prop30
280
     1
102
RTVSPost2010PropOp30
 70
     1
102
RTVSPost2010Prop31
280
     0
102
RTVSPost2010PropOp31
 70
     1
102
RTVSPost2010Prop32
280
     0
102
RTVSPost2010PropOp32
 70
     1
102
RTVSPost2010Prop33
280
     0
102
RTVSPost2010PropOp33
 70
     1
102
RTVSPost2010Prop34
280
     0
102
RTVSPost2010PropOp34
 70
     1
102
RTVSPost2010Prop35
280
     0
102
RTVSPost2010PropOp35
 70
     1
102
RTVSPost2010Prop36
280
     0
102
RTVSPost2010PropOp36
 70
     1
102
RTVSPost2010Prop37
 90
       50
102
RTVSPost2010PropOp37
 70
     1
102
RTVSPost2010Prop38
140
0.0
102
RTVSPost2010PropOp38
 70
     1
102
RTVSPost2010Prop39
140
1.0
102
RTVSPost2010PropOp39
 70
     1
102
RTVSPost2010Prop40
 90
        0
102
RTVSPost2010PropOp40
 70
     1
102
RTVSPost2010Prop41ColorIndex
 90
       18
102
RTVSPost2010Prop41ColorRGB
 90
        0
102
RTVSPost2010PropOp41
 70
     1
102
RTVSPost2010Prop42
 90
       50
102
RTVSPost2010PropOp42
 70
     1
102
RTVSPost2010Prop43
 90
        3
102
RTVSPost2010PropOp43
 70
     1
102
RTVSPost2010Prop44ColorIndex
 90
        5
102
RTVSPost2010Prop44ColorRGB
 90
      255
102
RTVSPost2010PropOp44
 70
     1
102
RTVSPost2010Prop45
280
     0
102
RTVSPost2010PropOp45
 70
     1
102
RTVSPost2010Prop46
 90
       50
102
RTVSPost2010PropOp46
 70
     1
102
RTVSPost2010Prop47
 90
       50
102
RTVSPost2010PropOp47
 70
     1
102
RTVSPost2010Prop48
 90
       50
102
RTVSPost2010PropOp48
 70
     1
102
RTVSPost2010Prop49
280
     0
102
RTVSPost2010PropOp49
 70
     1
102
RTVSPost2010Prop50
 90
       50
102
RTVSPost2010PropOp50
 70
     1
102
RTVSPost2010Prop51ColorIndex
 90
      256
102
RTVSPost2010Prop51ColorRGB
 90
-16777216
102
RTVSPost2010PropOp51
 70
     0
102
RTVSPost2010Prop52
140
1.0
102
RTVSPost2010PropOp52
 70
     0
102
RTVSPost2010Prop53
 90
        2
102
RTVSPost2010PropOp53
 70
     1
102
RTVSPost2010Prop54
  1
strokes_ogs.tif
102
RTVSPost2010PropOp54
 70
     1
102
RTVSPost2010Prop55
280
     0
102
RTVSPost2010PropOp55
 70
     1
102
RTVSPost2010Prop56
140
1.0
102
RTVSPost2010PropOp56
 70
     1
102
RTVSPost2010Prop57
140
1.0
102
RTVSPost2010PropOp57
 70
     1
  0
XRECORD
  5
12161
102
{ACAD_REACTORS
330
12160
102
}
330
12160
100
AcDbXrecord
280
     1
102
RTVSPost2010Prop28
280
     0
102
RTVSPost2010PropOp28
 70
     1
102
RTVSPost2010Prop29
280
     1
102
RTVSPost2010PropOp29
 70
     1
102
RTVSPost2010Prop30
280
     1
102
RTVSPost2010PropOp30
 70
     1
102
RTVSPost2010Prop31
280
     0
102
RTVSPost2010PropOp31
 70
     1
102
RTVSPost2010Prop32
280
     0
102
RTVSPost2010PropOp32
 70
     1
102
RTVSPost2010Prop33
280
     0
102
RTVSPost2010PropOp33
 70
     1
102
RTVSPost2010Prop34
280
     0
102
RTVSPost2010PropOp34
 70
     1
102
RTVSPost2010Prop35
280
     0
102
RTVSPost2010PropOp35
 70
     1
102
RTVSPost2010Prop36
280
     0
102
RTVSPost2010PropOp36
 70
     1
102
RTVSPost2010Prop37
 90
       50
102
RTVSPost2010PropOp37
 70
     1
102
RTVSPost2010Prop38
140
0.0
102
RTVSPost2010PropOp38
 70
     1
102
RTVSPost2010Prop39
140
1.0
102
RTVSPost2010PropOp39
 70
     1
102
RTVSPost2010Prop40
 90
        0
102
RTVSPost2010PropOp40
 70
     1
102
RTVSPost2010Prop41ColorIndex
 90
       18
102
RTVSPost2010Prop41ColorRGB
 90
        0
102
RTVSPost2010PropOp41
 70
     1
102
RTVSPost2010Prop42
 90
       50
102
RTVSPost2010PropOp42
 70
     1
102
RTVSPost2010Prop43
 90
        3
102
RTVSPost2010PropOp43
 70
     1
102
RTVSPost2010Prop44ColorIndex
 90
        5
102
RTVSPost2010Prop44ColorRGB
 90
      255
102
RTVSPost2010PropOp44
 70
     1
102
RTVSPost2010Prop45
280
     0
102
RTVSPost2010PropOp45
 70
     1
102
RTVSPost2010Prop46
 90
       50
102
RTVSPost2010PropOp46
 70
     1
102
RTVSPost2010Prop47
 90
       50
102
RTVSPost2010PropOp47
 70
     1
102
RTVSPost2010Prop48
 90
       50
102
RTVSPost2010PropOp48
 70
     1
102
RTVSPost2010Prop49
280
     0
102
RTVSPost2010PropOp49
 70
     1
102
RTVSPost2010Prop50
 90
       50
102
RTVSPost2010PropOp50
 70
     1
102
RTVSPost2010Prop51ColorIndex
 90
      256
102
RTVSPost2010Prop51ColorRGB
 90
-16777216
102
RTVSPost2010PropOp51
 70
     0
102
RTVSPost2010Prop52
140
1.0
102
RTVSPost2010PropOp52
 70
     0
102
RTVSPost2010Prop53
 90
        2
102
RTVSPost2010PropOp53
 70
     1
102
RTVSPost2010Prop54
  1
strokes_ogs.tif
102
RTVSPost2010PropOp54
 70
     1
102
RTVSPost2010Prop55
280
     0
102
RTVSPost2010PropOp55
 70
     1
102
RTVSPost2010Prop56
140
1.0
102
RTVSPost2010PropOp56
 70
     1
102
RTVSPost2010Prop57
140
1.0
102
RTVSPost2010PropOp57
 70
     1
  0
XRECORD
  5
1216F
102
{ACAD_REACTORS
330
1216E
102
}
330
1216E
100
AcDbXrecord
280
     1
102
RTVSPost2010Prop28
280
     0
102
RTVSPost2010PropOp28
 70
     1
102
RTVSPost2010Prop29
280
     1
102
RTVSPost2010PropOp29
 70
     1
102
RTVSPost2010Prop30
280
     1
102
RTVSPost2010PropOp30
 70
     1
102
RTVSPost2010Prop31
280
     0
102
RTVSPost2010PropOp31
 70
     1
102
RTVSPost2010Prop32
280
     0
102
RTVSPost2010PropOp32
 70
     1
102
RTVSPost2010Prop33
280
     0
102
RTVSPost2010PropOp33
 70
     1
102
RTVSPost2010Prop34
280
     0
102
RTVSPost2010PropOp34
 70
     1
102
RTVSPost2010Prop35
280
     0
102
RTVSPost2010PropOp35
 70
     1
102
RTVSPost2010Prop36
280
     0
102
RTVSPost2010PropOp36
 70
     1
102
RTVSPost2010Prop37
 90
       50
102
RTVSPost2010PropOp37
 70
     1
102
RTVSPost2010Prop38
140
0.0
102
RTVSPost2010PropOp38
 70
     1
102
RTVSPost2010Prop39
140
1.0
102
RTVSPost2010PropOp39
 70
     1
102
RTVSPost2010Prop40
 90
        0
102
RTVSPost2010PropOp40
 70
     1
102
RTVSPost2010Prop41ColorIndex
 90
       18
102
RTVSPost2010Prop41ColorRGB
 90
        0
102
RTVSPost2010PropOp41
 70
     1
102
RTVSPost2010Prop42
 90
       50
102
RTVSPost2010PropOp42
 70
     1
102
RTVSPost2010Prop43
 90
        3
102
RTVSPost2010PropOp43
 70
     1
102
RTVSPost2010Prop44ColorIndex
 90
        5
102
RTVSPost2010Prop44ColorRGB
 90
      255
102
RTVSPost2010PropOp44
 70
     1
102
RTVSPost2010Prop45
280
     0
102
RTVSPost2010PropOp45
 70
     1
102
RTVSPost2010Prop46
 90
       50
102
RTVSPost2010PropOp46
 70
     1
102
RTVSPost2010Prop47
 90
       50
102
RTVSPost2010PropOp47
 70
     1
102
RTVSPost2010Prop48
 90
       50
102
RTVSPost2010PropOp48
 70
     1
102
RTVSPost2010Prop49
280
     0
102
RTVSPost2010PropOp49
 70
     1
102
RTVSPost2010Prop50
 90
       50
102
RTVSPost2010PropOp50
 70
     1
102
RTVSPost2010Prop51ColorIndex
 90
      256
102
RTVSPost2010Prop51ColorRGB
 90
-16777216
102
RTVSPost2010PropOp51
 70
     0
102
RTVSPost2010Prop52
140
1.0
102
RTVSPost2010PropOp52
 70
     0
102
RTVSPost2010Prop53
 90
        2
102
RTVSPost2010PropOp53
 70
     1
102
RTVSPost2010Prop54
  1
strokes_ogs.tif
102
RTVSPost2010PropOp54
 70
     1
102
RTVSPost2010Prop55
280
     0
102
RTVSPost2010PropOp55
 70
     1
102
RTVSPost2010Prop56
140
1.0
102
RTVSPost2010PropOp56
 70
     1
102
RTVSPost2010Prop57
140
1.0
102
RTVSPost2010PropOp57
 70
     1
  0
XRECORD
  5
12177
102
{ACAD_REACTORS
330
12176
102
}
330
12176
100
AcDbXrecord
280
     1
102
RTVSPost2010Prop28
280
     0
102
RTVSPost2010PropOp28
 70
     1
102
RTVSPost2010Prop29
280
     1
102
RTVSPost2010PropOp29
 70
     1
102
RTVSPost2010Prop30
280
     1
102
RTVSPost2010PropOp30
 70
     1
102
RTVSPost2010Prop31
280
     0
102
RTVSPost2010PropOp31
 70
     1
102
RTVSPost2010Prop32
280
     0
102
RTVSPost2010PropOp32
 70
     1
102
RTVSPost2010Prop33
280
     0
102
RTVSPost2010PropOp33
 70
     1
102
RTVSPost2010Prop34
280
     0
102
RTVSPost2010PropOp34
 70
     1
102
RTVSPost2010Prop35
280
     0
102
RTVSPost2010PropOp35
 70
     1
102
RTVSPost2010Prop36
280
     0
102
RTVSPost2010PropOp36
 70
     1
102
RTVSPost2010Prop37
 90
       50
102
RTVSPost2010PropOp37
 70
     1
102
RTVSPost2010Prop38
140
0.0
102
RTVSPost2010PropOp38
 70
     1
102
RTVSPost2010Prop39
140
1.0
102
RTVSPost2010PropOp39
 70
     1
102
RTVSPost2010Prop40
 90
        0
102
RTVSPost2010PropOp40
 70
     1
102
RTVSPost2010Prop41ColorIndex
 90
       18
102
RTVSPost2010Prop41ColorRGB
 90
        0
102
RTVSPost2010PropOp41
 70
     1
102
RTVSPost2010Prop42
 90
       50
102
RTVSPost2010PropOp42
 70
     1
102
RTVSPost2010Prop43
 90
        3
102
RTVSPost2010PropOp43
 70
     1
102
RTVSPost2010Prop44ColorIndex
 90
        5
102
RTVSPost2010Prop44ColorRGB
 90
      255
102
RTVSPost2010PropOp44
 70
     1
102
RTVSPost2010Prop45
280
     0
102
RTVSPost2010PropOp45
 70
     1
102
RTVSPost2010Prop46
 90
       50
102
RTVSPost2010PropOp46
 70
     1
102
RTVSPost2010Prop47
 90
       50
102
RTVSPost2010PropOp47
 70
     1
102
RTVSPost2010Prop48
 90
       50
102
RTVSPost2010PropOp48
 70
     1
102
RTVSPost2010Prop49
280
     0
102
RTVSPost2010PropOp49
 70
     1
102
RTVSPost2010Prop50
 90
       50
102
RTVSPost2010PropOp50
 70
     1
102
RTVSPost2010Prop51ColorIndex
 90
      256
102
RTVSPost2010Prop51ColorRGB
 90
-16777216
102
RTVSPost2010PropOp51
 70
     0
102
RTVSPost2010Prop52
140
1.0
102
RTVSPost2010PropOp52
 70
     0
102
RTVSPost2010Prop53
 90
        2
102
RTVSPost2010PropOp53
 70
     1
102
RTVSPost2010Prop54
  1
strokes_ogs.tif
102
RTVSPost2010PropOp54
 70
     1
102
RTVSPost2010Prop55
280
     0
102
RTVSPost2010PropOp55
 70
     1
102
RTVSPost2010Prop56
140
1.0
102
RTVSPost2010PropOp56
 70
     1
102
RTVSPost2010Prop57
140
1.0
102
RTVSPost2010PropOp57
 70
     1
  0
XRECORD
  5
12169
102
{ACAD_REACTORS
330
12168
102
}
330
12168
100
AcDbXrecord
280
     1
102
RTVSPost2010Prop28
280
     0
102
RTVSPost2010PropOp28
 70
     1
102
RTVSPost2010Prop29
280
     1
102
RTVSPost2010PropOp29
 70
     1
102
RTVSPost2010Prop30
280
     1
102
RTVSPost2010PropOp30
 70
     1
102
RTVSPost2010Prop31
280
     0
102
RTVSPost2010PropOp31
 70
     1
102
RTVSPost2010Prop32
280
     0
102
RTVSPost2010PropOp32
 70
     1
102
RTVSPost2010Prop33
280
     0
102
RTVSPost2010PropOp33
 70
     1
102
RTVSPost2010Prop34
280
     0
102
RTVSPost2010PropOp34
 70
     1
102
RTVSPost2010Prop35
280
     0
102
RTVSPost2010PropOp35
 70
     1
102
RTVSPost2010Prop36
280
     0
102
RTVSPost2010PropOp36
 70
     1
102
RTVSPost2010Prop37
 90
       50
102
RTVSPost2010PropOp37
 70
     1
102
RTVSPost2010Prop38
140
0.0
102
RTVSPost2010PropOp38
 70
     1
102
RTVSPost2010Prop39
140
1.0
102
RTVSPost2010PropOp39
 70
     1
102
RTVSPost2010Prop40
 90
        0
102
RTVSPost2010PropOp40
 70
     1
102
RTVSPost2010Prop41ColorIndex
 90
       18
102
RTVSPost2010Prop41ColorRGB
 90
        0
102
RTVSPost2010PropOp41
 70
     1
102
RTVSPost2010Prop42
 90
       50
102
RTVSPost2010PropOp42
 70
     1
102
RTVSPost2010Prop43
 90
        3
102
RTVSPost2010PropOp43
 70
     1
102
RTVSPost2010Prop44ColorIndex
 90
        5
102
RTVSPost2010Prop44ColorRGB
 90
      255
102
RTVSPost2010PropOp44
 70
     1
102
RTVSPost2010Prop45
280
     0
102
RTVSPost2010PropOp45
 70
     1
102
RTVSPost2010Prop46
 90
       50
102
RTVSPost2010PropOp46
 70
     1
102
RTVSPost2010Prop47
 90
       50
102
RTVSPost2010PropOp47
 70
     1
102
RTVSPost2010Prop48
 90
       50
102
RTVSPost2010PropOp48
 70
     1
102
RTVSPost2010Prop49
280
     0
102
RTVSPost2010PropOp49
 70
     1
102
RTVSPost2010Prop50
 90
       50
102
RTVSPost2010PropOp50
 70
     1
102
RTVSPost2010Prop51ColorIndex
 90
      256
102
RTVSPost2010Prop51ColorRGB
 90
-16777216
102
RTVSPost2010PropOp51
 70
     0
102
RTVSPost2010Prop52
140
1.0
102
RTVSPost2010PropOp52
 70
     0
102
RTVSPost2010Prop53
 90
        2
102
RTVSPost2010PropOp53
 70
     1
102
RTVSPost2010Prop54
  1
strokes_ogs.tif
102
RTVSPost2010PropOp54
 70
     1
102
RTVSPost2010Prop55
280
     0
102
RTVSPost2010PropOp55
 70
     1
102
RTVSPost2010Prop56
140
1.0
102
RTVSPost2010PropOp56
 70
     1
102
RTVSPost2010Prop57
140
1.0
102
RTVSPost2010PropOp57
 70
     1
  0
XRECORD
  5
1216D
102
{ACAD_REACTORS
330
1216C
102
}
330
1216C
100
AcDbXrecord
280
     1
102
RTVSPost2010Prop28
280
     0
102
RTVSPost2010PropOp28
 70
     1
102
RTVSPost2010Prop29
280
     1
102
RTVSPost2010PropOp29
 70
     1
102
RTVSPost2010Prop30
280
     1
102
RTVSPost2010PropOp30
 70
     1
102
RTVSPost2010Prop31
280
     0
102
RTVSPost2010PropOp31
 70
     1
102
RTVSPost2010Prop32
280
     0
102
RTVSPost2010PropOp32
 70
     1
102
RTVSPost2010Prop33
280
     0
102
RTVSPost2010PropOp33
 70
     1
102
RTVSPost2010Prop34
280
     0
102
RTVSPost2010PropOp34
 70
     1
102
RTVSPost2010Prop35
280
     0
102
RTVSPost2010PropOp35
 70
     1
102
RTVSPost2010Prop36
280
     0
102
RTVSPost2010PropOp36
 70
     1
102
RTVSPost2010Prop37
 90
       50
102
RTVSPost2010PropOp37
 70
     1
102
RTVSPost2010Prop38
140
0.0
102
RTVSPost2010PropOp38
 70
     1
102
RTVSPost2010Prop39
140
1.0
102
RTVSPost2010PropOp39
 70
     1
102
RTVSPost2010Prop40
 90
        0
102
RTVSPost2010PropOp40
 70
     1
102
RTVSPost2010Prop41ColorIndex
 90
       18
102
RTVSPost2010Prop41ColorRGB
 90
        0
102
RTVSPost2010PropOp41
 70
     1
102
RTVSPost2010Prop42
 90
       50
102
RTVSPost2010PropOp42
 70
     1
102
RTVSPost2010Prop43
 90
        3
102
RTVSPost2010PropOp43
 70
     1
102
RTVSPost2010Prop44ColorIndex
 90
        5
102
RTVSPost2010Prop44ColorRGB
 90
      255
102
RTVSPost2010PropOp44
 70
     1
102
RTVSPost2010Prop45
280
     0
102
RTVSPost2010PropOp45
 70
     1
102
RTVSPost2010Prop46
 90
       50
102
RTVSPost2010PropOp46
 70
     1
102
RTVSPost2010Prop47
 90
       50
102
RTVSPost2010PropOp47
 70
     1
102
RTVSPost2010Prop48
 90
       50
102
RTVSPost2010PropOp48
 70
     1
102
RTVSPost2010Prop49
280
     0
102
RTVSPost2010PropOp49
 70
     1
102
RTVSPost2010Prop50
 90
       50
102
RTVSPost2010PropOp50
 70
     1
102
RTVSPost2010Prop51ColorIndex
 90
      256
102
RTVSPost2010Prop51ColorRGB
 90
-16777216
102
RTVSPost2010PropOp51
 70
     0
102
RTVSPost2010Prop52
140
1.0
102
RTVSPost2010PropOp52
 70
     0
102
RTVSPost2010Prop53
 90
        2
102
RTVSPost2010PropOp53
 70
     1
102
RTVSPost2010Prop54
  1
strokes_ogs.tif
102
RTVSPost2010PropOp54
 70
     1
102
RTVSPost2010Prop55
280
     0
102
RTVSPost2010PropOp55
 70
     1
102
RTVSPost2010Prop56
140
1.0
102
RTVSPost2010PropOp56
 70
     1
102
RTVSPost2010Prop57
140
1.0
102
RTVSPost2010PropOp57
 70
     1
  0
XRECORD
  5
1217D
102
{ACAD_REACTORS
330
1217C
102
}
330
1217C
100
AcDbXrecord
280
     1
102
RTVSPost2010Prop28
280
     0
102
RTVSPost2010PropOp28
 70
     1
102
RTVSPost2010Prop29
280
     1
102
RTVSPost2010PropOp29
 70
     1
102
RTVSPost2010Prop30
280
     1
102
RTVSPost2010PropOp30
 70
     1
102
RTVSPost2010Prop31
280
     0
102
RTVSPost2010PropOp31
 70
     1
102
RTVSPost2010Prop32
280
     0
102
RTVSPost2010PropOp32
 70
     1
102
RTVSPost2010Prop33
280
     0
102
RTVSPost2010PropOp33
 70
     1
102
RTVSPost2010Prop34
280
     0
102
RTVSPost2010PropOp34
 70
     1
102
RTVSPost2010Prop35
280
     0
102
RTVSPost2010PropOp35
 70
     1
102
RTVSPost2010Prop36
280
     0
102
RTVSPost2010PropOp36
 70
     1
102
RTVSPost2010Prop37
 90
       50
102
RTVSPost2010PropOp37
 70
     1
102
RTVSPost2010Prop38
140
0.0
102
RTVSPost2010PropOp38
 70
     1
102
RTVSPost2010Prop39
140
1.0
102
RTVSPost2010PropOp39
 70
     1
102
RTVSPost2010Prop40
 90
        0
102
RTVSPost2010PropOp40
 70
     1
102
RTVSPost2010Prop41ColorIndex
 90
       18
102
RTVSPost2010Prop41ColorRGB
 90
        0
102
RTVSPost2010PropOp41
 70
     1
102
RTVSPost2010Prop42
 90
       50
102
RTVSPost2010PropOp42
 70
     1
102
RTVSPost2010Prop43
 90
        3
102
RTVSPost2010PropOp43
 70
     1
102
RTVSPost2010Prop44ColorIndex
 90
        5
102
RTVSPost2010Prop44ColorRGB
 90
      255
102
RTVSPost2010PropOp44
 70
     1
102
RTVSPost2010Prop45
280
     0
102
RTVSPost2010PropOp45
 70
     1
102
RTVSPost2010Prop46
 90
       50
102
RTVSPost2010PropOp46
 70
     1
102
RTVSPost2010Prop47
 90
       50
102
RTVSPost2010PropOp47
 70
     1
102
RTVSPost2010Prop48
 90
       50
102
RTVSPost2010PropOp48
 70
     1
102
RTVSPost2010Prop49
280
     0
102
RTVSPost2010PropOp49
 70
     1
102
RTVSPost2010Prop50
 90
       50
102
RTVSPost2010PropOp50
 70
     1
102
RTVSPost2010Prop51ColorIndex
 90
      256
102
RTVSPost2010Prop51ColorRGB
 90
-16777216
102
RTVSPost2010PropOp51
 70
     0
102
RTVSPost2010Prop52
140
1.0
102
RTVSPost2010PropOp52
 70
     0
102
RTVSPost2010Prop53
 90
        2
102
RTVSPost2010PropOp53
 70
     1
102
RTVSPost2010Prop54
  1
strokes_ogs.tif
102
RTVSPost2010PropOp54
 70
     1
102
RTVSPost2010Prop55
280
     0
102
RTVSPost2010PropOp55
 70
     1
102
RTVSPost2010Prop56
140
1.0
102
RTVSPost2010PropOp56
 70
     1
102
RTVSPost2010Prop57
140
1.0
102
RTVSPost2010PropOp57
 70
     1
  0
XRECORD
  5
12175
102
{ACAD_REACTORS
330
12174
102
}
330
12174
100
AcDbXrecord
280
     1
102
RTVSPost2010Prop28
280
     0
102
RTVSPost2010PropOp28
 70
     1
102
RTVSPost2010Prop29
280
     1
102
RTVSPost2010PropOp29
 70
     1
102
RTVSPost2010Prop30
280
     1
102
RTVSPost2010PropOp30
 70
     1
102
RTVSPost2010Prop31
280
     0
102
RTVSPost2010PropOp31
 70
     1
102
RTVSPost2010Prop32
280
     0
102
RTVSPost2010PropOp32
 70
     1
102
RTVSPost2010Prop33
280
     0
102
RTVSPost2010PropOp33
 70
     1
102
RTVSPost2010Prop34
280
     0
102
RTVSPost2010PropOp34
 70
     1
102
RTVSPost2010Prop35
280
     0
102
RTVSPost2010PropOp35
 70
     1
102
RTVSPost2010Prop36
280
     0
102
RTVSPost2010PropOp36
 70
     1
102
RTVSPost2010Prop37
 90
       50
102
RTVSPost2010PropOp37
 70
     1
102
RTVSPost2010Prop38
140
0.0
102
RTVSPost2010PropOp38
 70
     1
102
RTVSPost2010Prop39
140
1.0
102
RTVSPost2010PropOp39
 70
     1
102
RTVSPost2010Prop40
 90
        0
102
RTVSPost2010PropOp40
 70
     1
102
RTVSPost2010Prop41ColorIndex
 90
       18
102
RTVSPost2010Prop41ColorRGB
 90
        0
102
RTVSPost2010PropOp41
 70
     1
102
RTVSPost2010Prop42
 90
       50
102
RTVSPost2010PropOp42
 70
     1
102
RTVSPost2010Prop43
 90
        3
102
RTVSPost2010PropOp43
 70
     1
102
RTVSPost2010Prop44ColorIndex
 90
        5
102
RTVSPost2010Prop44ColorRGB
 90
      255
102
RTVSPost2010PropOp44
 70
     1
102
RTVSPost2010Prop45
280
     0
102
RTVSPost2010PropOp45
 70
     1
102
RTVSPost2010Prop46
 90
       50
102
RTVSPost2010PropOp46
 70
     1
102
RTVSPost2010Prop47
 90
       50
102
RTVSPost2010PropOp47
 70
     1
102
RTVSPost2010Prop48
 90
       50
102
RTVSPost2010PropOp48
 70
     1
102
RTVSPost2010Prop49
280
     0
102
RTVSPost2010PropOp49
 70
     1
102
RTVSPost2010Prop50
 90
       50
102
RTVSPost2010PropOp50
 70
     1
102
RTVSPost2010Prop51ColorIndex
 90
      256
102
RTVSPost2010Prop51ColorRGB
 90
-16777216
102
RTVSPost2010PropOp51
 70
     0
102
RTVSPost2010Prop52
140
1.0
102
RTVSPost2010PropOp52
 70
     0
102
RTVSPost2010Prop53
 90
        2
102
RTVSPost2010PropOp53
 70
     1
102
RTVSPost2010Prop54
  1
strokes_ogs.tif
102
RTVSPost2010PropOp54
 70
     1
102
RTVSPost2010Prop55
280
     0
102
RTVSPost2010PropOp55
 70
     1
102
RTVSPost2010Prop56
140
1.0
102
RTVSPost2010PropOp56
 70
     1
102
RTVSPost2010Prop57
140
1.0
102
RTVSPost2010PropOp57
 70
     1
  0
XRECORD
  5
12159
102
{ACAD_REACTORS
330
12158
102
}
330
12158
100
AcDbXrecord
280
     1
102
RTVSPost2010Prop28
280
     0
102
RTVSPost2010PropOp28
 70
     1
102
RTVSPost2010Prop29
280
     1
102
RTVSPost2010PropOp29
 70
     1
102
RTVSPost2010Prop30
280
     1
102
RTVSPost2010PropOp30
 70
     1
102
RTVSPost2010Prop31
280
     0
102
RTVSPost2010PropOp31
 70
     1
102
RTVSPost2010Prop32
280
     0
102
RTVSPost2010PropOp32
 70
     1
102
RTVSPost2010Prop33
280
     0
102
RTVSPost2010PropOp33
 70
     1
102
RTVSPost2010Prop34
280
     0
102
RTVSPost2010PropOp34
 70
     1
102
RTVSPost2010Prop35
280
     0
102
RTVSPost2010PropOp35
 70
     1
102
RTVSPost2010Prop36
280
     0
102
RTVSPost2010PropOp36
 70
     1
102
RTVSPost2010Prop37
 90
       50
102
RTVSPost2010PropOp37
 70
     1
102
RTVSPost2010Prop38
140
0.0
102
RTVSPost2010PropOp38
 70
     1
102
RTVSPost2010Prop39
140
1.0
102
RTVSPost2010PropOp39
 70
     1
102
RTVSPost2010Prop40
 90
        0
102
RTVSPost2010PropOp40
 70
     1
102
RTVSPost2010Prop41ColorIndex
 90
       18
102
RTVSPost2010Prop41ColorRGB
 90
        0
102
RTVSPost2010PropOp41
 70
     1
102
RTVSPost2010Prop42
 90
       50
102
RTVSPost2010PropOp42
 70
     1
102
RTVSPost2010Prop43
 90
        3
102
RTVSPost2010PropOp43
 70
     1
102
RTVSPost2010Prop44ColorIndex
 90
        5
102
RTVSPost2010Prop44ColorRGB
 90
      255
102
RTVSPost2010PropOp44
 70
     1
102
RTVSPost2010Prop45
280
     0
102
RTVSPost2010PropOp45
 70
     1
102
RTVSPost2010Prop46
 90
       50
102
RTVSPost2010PropOp46
 70
     1
102
RTVSPost2010Prop47
 90
       50
102
RTVSPost2010PropOp47
 70
     1
102
RTVSPost2010Prop48
 90
       50
102
RTVSPost2010PropOp48
 70
     1
102
RTVSPost2010Prop49
280
     0
102
RTVSPost2010PropOp49
 70
     1
102
RTVSPost2010Prop50
 90
       50
102
RTVSPost2010PropOp50
 70
     1
102
RTVSPost2010Prop51ColorIndex
 90
      256
102
RTVSPost2010Prop51ColorRGB
 90
-16777216
102
RTVSPost2010PropOp51
 70
     0
102
RTVSPost2010Prop52
140
1.0
102
RTVSPost2010PropOp52
 70
     0
102
RTVSPost2010Prop53
 90
        2
102
RTVSPost2010PropOp53
 70
     1
102
RTVSPost2010Prop54
  1
strokes_ogs.tif
102
RTVSPost2010PropOp54
 70
     1
102
RTVSPost2010Prop55
280
     0
102
RTVSPost2010PropOp55
 70
     1
102
RTVSPost2010Prop56
140
1.0
102
RTVSPost2010PropOp56
 70
     1
102
RTVSPost2010Prop57
140
1.0
102
RTVSPost2010PropOp57
 70
     1
  0
XRECORD
  5
1215B
102
{ACAD_REACTORS
330
1215A
102
}
330
1215A
100
AcDbXrecord
280
     1
102
RTVSPost2010Prop28
280
     0
102
RTVSPost2010PropOp28
 70
     1
102
RTVSPost2010Prop29
280
     1
102
RTVSPost2010PropOp29
 70
     1
102
RTVSPost2010Prop30
280
     1
102
RTVSPost2010PropOp30
 70
     1
102
RTVSPost2010Prop31
280
     0
102
RTVSPost2010PropOp31
 70
     1
102
RTVSPost2010Prop32
280
     0
102
RTVSPost2010PropOp32
 70
     1
102
RTVSPost2010Prop33
280
     0
102
RTVSPost2010PropOp33
 70
     1
102
RTVSPost2010Prop34
280
     0
102
RTVSPost2010PropOp34
 70
     1
102
RTVSPost2010Prop35
280
     0
102
RTVSPost2010PropOp35
 70
     1
102
RTVSPost2010Prop36
280
     0
102
RTVSPost2010PropOp36
 70
     1
102
RTVSPost2010Prop37
 90
       50
102
RTVSPost2010PropOp37
 70
     1
102
RTVSPost2010Prop38
140
0.0
102
RTVSPost2010PropOp38
 70
     1
102
RTVSPost2010Prop39
140
1.0
102
RTVSPost2010PropOp39
 70
     1
102
RTVSPost2010Prop40
 90
        0
102
RTVSPost2010PropOp40
 70
     1
102
RTVSPost2010Prop41ColorIndex
 90
       18
102
RTVSPost2010Prop41ColorRGB
 90
        0
102
RTVSPost2010PropOp41
 70
     1
102
RTVSPost2010Prop42
 90
       50
102
RTVSPost2010PropOp42
 70
     1
102
RTVSPost2010Prop43
 90
        3
102
RTVSPost2010PropOp43
 70
     1
102
RTVSPost2010Prop44ColorIndex
 90
        5
102
RTVSPost2010Prop44ColorRGB
 90
      255
102
RTVSPost2010PropOp44
 70
     1
102
RTVSPost2010Prop45
280
     0
102
RTVSPost2010PropOp45
 70
     1
102
RTVSPost2010Prop46
 90
       50
102
RTVSPost2010PropOp46
 70
     1
102
RTVSPost2010Prop47
 90
       50
102
RTVSPost2010PropOp47
 70
     1
102
RTVSPost2010Prop48
 90
       50
102
RTVSPost2010PropOp48
 70
     1
102
RTVSPost2010Prop49
280
     0
102
RTVSPost2010PropOp49
 70
     1
102
RTVSPost2010Prop50
 90
       50
102
RTVSPost2010PropOp50
 70
     1
102
RTVSPost2010Prop51ColorIndex
 90
      256
102
RTVSPost2010Prop51ColorRGB
 90
-16777216
102
RTVSPost2010PropOp51
 70
     0
102
RTVSPost2010Prop52
140
1.0
102
RTVSPost2010PropOp52
 70
     0
102
RTVSPost2010Prop53
 90
        2
102
RTVSPost2010PropOp53
 70
     1
102
RTVSPost2010Prop54
  1
strokes_ogs.tif
102
RTVSPost2010PropOp54
 70
     1
102
RTVSPost2010Prop55
280
     0
102
RTVSPost2010PropOp55
 70
     1
102
RTVSPost2010Prop56
140
1.0
102
RTVSPost2010PropOp56
 70
     1
102
RTVSPost2010Prop57
140
1.0
102
RTVSPost2010PropOp57
 70
     1
  0
XRECORD
  5
1215D
102
{ACAD_REACTORS
330
1215C
102
}
330
1215C
100
AcDbXrecord
280
     1
102
RTVSPost2010Prop28
280
     0
102
RTVSPost2010PropOp28
 70
     1
102
RTVSPost2010Prop29
280
     1
102
RTVSPost2010PropOp29
 70
     1
102
RTVSPost2010Prop30
280
     1
102
RTVSPost2010PropOp30
 70
     1
102
RTVSPost2010Prop31
280
     0
102
RTVSPost2010PropOp31
 70
     1
102
RTVSPost2010Prop32
280
     0
102
RTVSPost2010PropOp32
 70
     1
102
RTVSPost2010Prop33
280
     0
102
RTVSPost2010PropOp33
 70
     1
102
RTVSPost2010Prop34
280
     0
102
RTVSPost2010PropOp34
 70
     1
102
RTVSPost2010Prop35
280
     0
102
RTVSPost2010PropOp35
 70
     1
102
RTVSPost2010Prop36
280
     0
102
RTVSPost2010PropOp36
 70
     1
102
RTVSPost2010Prop37
 90
       50
102
RTVSPost2010PropOp37
 70
     1
102
RTVSPost2010Prop38
140
0.0
102
RTVSPost2010PropOp38
 70
     1
102
RTVSPost2010Prop39
140
1.0
102
RTVSPost2010PropOp39
 70
     1
102
RTVSPost2010Prop40
 90
        0
102
RTVSPost2010PropOp40
 70
     1
102
RTVSPost2010Prop41ColorIndex
 90
       18
102
RTVSPost2010Prop41ColorRGB
 90
        0
102
RTVSPost2010PropOp41
 70
     1
102
RTVSPost2010Prop42
 90
       50
102
RTVSPost2010PropOp42
 70
     1
102
RTVSPost2010Prop43
 90
        3
102
RTVSPost2010PropOp43
 70
     1
102
RTVSPost2010Prop44ColorIndex
 90
        5
102
RTVSPost2010Prop44ColorRGB
 90
      255
102
RTVSPost2010PropOp44
 70
     1
102
RTVSPost2010Prop45
280
     0
102
RTVSPost2010PropOp45
 70
     1
102
RTVSPost2010Prop46
 90
       50
102
RTVSPost2010PropOp46
 70
     1
102
RTVSPost2010Prop47
 90
       50
102
RTVSPost2010PropOp47
 70
     1
102
RTVSPost2010Prop48
 90
       50
102
RTVSPost2010PropOp48
 70
     1
102
RTVSPost2010Prop49
280
     0
102
RTVSPost2010PropOp49
 70
     1
102
RTVSPost2010Prop50
 90
       50
102
RTVSPost2010PropOp50
 70
     1
102
RTVSPost2010Prop51ColorIndex
 90
      256
102
RTVSPost2010Prop51ColorRGB
 90
-16777216
102
RTVSPost2010PropOp51
 70
     0
102
RTVSPost2010Prop52
140
1.0
102
RTVSPost2010PropOp52
 70
     0
102
RTVSPost2010Prop53
 90
        2
102
RTVSPost2010PropOp53
 70
     1
102
RTVSPost2010Prop54
  1
strokes_ogs.tif
102
RTVSPost2010PropOp54
 70
     1
102
RTVSPost2010Prop55
280
     0
102
RTVSPost2010PropOp55
 70
     1
102
RTVSPost2010Prop56
140
1.0
102
RTVSPost2010PropOp56
 70
     1
102
RTVSPost2010Prop57
140
1.0
102
RTVSPost2010PropOp57
 70
     1
  0
XRECORD
  5
1215F
102
{ACAD_REACTORS
330
1215E
102
}
330
1215E
100
AcDbXrecord
280
     1
102
RTVSPost2010Prop28
280
     0
102
RTVSPost2010PropOp28
 70
     1
102
RTVSPost2010Prop29
280
     1
102
RTVSPost2010PropOp29
 70
     1
102
RTVSPost2010Prop30
280
     1
102
RTVSPost2010PropOp30
 70
     1
102
RTVSPost2010Prop31
280
     0
102
RTVSPost2010PropOp31
 70
     1
102
RTVSPost2010Prop32
280
     0
102
RTVSPost2010PropOp32
 70
     1
102
RTVSPost2010Prop33
280
     0
102
RTVSPost2010PropOp33
 70
     1
102
RTVSPost2010Prop34
280
     0
102
RTVSPost2010PropOp34
 70
     1
102
RTVSPost2010Prop35
280
     0
102
RTVSPost2010PropOp35
 70
     1
102
RTVSPost2010Prop36
280
     0
102
RTVSPost2010PropOp36
 70
     1
102
RTVSPost2010Prop37
 90
       50
102
RTVSPost2010PropOp37
 70
     1
102
RTVSPost2010Prop38
140
0.0
102
RTVSPost2010PropOp38
 70
     1
102
RTVSPost2010Prop39
140
1.0
102
RTVSPost2010PropOp39
 70
     1
102
RTVSPost2010Prop40
 90
        0
102
RTVSPost2010PropOp40
 70
     1
102
RTVSPost2010Prop41ColorIndex
 90
       18
102
RTVSPost2010Prop41ColorRGB
 90
        0
102
RTVSPost2010PropOp41
 70
     1
102
RTVSPost2010Prop42
 90
       50
102
RTVSPost2010PropOp42
 70
     1
102
RTVSPost2010Prop43
 90
        3
102
RTVSPost2010PropOp43
 70
     1
102
RTVSPost2010Prop44ColorIndex
 90
        5
102
RTVSPost2010Prop44ColorRGB
 90
      255
102
RTVSPost2010PropOp44
 70
     1
102
RTVSPost2010Prop45
280
     0
102
RTVSPost2010PropOp45
 70
     1
102
RTVSPost2010Prop46
 90
       50
102
RTVSPost2010PropOp46
 70
     1
102
RTVSPost2010Prop47
 90
       50
102
RTVSPost2010PropOp47
 70
     1
102
RTVSPost2010Prop48
 90
       50
102
RTVSPost2010PropOp48
 70
     1
102
RTVSPost2010Prop49
280
     0
102
RTVSPost2010PropOp49
 70
     1
102
RTVSPost2010Prop50
 90
       50
102
RTVSPost2010PropOp50
 70
     1
102
RTVSPost2010Prop51ColorIndex
 90
      256
102
RTVSPost2010Prop51ColorRGB
 90
-16777216
102
RTVSPost2010PropOp51
 70
     0
102
RTVSPost2010Prop52
140
1.0
102
RTVSPost2010PropOp52
 70
     0
102
RTVSPost2010Prop53
 90
        2
102
RTVSPost2010PropOp53
 70
     1
102
RTVSPost2010Prop54
  1
strokes_ogs.tif
102
RTVSPost2010PropOp54
 70
     1
102
RTVSPost2010Prop55
280
     0
102
RTVSPost2010PropOp55
 70
     1
102
RTVSPost2010Prop56
140
1.0
102
RTVSPost2010PropOp56
 70
     1
102
RTVSPost2010Prop57
140
1.0
102
RTVSPost2010PropOp57
 70
     1
  0
XRECORD
  5
12181
102
{ACAD_REACTORS
330
12180
102
}
330
12180
100
AcDbXrecord
280
     1
102
RTVSPost2010Prop28
280
     0
102
RTVSPost2010PropOp28
 70
     1
102
RTVSPost2010Prop29
280
     1
102
RTVSPost2010PropOp29
 70
     1
102
RTVSPost2010Prop30
280
     1
102
RTVSPost2010PropOp30
 70
     1
102
RTVSPost2010Prop31
280
     0
102
RTVSPost2010PropOp31
 70
     1
102
RTVSPost2010Prop32
280
     0
102
RTVSPost2010PropOp32
 70
     1
102
RTVSPost2010Prop33
280
     0
102
RTVSPost2010PropOp33
 70
     1
102
RTVSPost2010Prop34
280
     0
102
RTVSPost2010PropOp34
 70
     1
102
RTVSPost2010Prop35
280
     0
102
RTVSPost2010PropOp35
 70
     1
102
RTVSPost2010Prop36
280
     0
102
RTVSPost2010PropOp36
 70
     1
102
RTVSPost2010Prop37
 90
       50
102
RTVSPost2010PropOp37
 70
     1
102
RTVSPost2010Prop38
140
0.0
102
RTVSPost2010PropOp38
 70
     1
102
RTVSPost2010Prop39
140
1.0
102
RTVSPost2010PropOp39
 70
     1
102
RTVSPost2010Prop40
 90
        0
102
RTVSPost2010PropOp40
 70
     1
102
RTVSPost2010Prop41ColorIndex
 90
       18
102
RTVSPost2010Prop41ColorRGB
 90
        0
102
RTVSPost2010PropOp41
 70
     1
102
RTVSPost2010Prop42
 90
       50
102
RTVSPost2010PropOp42
 70
     1
102
RTVSPost2010Prop43
 90
        3
102
RTVSPost2010PropOp43
 70
     1
102
RTVSPost2010Prop44ColorIndex
 90
        5
102
RTVSPost2010Prop44ColorRGB
 90
      255
102
RTVSPost2010PropOp44
 70
     1
102
RTVSPost2010Prop45
280
     0
102
RTVSPost2010PropOp45
 70
     1
102
RTVSPost2010Prop46
 90
       50
102
RTVSPost2010PropOp46
 70
     1
102
RTVSPost2010Prop47
 90
       50
102
RTVSPost2010PropOp47
 70
     1
102
RTVSPost2010Prop48
 90
       50
102
RTVSPost2010PropOp48
 70
     1
102
RTVSPost2010Prop49
280
     0
102
RTVSPost2010PropOp49
 70
     1
102
RTVSPost2010Prop50
 90
       50
102
RTVSPost2010PropOp50
 70
     1
102
RTVSPost2010Prop51ColorIndex
 90
      256
102
RTVSPost2010Prop51ColorRGB
 90
-16777216
102
RTVSPost2010PropOp51
 70
     0
102
RTVSPost2010Prop52
140
1.0
102
RTVSPost2010PropOp52
 70
     0
102
RTVSPost2010Prop53
 90
        2
102
RTVSPost2010PropOp53
 70
     1
102
RTVSPost2010Prop54
  1
strokes_ogs.tif
102
RTVSPost2010PropOp54
 70
     1
102
RTVSPost2010Prop55
280
     0
102
RTVSPost2010PropOp55
 70
     1
102
RTVSPost2010Prop56
140
1.0
102
RTVSPost2010PropOp56
 70
     1
102
RTVSPost2010Prop57
140
1.0
102
RTVSPost2010PropOp57
 70
     1
  0
XRECORD
  5
12179
102
{ACAD_REACTORS
330
12178
102
}
330
12178
100
AcDbXrecord
280
     1
102
RTVSPost2010Prop28
280
     0
102
RTVSPost2010PropOp28
 70
     1
102
RTVSPost2010Prop29
280
     1
102
RTVSPost2010PropOp29
 70
     1
102
RTVSPost2010Prop30
280
     1
102
RTVSPost2010PropOp30
 70
     1
102
RTVSPost2010Prop31
280
     0
102
RTVSPost2010PropOp31
 70
     1
102
RTVSPost2010Prop32
280
     0
102
RTVSPost2010PropOp32
 70
     1
102
RTVSPost2010Prop33
280
     0
102
RTVSPost2010PropOp33
 70
     1
102
RTVSPost2010Prop34
280
     0
102
RTVSPost2010PropOp34
 70
     1
102
RTVSPost2010Prop35
280
     0
102
RTVSPost2010PropOp35
 70
     1
102
RTVSPost2010Prop36
280
     0
102
RTVSPost2010PropOp36
 70
     1
102
RTVSPost2010Prop37
 90
       50
102
RTVSPost2010PropOp37
 70
     1
102
RTVSPost2010Prop38
140
0.0
102
RTVSPost2010PropOp38
 70
     1
102
RTVSPost2010Prop39
140
1.0
102
RTVSPost2010PropOp39
 70
     1
102
RTVSPost2010Prop40
 90
        0
102
RTVSPost2010PropOp40
 70
     1
102
RTVSPost2010Prop41ColorIndex
 90
       18
102
RTVSPost2010Prop41ColorRGB
 90
        0
102
RTVSPost2010PropOp41
 70
     1
102
RTVSPost2010Prop42
 90
       50
102
RTVSPost2010PropOp42
 70
     1
102
RTVSPost2010Prop43
 90
        3
102
RTVSPost2010PropOp43
 70
     1
102
RTVSPost2010Prop44ColorIndex
 90
        5
102
RTVSPost2010Prop44ColorRGB
 90
      255
102
RTVSPost2010PropOp44
 70
     1
102
RTVSPost2010Prop45
280
     0
102
RTVSPost2010PropOp45
 70
     1
102
RTVSPost2010Prop46
 90
       50
102
RTVSPost2010PropOp46
 70
     1
102
RTVSPost2010Prop47
 90
       50
102
RTVSPost2010PropOp47
 70
     1
102
RTVSPost2010Prop48
 90
       50
102
RTVSPost2010PropOp48
 70
     1
102
RTVSPost2010Prop49
280
     0
102
RTVSPost2010PropOp49
 70
     1
102
RTVSPost2010Prop50
 90
       50
102
RTVSPost2010PropOp50
 70
     1
102
RTVSPost2010Prop51ColorIndex
 90
      256
102
RTVSPost2010Prop51ColorRGB
 90
-16777216
102
RTVSPost2010PropOp51
 70
     0
102
RTVSPost2010Prop52
140
1.0
102
RTVSPost2010PropOp52
 70
     0
102
RTVSPost2010Prop53
 90
        2
102
RTVSPost2010PropOp53
 70
     1
102
RTVSPost2010Prop54
  1
strokes_ogs.tif
102
RTVSPost2010PropOp54
 70
     1
102
RTVSPost2010Prop55
280
     0
102
RTVSPost2010PropOp55
 70
     1
102
RTVSPost2010Prop56
140
1.0
102
RTVSPost2010PropOp56
 70
     1
102
RTVSPost2010Prop57
140
1.0
102
RTVSPost2010PropOp57
 70
     1
  0
XRECORD
  5
12173
102
{ACAD_REACTORS
330
12172
102
}
330
12172
100
AcDbXrecord
280
     1
102
RTVSPost2010Prop28
280
     0
102
RTVSPost2010PropOp28
 70
     1
102
RTVSPost2010Prop29
280
     1
102
RTVSPost2010PropOp29
 70
     1
102
RTVSPost2010Prop30
280
     1
102
RTVSPost2010PropOp30
 70
     1
102
RTVSPost2010Prop31
280
     0
102
RTVSPost2010PropOp31
 70
     1
102
RTVSPost2010Prop32
280
     0
102
RTVSPost2010PropOp32
 70
     1
102
RTVSPost2010Prop33
280
     0
102
RTVSPost2010PropOp33
 70
     1
102
RTVSPost2010Prop34
280
     0
102
RTVSPost2010PropOp34
 70
     1
102
RTVSPost2010Prop35
280
     0
102
RTVSPost2010PropOp35
 70
     1
102
RTVSPost2010Prop36
280
     0
102
RTVSPost2010PropOp36
 70
     1
102
RTVSPost2010Prop37
 90
       50
102
RTVSPost2010PropOp37
 70
     1
102
RTVSPost2010Prop38
140
0.0
102
RTVSPost2010PropOp38
 70
     1
102
RTVSPost2010Prop39
140
1.0
102
RTVSPost2010PropOp39
 70
     1
102
RTVSPost2010Prop40
 90
        0
102
RTVSPost2010PropOp40
 70
     1
102
RTVSPost2010Prop41ColorIndex
 90
       18
102
RTVSPost2010Prop41ColorRGB
 90
        0
102
RTVSPost2010PropOp41
 70
     1
102
RTVSPost2010Prop42
 90
       50
102
RTVSPost2010PropOp42
 70
     1
102
RTVSPost2010Prop43
 90
        3
102
RTVSPost2010PropOp43
 70
     1
102
RTVSPost2010Prop44ColorIndex
 90
        5
102
RTVSPost2010Prop44ColorRGB
 90
      255
102
RTVSPost2010PropOp44
 70
     1
102
RTVSPost2010Prop45
280
     0
102
RTVSPost2010PropOp45
 70
     1
102
RTVSPost2010Prop46
 90
       50
102
RTVSPost2010PropOp46
 70
     1
102
RTVSPost2010Prop47
 90
       50
102
RTVSPost2010PropOp47
 70
     1
102
RTVSPost2010Prop48
 90
       50
102
RTVSPost2010PropOp48
 70
     1
102
RTVSPost2010Prop49
280
     0
102
RTVSPost2010PropOp49
 70
     1
102
RTVSPost2010Prop50
 90
       50
102
RTVSPost2010PropOp50
 70
     1
102
RTVSPost2010Prop51ColorIndex
 90
      256
102
RTVSPost2010Prop51ColorRGB
 90
-16777216
102
RTVSPost2010PropOp51
 70
     0
102
RTVSPost2010Prop52
140
1.0
102
RTVSPost2010PropOp52
 70
     0
102
RTVSPost2010Prop53
 90
        2
102
RTVSPost2010PropOp53
 70
     1
102
RTVSPost2010Prop54
  1
strokes_ogs.tif
102
RTVSPost2010PropOp54
 70
     1
102
RTVSPost2010Prop55
280
     0
102
RTVSPost2010PropOp55
 70
     1
102
RTVSPost2010Prop56
140
1.0
102
RTVSPost2010PropOp56
 70
     1
102
RTVSPost2010Prop57
140
1.0
102
RTVSPost2010PropOp57
 70
     1
  0
XRECORD
  5
1217B
102
{ACAD_REACTORS
330
1217A
102
}
330
1217A
100
AcDbXrecord
280
     1
102
RTVSPost2010Prop28
280
     0
102
RTVSPost2010PropOp28
 70
     1
102
RTVSPost2010Prop29
280
     1
102
RTVSPost2010PropOp29
 70
     1
102
RTVSPost2010Prop30
280
     1
102
RTVSPost2010PropOp30
 70
     1
102
RTVSPost2010Prop31
280
     0
102
RTVSPost2010PropOp31
 70
     1
102
RTVSPost2010Prop32
280
     0
102
RTVSPost2010PropOp32
 70
     1
102
RTVSPost2010Prop33
280
     0
102
RTVSPost2010PropOp33
 70
     1
102
RTVSPost2010Prop34
280
     0
102
RTVSPost2010PropOp34
 70
     1
102
RTVSPost2010Prop35
280
     0
102
RTVSPost2010PropOp35
 70
     1
102
RTVSPost2010Prop36
280
     0
102
RTVSPost2010PropOp36
 70
     1
102
RTVSPost2010Prop37
 90
       50
102
RTVSPost2010PropOp37
 70
     1
102
RTVSPost2010Prop38
140
0.0
102
RTVSPost2010PropOp38
 70
     1
102
RTVSPost2010Prop39
140
1.0
102
RTVSPost2010PropOp39
 70
     1
102
RTVSPost2010Prop40
 90
        0
102
RTVSPost2010PropOp40
 70
     1
102
RTVSPost2010Prop41ColorIndex
 90
       18
102
RTVSPost2010Prop41ColorRGB
 90
        0
102
RTVSPost2010PropOp41
 70
     1
102
RTVSPost2010Prop42
 90
       50
102
RTVSPost2010PropOp42
 70
     1
102
RTVSPost2010Prop43
 90
        3
102
RTVSPost2010PropOp43
 70
     1
102
RTVSPost2010Prop44ColorIndex
 90
        5
102
RTVSPost2010Prop44ColorRGB
 90
      255
102
RTVSPost2010PropOp44
 70
     1
102
RTVSPost2010Prop45
280
     0
102
RTVSPost2010PropOp45
 70
     1
102
RTVSPost2010Prop46
 90
       50
102
RTVSPost2010PropOp46
 70
     1
102
RTVSPost2010Prop47
 90
       50
102
RTVSPost2010PropOp47
 70
     1
102
RTVSPost2010Prop48
 90
       50
102
RTVSPost2010PropOp48
 70
     1
102
RTVSPost2010Prop49
280
     0
102
RTVSPost2010PropOp49
 70
     1
102
RTVSPost2010Prop50
 90
       50
102
RTVSPost2010PropOp50
 70
     1
102
RTVSPost2010Prop51ColorIndex
 90
      256
102
RTVSPost2010Prop51ColorRGB
 90
-16777216
102
RTVSPost2010PropOp51
 70
     0
102
RTVSPost2010Prop52
140
1.0
102
RTVSPost2010PropOp52
 70
     0
102
RTVSPost2010Prop53
 90
        2
102
RTVSPost2010PropOp53
 70
     1
102
RTVSPost2010Prop54
  1
strokes_ogs.tif
102
RTVSPost2010PropOp54
 70
     1
102
RTVSPost2010Prop55
280
     0
102
RTVSPost2010PropOp55
 70
     1
102
RTVSPost2010Prop56
140
1.0
102
RTVSPost2010PropOp56
 70
     1
102
RTVSPost2010Prop57
140
1.0
102
RTVSPost2010PropOp57
 70
     1
  0
XRECORD
  5
1216B
102
{ACAD_REACTORS
330
1216A
102
}
330
1216A
100
AcDbXrecord
280
     1
102
RTVSPost2010Prop28
280
     0
102
RTVSPost2010PropOp28
 70
     1
102
RTVSPost2010Prop29
280
     1
102
RTVSPost2010PropOp29
 70
     1
102
RTVSPost2010Prop30
280
     1
102
RTVSPost2010PropOp30
 70
     1
102
RTVSPost2010Prop31
280
     0
102
RTVSPost2010PropOp31
 70
     1
102
RTVSPost2010Prop32
280
     0
102
RTVSPost2010PropOp32
 70
     1
102
RTVSPost2010Prop33
280
     0
102
RTVSPost2010PropOp33
 70
     1
102
RTVSPost2010Prop34
280
     0
102
RTVSPost2010PropOp34
 70
     1
102
RTVSPost2010Prop35
280
     0
102
RTVSPost2010PropOp35
 70
     1
102
RTVSPost2010Prop36
280
     0
102
RTVSPost2010PropOp36
 70
     1
102
RTVSPost2010Prop37
 90
       50
102
RTVSPost2010PropOp37
 70
     1
102
RTVSPost2010Prop38
140
0.0
102
RTVSPost2010PropOp38
 70
     1
102
RTVSPost2010Prop39
140
1.0
102
RTVSPost2010PropOp39
 70
     1
102
RTVSPost2010Prop40
 90
        0
102
RTVSPost2010PropOp40
 70
     1
102
RTVSPost2010Prop41ColorIndex
 90
       18
102
RTVSPost2010Prop41ColorRGB
 90
        0
102
RTVSPost2010PropOp41
 70
     1
102
RTVSPost2010Prop42
 90
       50
102
RTVSPost2010PropOp42
 70
     1
102
RTVSPost2010Prop43
 90
        3
102
RTVSPost2010PropOp43
 70
     1
102
RTVSPost2010Prop44ColorIndex
 90
        5
102
RTVSPost2010Prop44ColorRGB
 90
      255
102
RTVSPost2010PropOp44
 70
     1
102
RTVSPost2010Prop45
280
     0
102
RTVSPost2010PropOp45
 70
     1
102
RTVSPost2010Prop46
 90
       50
102
RTVSPost2010PropOp46
 70
     1
102
RTVSPost2010Prop47
 90
       50
102
RTVSPost2010PropOp47
 70
     1
102
RTVSPost2010Prop48
 90
       50
102
RTVSPost2010PropOp48
 70
     1
102
RTVSPost2010Prop49
280
     0
102
RTVSPost2010PropOp49
 70
     1
102
RTVSPost2010Prop50
 90
       50
102
RTVSPost2010PropOp50
 70
     1
102
RTVSPost2010Prop51ColorIndex
 90
      256
102
RTVSPost2010Prop51ColorRGB
 90
-16777216
102
RTVSPost2010PropOp51
 70
     0
102
RTVSPost2010Prop52
140
1.0
102
RTVSPost2010PropOp52
 70
     0
102
RTVSPost2010Prop53
 90
        2
102
RTVSPost2010PropOp53
 70
     1
102
RTVSPost2010Prop54
  1
strokes_ogs.tif
102
RTVSPost2010PropOp54
 70
     1
102
RTVSPost2010Prop55
280
     0
102
RTVSPost2010PropOp55
 70
     1
102
RTVSPost2010Prop56
140
1.0
102
RTVSPost2010PropOp56
 70
     1
102
RTVSPost2010Prop57
140
1.0
102
RTVSPost2010PropOp57
 70
     1
  0
XRECORD
  5
1218B
102
{ACAD_REACTORS
330
1218A
102
}
330
1218A
100
AcDbXrecord
280
     1
102
RTVSPost2010Prop28
280
     0
102
RTVSPost2010PropOp28
 70
     1
102
RTVSPost2010Prop29
280
     1
102
RTVSPost2010PropOp29
 70
     1
102
RTVSPost2010Prop30
280
     1
102
RTVSPost2010PropOp30
 70
     1
102
RTVSPost2010Prop31
280
     0
102
RTVSPost2010PropOp31
 70
     1
102
RTVSPost2010Prop32
280
     0
102
RTVSPost2010PropOp32
 70
     1
102
RTVSPost2010Prop33
280
     0
102
RTVSPost2010PropOp33
 70
     1
102
RTVSPost2010Prop34
280
     0
102
RTVSPost2010PropOp34
 70
     1
102
RTVSPost2010Prop35
280
     0
102
RTVSPost2010PropOp35
 70
     1
102
RTVSPost2010Prop36
280
     0
102
RTVSPost2010PropOp36
 70
     1
102
RTVSPost2010Prop37
 90
       50
102
RTVSPost2010PropOp37
 70
     1
102
RTVSPost2010Prop38
140
0.0
102
RTVSPost2010PropOp38
 70
     1
102
RTVSPost2010Prop39
140
1.0
102
RTVSPost2010PropOp39
 70
     1
102
RTVSPost2010Prop40
 90
        0
102
RTVSPost2010PropOp40
 70
     1
102
RTVSPost2010Prop41ColorIndex
 90
       18
102
RTVSPost2010Prop41ColorRGB
 90
        0
102
RTVSPost2010PropOp41
 70
     1
102
RTVSPost2010Prop42
 90
       50
102
RTVSPost2010PropOp42
 70
     1
102
RTVSPost2010Prop43
 90
        3
102
RTVSPost2010PropOp43
 70
     1
102
RTVSPost2010Prop44ColorIndex
 90
        5
102
RTVSPost2010Prop44ColorRGB
 90
      255
102
RTVSPost2010PropOp44
 70
     1
102
RTVSPost2010Prop45
280
     0
102
RTVSPost2010PropOp45
 70
     1
102
RTVSPost2010Prop46
 90
       50
102
RTVSPost2010PropOp46
 70
     1
102
RTVSPost2010Prop47
 90
       50
102
RTVSPost2010PropOp47
 70
     1
102
RTVSPost2010Prop48
 90
       50
102
RTVSPost2010PropOp48
 70
     1
102
RTVSPost2010Prop49
280
     0
102
RTVSPost2010PropOp49
 70
     1
102
RTVSPost2010Prop50
 90
       50
102
RTVSPost2010PropOp50
 70
     1
102
RTVSPost2010Prop51ColorIndex
 90
      256
102
RTVSPost2010Prop51ColorRGB
 90
-16777216
102
RTVSPost2010PropOp51
 70
     0
102
RTVSPost2010Prop52
140
1.0
102
RTVSPost2010PropOp52
 70
     0
102
RTVSPost2010Prop53
 90
        2
102
RTVSPost2010PropOp53
 70
     1
102
RTVSPost2010Prop54
  1
strokes_ogs.tif
102
RTVSPost2010PropOp54
 70
     1
102
RTVSPost2010Prop55
280
     0
102
RTVSPost2010PropOp55
 70
     1
102
RTVSPost2010Prop56
140
1.0
102
RTVSPost2010PropOp56
 70
     1
102
RTVSPost2010Prop57
140
1.0
102
RTVSPost2010PropOp57
 70
     1
  0
XRECORD
  5
12189
102
{ACAD_REACTORS
330
12188
102
}
330
12188
100
AcDbXrecord
280
     1
102
RTVSPost2010Prop28
280
     0
102
RTVSPost2010PropOp28
 70
     1
102
RTVSPost2010Prop29
280
     1
102
RTVSPost2010PropOp29
 70
     1
102
RTVSPost2010Prop30
280
     1
102
RTVSPost2010PropOp30
 70
     1
102
RTVSPost2010Prop31
280
     0
102
RTVSPost2010PropOp31
 70
     1
102
RTVSPost2010Prop32
280
     0
102
RTVSPost2010PropOp32
 70
     1
102
RTVSPost2010Prop33
280
     0
102
RTVSPost2010PropOp33
 70
     1
102
RTVSPost2010Prop34
280
     0
102
RTVSPost2010PropOp34
 70
     1
102
RTVSPost2010Prop35
280
     0
102
RTVSPost2010PropOp35
 70
     1
102
RTVSPost2010Prop36
280
     0
102
RTVSPost2010PropOp36
 70
     1
102
RTVSPost2010Prop37
 90
       50
102
RTVSPost2010PropOp37
 70
     1
102
RTVSPost2010Prop38
140
0.0
102
RTVSPost2010PropOp38
 70
     1
102
RTVSPost2010Prop39
140
1.0
102
RTVSPost2010PropOp39
 70
     1
102
RTVSPost2010Prop40
 90
        0
102
RTVSPost2010PropOp40
 70
     1
102
RTVSPost2010Prop41ColorIndex
 90
       18
102
RTVSPost2010Prop41ColorRGB
 90
        0
102
RTVSPost2010PropOp41
 70
     1
102
RTVSPost2010Prop42
 90
       50
102
RTVSPost2010PropOp42
 70
     1
102
RTVSPost2010Prop43
 90
        3
102
RTVSPost2010PropOp43
 70
     1
102
RTVSPost2010Prop44ColorIndex
 90
        5
102
RTVSPost2010Prop44ColorRGB
 90
      255
102
RTVSPost2010PropOp44
 70
     1
102
RTVSPost2010Prop45
280
     0
102
RTVSPost2010PropOp45
 70
     1
102
RTVSPost2010Prop46
 90
       50
102
RTVSPost2010PropOp46
 70
     1
102
RTVSPost2010Prop47
 90
       50
102
RTVSPost2010PropOp47
 70
     1
102
RTVSPost2010Prop48
 90
       50
102
RTVSPost2010PropOp48
 70
     1
102
RTVSPost2010Prop49
280
     0
102
RTVSPost2010PropOp49
 70
     1
102
RTVSPost2010Prop50
 90
       50
102
RTVSPost2010PropOp50
 70
     1
102
RTVSPost2010Prop51ColorIndex
 90
      256
102
RTVSPost2010Prop51ColorRGB
 90
-16777216
102
RTVSPost2010PropOp51
 70
     0
102
RTVSPost2010Prop52
140
1.0
102
RTVSPost2010PropOp52
 70
     0
102
RTVSPost2010Prop53
 90
        2
102
RTVSPost2010PropOp53
 70
     1
102
RTVSPost2010Prop54
  1
strokes_ogs.tif
102
RTVSPost2010PropOp54
 70
     1
102
RTVSPost2010Prop55
280
     0
102
RTVSPost2010PropOp55
 70
     1
102
RTVSPost2010Prop56
140
1.0
102
RTVSPost2010PropOp56
 70
     1
102
RTVSPost2010Prop57
140
1.0
102
RTVSPost2010PropOp57
 70
     1
  0
XRECORD
  5
12183
102
{ACAD_REACTORS
330
12182
102
}
330
12182
100
AcDbXrecord
280
     1
102
RTVSPost2010Prop28
280
     0
102
RTVSPost2010PropOp28
 70
     1
102
RTVSPost2010Prop29
280
     1
102
RTVSPost2010PropOp29
 70
     1
102
RTVSPost2010Prop30
280
     1
102
RTVSPost2010PropOp30
 70
     1
102
RTVSPost2010Prop31
280
     0
102
RTVSPost2010PropOp31
 70
     1
102
RTVSPost2010Prop32
280
     0
102
RTVSPost2010PropOp32
 70
     1
102
RTVSPost2010Prop33
280
     0
102
RTVSPost2010PropOp33
 70
     1
102
RTVSPost2010Prop34
280
     0
102
RTVSPost2010PropOp34
 70
     1
102
RTVSPost2010Prop35
280
     0
102
RTVSPost2010PropOp35
 70
     1
102
RTVSPost2010Prop36
280
     0
102
RTVSPost2010PropOp36
 70
     1
102
RTVSPost2010Prop37
 90
       50
102
RTVSPost2010PropOp37
 70
     1
102
RTVSPost2010Prop38
140
0.0
102
RTVSPost2010PropOp38
 70
     1
102
RTVSPost2010Prop39
140
1.0
102
RTVSPost2010PropOp39
 70
     1
102
RTVSPost2010Prop40
 90
        0
102
RTVSPost2010PropOp40
 70
     1
102
RTVSPost2010Prop41ColorIndex
 90
       18
102
RTVSPost2010Prop41ColorRGB
 90
        0
102
RTVSPost2010PropOp41
 70
     1
102
RTVSPost2010Prop42
 90
       50
102
RTVSPost2010PropOp42
 70
     1
102
RTVSPost2010Prop43
 90
        3
102
RTVSPost2010PropOp43
 70
     1
102
RTVSPost2010Prop44ColorIndex
 90
        5
102
RTVSPost2010Prop44ColorRGB
 90
      255
102
RTVSPost2010PropOp44
 70
     1
102
RTVSPost2010Prop45
280
     0
102
RTVSPost2010PropOp45
 70
     1
102
RTVSPost2010Prop46
 90
       50
102
RTVSPost2010PropOp46
 70
     1
102
RTVSPost2010Prop47
 90
       50
102
RTVSPost2010PropOp47
 70
     1
102
RTVSPost2010Prop48
 90
       50
102
RTVSPost2010PropOp48
 70
     1
102
RTVSPost2010Prop49
280
     0
102
RTVSPost2010PropOp49
 70
     1
102
RTVSPost2010Prop50
 90
       50
102
RTVSPost2010PropOp50
 70
     1
102
RTVSPost2010Prop51ColorIndex
 90
      256
102
RTVSPost2010Prop51ColorRGB
 90
-16777216
102
RTVSPost2010PropOp51
 70
     0
102
RTVSPost2010Prop52
140
1.0
102
RTVSPost2010PropOp52
 70
     0
102
RTVSPost2010Prop53
 90
        2
102
RTVSPost2010PropOp53
 70
     1
102
RTVSPost2010Prop54
  1
strokes_ogs.tif
102
RTVSPost2010PropOp54
 70
     1
102
RTVSPost2010Prop55
280
     0
102
RTVSPost2010PropOp55
 70
     1
102
RTVSPost2010Prop56
140
1.0
102
RTVSPost2010PropOp56
 70
     1
102
RTVSPost2010Prop57
140
1.0
102
RTVSPost2010PropOp57
 70
     1
  0
XRECORD
  5
12185
102
{ACAD_REACTORS
330
12184
102
}
330
12184
100
AcDbXrecord
280
     1
102
RTVSPost2010Prop28
280
     0
102
RTVSPost2010PropOp28
 70
     1
102
RTVSPost2010Prop29
280
     1
102
RTVSPost2010PropOp29
 70
     1
102
RTVSPost2010Prop30
280
     1
102
RTVSPost2010PropOp30
 70
     1
102
RTVSPost2010Prop31
280
     0
102
RTVSPost2010PropOp31
 70
     1
102
RTVSPost2010Prop32
280
     0
102
RTVSPost2010PropOp32
 70
     1
102
RTVSPost2010Prop33
280
     0
102
RTVSPost2010PropOp33
 70
     1
102
RTVSPost2010Prop34
280
     0
102
RTVSPost2010PropOp34
 70
     1
102
RTVSPost2010Prop35
280
     0
102
RTVSPost2010PropOp35
 70
     1
102
RTVSPost2010Prop36
280
     0
102
RTVSPost2010PropOp36
 70
     1
102
RTVSPost2010Prop37
 90
       50
102
RTVSPost2010PropOp37
 70
     1
102
RTVSPost2010Prop38
140
0.0
102
RTVSPost2010PropOp38
 70
     1
102
RTVSPost2010Prop39
140
1.0
102
RTVSPost2010PropOp39
 70
     1
102
RTVSPost2010Prop40
 90
        0
102
RTVSPost2010PropOp40
 70
     1
102
RTVSPost2010Prop41ColorIndex
 90
       18
102
RTVSPost2010Prop41ColorRGB
 90
        0
102
RTVSPost2010PropOp41
 70
     1
102
RTVSPost2010Prop42
 90
       50
102
RTVSPost2010PropOp42
 70
     1
102
RTVSPost2010Prop43
 90
        3
102
RTVSPost2010PropOp43
 70
     1
102
RTVSPost2010Prop44ColorIndex
 90
        5
102
RTVSPost2010Prop44ColorRGB
 90
      255
102
RTVSPost2010PropOp44
 70
     1
102
RTVSPost2010Prop45
280
     0
102
RTVSPost2010PropOp45
 70
     1
102
RTVSPost2010Prop46
 90
       50
102
RTVSPost2010PropOp46
 70
     1
102
RTVSPost2010Prop47
 90
       50
102
RTVSPost2010PropOp47
 70
     1
102
RTVSPost2010Prop48
 90
       50
102
RTVSPost2010PropOp48
 70
     1
102
RTVSPost2010Prop49
280
     0
102
RTVSPost2010PropOp49
 70
     1
102
RTVSPost2010Prop50
 90
       50
102
RTVSPost2010PropOp50
 70
     1
102
RTVSPost2010Prop51ColorIndex
 90
      256
102
RTVSPost2010Prop51ColorRGB
 90
-16777216
102
RTVSPost2010PropOp51
 70
     0
102
RTVSPost2010Prop52
140
1.0
102
RTVSPost2010PropOp52
 70
     0
102
RTVSPost2010Prop53
 90
        2
102
RTVSPost2010PropOp53
 70
     1
102
RTVSPost2010Prop54
  1
strokes_ogs.tif
102
RTVSPost2010PropOp54
 70
     1
102
RTVSPost2010Prop55
280
     0
102
RTVSPost2010PropOp55
 70
     1
102
RTVSPost2010Prop56
140
1.0
102
RTVSPost2010PropOp56
 70
     1
102
RTVSPost2010Prop57
140
1.0
102
RTVSPost2010PropOp57
 70
     1
  0
XRECORD
  5
12171
102
{ACAD_REACTORS
330
12170
102
}
330
12170
100
AcDbXrecord
280
     1
102
RTVSPost2010Prop28
280
     0
102
RTVSPost2010PropOp28
 70
     1
102
RTVSPost2010Prop29
280
     1
102
RTVSPost2010PropOp29
 70
     1
102
RTVSPost2010Prop30
280
     1
102
RTVSPost2010PropOp30
 70
     1
102
RTVSPost2010Prop31
280
     0
102
RTVSPost2010PropOp31
 70
     1
102
RTVSPost2010Prop32
280
     0
102
RTVSPost2010PropOp32
 70
     1
102
RTVSPost2010Prop33
280
     0
102
RTVSPost2010PropOp33
 70
     1
102
RTVSPost2010Prop34
280
     0
102
RTVSPost2010PropOp34
 70
     1
102
RTVSPost2010Prop35
280
     0
102
RTVSPost2010PropOp35
 70
     1
102
RTVSPost2010Prop36
280
     0
102
RTVSPost2010PropOp36
 70
     1
102
RTVSPost2010Prop37
 90
       50
102
RTVSPost2010PropOp37
 70
     1
102
RTVSPost2010Prop38
140
0.0
102
RTVSPost2010PropOp38
 70
     1
102
RTVSPost2010Prop39
140
1.0
102
RTVSPost2010PropOp39
 70
     1
102
RTVSPost2010Prop40
 90
        0
102
RTVSPost2010PropOp40
 70
     1
102
RTVSPost2010Prop41ColorIndex
 90
       18
102
RTVSPost2010Prop41ColorRGB
 90
        0
102
RTVSPost2010PropOp41
 70
     1
102
RTVSPost2010Prop42
 90
       50
102
RTVSPost2010PropOp42
 70
     1
102
RTVSPost2010Prop43
 90
        3
102
RTVSPost2010PropOp43
 70
     1
102
RTVSPost2010Prop44ColorIndex
 90
        5
102
RTVSPost2010Prop44ColorRGB
 90
      255
102
RTVSPost2010PropOp44
 70
     1
102
RTVSPost2010Prop45
280
     0
102
RTVSPost2010PropOp45
 70
     1
102
RTVSPost2010Prop46
 90
       50
102
RTVSPost2010PropOp46
 70
     1
102
RTVSPost2010Prop47
 90
       50
102
RTVSPost2010PropOp47
 70
     1
102
RTVSPost2010Prop48
 90
       50
102
RTVSPost2010PropOp48
 70
     1
102
RTVSPost2010Prop49
280
     0
102
RTVSPost2010PropOp49
 70
     1
102
RTVSPost2010Prop50
 90
       50
102
RTVSPost2010PropOp50
 70
     1
102
RTVSPost2010Prop51ColorIndex
 90
      256
102
RTVSPost2010Prop51ColorRGB
 90
-16777216
102
RTVSPost2010PropOp51
 70
     0
102
RTVSPost2010Prop52
140
1.0
102
RTVSPost2010PropOp52
 70
     0
102
RTVSPost2010Prop53
 90
        2
102
RTVSPost2010PropOp53
 70
     1
102
RTVSPost2010Prop54
  1
strokes_ogs.tif
102
RTVSPost2010PropOp54
 70
     1
102
RTVSPost2010Prop55
280
     0
102
RTVSPost2010PropOp55
 70
     1
102
RTVSPost2010Prop56
140
1.0
102
RTVSPost2010PropOp56
 70
     1
102
RTVSPost2010Prop57
140
1.0
102
RTVSPost2010PropOp57
 70
     1
  0
XRECORD
  5
1217F
102
{ACAD_REACTORS
330
1217E
102
}
330
1217E
100
AcDbXrecord
280
     1
102
RTVSPost2010Prop28
280
     0
102
RTVSPost2010PropOp28
 70
     1
102
RTVSPost2010Prop29
280
     1
102
RTVSPost2010PropOp29
 70
     1
102
RTVSPost2010Prop30
280
     1
102
RTVSPost2010PropOp30
 70
     1
102
RTVSPost2010Prop31
280
     0
102
RTVSPost2010PropOp31
 70
     1
102
RTVSPost2010Prop32
280
     0
102
RTVSPost2010PropOp32
 70
     1
102
RTVSPost2010Prop33
280
     0
102
RTVSPost2010PropOp33
 70
     1
102
RTVSPost2010Prop34
280
     0
102
RTVSPost2010PropOp34
 70
     1
102
RTVSPost2010Prop35
280
     0
102
RTVSPost2010PropOp35
 70
     1
102
RTVSPost2010Prop36
280
     0
102
RTVSPost2010PropOp36
 70
     1
102
RTVSPost2010Prop37
 90
       50
102
RTVSPost2010PropOp37
 70
     1
102
RTVSPost2010Prop38
140
0.0
102
RTVSPost2010PropOp38
 70
     1
102
RTVSPost2010Prop39
140
1.0
102
RTVSPost2010PropOp39
 70
     1
102
RTVSPost2010Prop40
 90
        0
102
RTVSPost2010PropOp40
 70
     1
102
RTVSPost2010Prop41ColorIndex
 90
       18
102
RTVSPost2010Prop41ColorRGB
 90
        0
102
RTVSPost2010PropOp41
 70
     1
102
RTVSPost2010Prop42
 90
       50
102
RTVSPost2010PropOp42
 70
     1
102
RTVSPost2010Prop43
 90
        3
102
RTVSPost2010PropOp43
 70
     1
102
RTVSPost2010Prop44ColorIndex
 90
        5
102
RTVSPost2010Prop44ColorRGB
 90
      255
102
RTVSPost2010PropOp44
 70
     1
102
RTVSPost2010Prop45
280
     0
102
RTVSPost2010PropOp45
 70
     1
102
RTVSPost2010Prop46
 90
       50
102
RTVSPost2010PropOp46
 70
     1
102
RTVSPost2010Prop47
 90
       50
102
RTVSPost2010PropOp47
 70
     1
102
RTVSPost2010Prop48
 90
       50
102
RTVSPost2010PropOp48
 70
     1
102
RTVSPost2010Prop49
280
     0
102
RTVSPost2010PropOp49
 70
     1
102
RTVSPost2010Prop50
 90
       50
102
RTVSPost2010PropOp50
 70
     1
102
RTVSPost2010Prop51ColorIndex
 90
      256
102
RTVSPost2010Prop51ColorRGB
 90
-16777216
102
RTVSPost2010PropOp51
 70
     0
102
RTVSPost2010Prop52
140
1.0
102
RTVSPost2010PropOp52
 70
     0
102
RTVSPost2010Prop53
 90
        2
102
RTVSPost2010PropOp53
 70
     1
102
RTVSPost2010Prop54
  1
strokes_ogs.tif
102
RTVSPost2010PropOp54
 70
     1
102
RTVSPost2010Prop55
280
     0
102
RTVSPost2010PropOp55
 70
     1
102
RTVSPost2010Prop56
140
1.0
102
RTVSPost2010PropOp56
 70
     1
102
RTVSPost2010Prop57
140
1.0
102
RTVSPost2010PropOp57
 70
     1
  0
XRECORD
  5
12187
102
{ACAD_REACTORS
330
12186
102
}
330
12186
100
AcDbXrecord
280
     1
102
RTVSPost2010Prop28
280
     0
102
RTVSPost2010PropOp28
 70
     1
102
RTVSPost2010Prop29
280
     1
102
RTVSPost2010PropOp29
 70
     1
102
RTVSPost2010Prop30
280
     1
102
RTVSPost2010PropOp30
 70
     1
102
RTVSPost2010Prop31
280
     0
102
RTVSPost2010PropOp31
 70
     1
102
RTVSPost2010Prop32
280
     0
102
RTVSPost2010PropOp32
 70
     1
102
RTVSPost2010Prop33
280
     0
102
RTVSPost2010PropOp33
 70
     1
102
RTVSPost2010Prop34
280
     0
102
RTVSPost2010PropOp34
 70
     1
102
RTVSPost2010Prop35
280
     0
102
RTVSPost2010PropOp35
 70
     1
102
RTVSPost2010Prop36
280
     0
102
RTVSPost2010PropOp36
 70
     1
102
RTVSPost2010Prop37
 90
       50
102
RTVSPost2010PropOp37
 70
     1
102
RTVSPost2010Prop38
140
0.0
102
RTVSPost2010PropOp38
 70
     1
102
RTVSPost2010Prop39
140
1.0
102
RTVSPost2010PropOp39
 70
     1
102
RTVSPost2010Prop40
 90
        0
102
RTVSPost2010PropOp40
 70
     1
102
RTVSPost2010Prop41ColorIndex
 90
       18
102
RTVSPost2010Prop41ColorRGB
 90
        0
102
RTVSPost2010PropOp41
 70
     1
102
RTVSPost2010Prop42
 90
       50
102
RTVSPost2010PropOp42
 70
     1
102
RTVSPost2010Prop43
 90
        3
102
RTVSPost2010PropOp43
 70
     1
102
RTVSPost2010Prop44ColorIndex
 90
        5
102
RTVSPost2010Prop44ColorRGB
 90
      255
102
RTVSPost2010PropOp44
 70
     1
102
RTVSPost2010Prop45
280
     0
102
RTVSPost2010PropOp45
 70
     1
102
RTVSPost2010Prop46
 90
       50
102
RTVSPost2010PropOp46
 70
     1
102
RTVSPost2010Prop47
 90
       50
102
RTVSPost2010PropOp47
 70
     1
102
RTVSPost2010Prop48
 90
       50
102
RTVSPost2010PropOp48
 70
     1
102
RTVSPost2010Prop49
280
     0
102
RTVSPost2010PropOp49
 70
     1
102
RTVSPost2010Prop50
 90
       50
102
RTVSPost2010PropOp50
 70
     1
102
RTVSPost2010Prop51ColorIndex
 90
      256
102
RTVSPost2010Prop51ColorRGB
 90
-16777216
102
RTVSPost2010PropOp51
 70
     0
102
RTVSPost2010Prop52
140
1.0
102
RTVSPost2010PropOp52
 70
     0
102
RTVSPost2010Prop53
 90
        2
102
RTVSPost2010PropOp53
 70
     1
102
RTVSPost2010Prop54
  1
strokes_ogs.tif
102
RTVSPost2010PropOp54
 70
     1
102
RTVSPost2010Prop55
280
     0
102
RTVSPost2010PropOp55
 70
     1
102
RTVSPost2010Prop56
140
1.0
102
RTVSPost2010PropOp56
 70
     1
102
RTVSPost2010Prop57
140
1.0
102
RTVSPost2010PropOp57
 70
     1
  0
ENDSEC
  0
EOF
