  0
SECTION
  2
HEADER
  9
$ACADVER
  1
AC1009
  9
$EXTMIN
 10
0
 20
0
  9
$EXTMAX
 10
40.22102
 20
18.09601
  0
ENDSEC
  0
SECTION
  2
TABLES
  0
TABLE
  2
LAYER
 70
 2
  0
LAYER
  2
Design
 70
64
 62
7
  6
CONTINUOUS
  0
LAYER
  2
Annotation
 70
64
 62
7
  6
CONTINUOUS
  0
ENDTAB
  0
ENDSEC
  0
SECTION
  2
BLOCKS
  0
BLOCK
  8
0
  2
*D1
 70
1
 10
0
 20
0
 30
0
  3
*D1
 1

  0
LINE
  8
Annotation
  6
CONTINUOUS
 62
20
 10
28.97529
 20
0
 11
28.88169
 21
0.42901
  0
LINE
  8
Annotation
  6
CONTINUOUS
 62
20
 10
28.97529
 20
0
 11
29.06889
 21
0.42901
  0
LINE
  8
Annotation
  6
CONTINUOUS
 62
20
 10
28.97529
 20
0
 11
28.97529
 21
8.42399
  0
TEXT
  8
Annotation
  6
CONTINUOUS
 62
20
 10
27.53034
 20
9.18449
 40
0.507
 41
0.9
 50
0
  1
18.0960"
 72
0
  0
TEXT
  8
Annotation
  6
CONTINUOUS
 62
20
 10
27.92034
 20
8.59949
 40
0.507
 41
0.9
 50
0
  1
 460mm
 72
0
  0
LINE
  8
Annotation
  6
CONTINUOUS
 62
20
 10
28.97529
 20
9.67199
 11
28.97529
 21
18.09597
  0
LINE
  8
Annotation
  6
CONTINUOUS
 62
20
 10
29.06889
 20
17.66697
 11
28.97529
 21
18.09597
  0
LINE
  8
Annotation
  6
CONTINUOUS
 62
20
 10
28.88169
 20
17.66697
 11
28.97529
 21
18.09597
  0
ENDBLK
  0
BLOCK
  8
0
  2
*D2
 70
1
 10
0
 20
0
 30
0
  3
*D2
 1

  0
LINE
  8
Annotation
  6
CONTINUOUS
 62
20
 10
0
 20
11.97451
 11
0.429
 21
12.06811
  0
LINE
  8
Annotation
  6
CONTINUOUS
 62
20
 10
0
 20
11.97451
 11
0.429
 21
11.88091
  0
LINE
  8
Annotation
  6
CONTINUOUS
 62
20
 10
0
 20
11.97451
 11
18.88502
 21
11.97451
  0
TEXT
  8
Annotation
  6
CONTINUOUS
 62
20
 10
18.66556
 20
12.11101
 40
0.507
 41
0.9
 50
0
  1
40.2210"
 72
0
  0
TEXT
  8
Annotation
  6
CONTINUOUS
 62
20
 10
18.86056
 20
11.52601
 40
0.507
 41
0.9
 50
0
  1
 1022mm
 72
0
  0
LINE
  8
Annotation
  6
CONTINUOUS
 62
20
 10
21.336
 20
11.97451
 11
40.22102
 21
11.97451
  0
LINE
  8
Annotation
  6
CONTINUOUS
 62
20
 10
39.79202
 20
11.88091
 11
40.22102
 21
11.97451
  0
LINE
  8
Annotation
  6
CONTINUOUS
 62
20
 10
39.79202
 20
12.06811
 11
40.22102
 21
11.97451
  0
ENDBLK
  0
BLOCK
  8
0
  2
*D3
 70
1
 10
0
 20
0
 30
0
  3
*D3
 1

  0
TEXT
  8
Annotation
  6
CONTINUOUS
 62
20
 10
4.66569
 20
3.78801
 40
0.507
 41
0.9
 50
0
  1
2.5480"
 72
0
  0
TEXT
  8
Annotation
  6
CONTINUOUS
 62
20
 10
7.29818
 20
4.03761
 40
0.3042
 41
0.9
 50
0
  1
R
 72
0
  0
TEXT
  8
Annotation
  6
CONTINUOUS
 62
20
 10
5.15319
 20
3.20301
 40
0.507
 41
0.9
 50
0
  1
 65mm
 72
0
  0
LINE
  8
Annotation
  6
CONTINUOUS
 62
20
 10
4.89093
 20
3.66061
 11
4.03293
 21
3.66061
  0
LINE
  8
Annotation
  6
CONTINUOUS
 62
20
 10
4.03293
 20
3.66061
 11
0.5089
 21
1.02015
  0
LINE
  8
Annotation
  6
CONTINUOUS
 62
20
 10
0.79609
 20
1.35229
 11
0.5089
 21
1.02015
  0
LINE
  8
Annotation
  6
CONTINUOUS
 62
20
 10
0.90834
 20
1.20248
 11
0.5089
 21
1.02015
  0
ENDBLK
  0
ENDSEC
  0
SECTION
  2
ENTITIES
  0
DIMENSION
  1
18.0960"{NL} 460mm
  2
*D1
  3
STANDARD
 70
33
  8
Annotation
  6
CONTINUOUS
 62
20
 10
28.97529
 20
0.00001
 11
28.97529
 21
9.04799
 13
29.17029
 23
0.00001
 14
29.17029
 24
18.09597
  0
DIMENSION
  1
40.2210"{NL} 1022mm
  2
*D2
  3
STANDARD
 70
33
  8
Annotation
  6
CONTINUOUS
 62
20
 10
0
 20
11.97451
 11
20.11051
 21
11.97451
 13
0
 23
11.84776
 14
40.22102
 24
11.84776
  0
DIMENSION
  1
2.5480"{R}{NL} 65mm
  2
*D3
  3
STANDARD
 70
36
  8
Annotation
  6
CONTINUOUS
 62
20
 10
2.54801
 20
2.548
 11
6.01314
 21
3.66061
 15
0.5089
 25
1.02015
  0
ARC
  8
Design
  6
CONTINUOUS
 62
1
 10
2.548011313
 20
2.548001313
 40
2.548001313
 50
-179.999970474
 51
-89.999804661
  0
LINE
  8
Design
  6
CONTINUOUS
 62
1
 10
0
 20
2.798
 11
0
 21
5.7355
  0
LINE
  8
Design
  6
CONTINUOUS
 62
1
 10
20.21769
 20
0
 11
16.72301
 21
0
  0
LINE
  8
Design
  6
CONTINUOUS
 62
1
 10
16.473
 20
0
 11
13.21051
 21
0
  0
LINE
  8
Design
  6
CONTINUOUS
 62
1
 10
13.19269
 20
0
 11
9.69801
 21
0
  0
LINE
  8
Design
  6
CONTINUOUS
 62
1
 10
9.44801
 20
0
 11
6.18551
 21
0
  0
LINE
  8
Design
  6
CONTINUOUS
 62
1
 10
5.93551
 20
0
 11
2.79801
 21
0
  0
LINE
  8
Design
  6
CONTINUOUS
 62
1
 10
0
 20
5.9855
 11
0
 21
8.923
  0
LINE
  8
Design
  6
CONTINUOUS
 62
1
 10
20.4677
 20
0
 11
23.49802
 21
0
  0
LINE
  8
Design
  6
CONTINUOUS
 62
1
 10
23.74802
 20
0
 11
27.24271
 21
0
  0
LINE
  8
Design
  6
CONTINUOUS
 62
1
 10
27.4927
 20
0
 11
30.52301
 21
0
  0
LINE
  8
Design
  6
CONTINUOUS
 62
1
 10
30.77302
 20
0
 11
34.03551
 21
0
  0
LINE
  8
Design
  6
CONTINUOUS
 62
1
 10
34.4552
 20
0
 11
37.42302
 21
0
  0
LINE
  8
Design
  6
CONTINUOUS
 62
1
 10
40.22102
 20
5.98552
 11
40.22102
 21
8.92302
  0
LINE
  8
Design
  6
CONTINUOUS
 62
1
 10
40.22102
 20
2.79801
 11
40.22102
 21
5.73552
  0
ARC
  8
Design
  6
CONTINUOUS
 62
1
 10
37.673018364
 20
2.548011636
 40
2.548001636
 50
-89.999963215
 51
0.000188081
  0
LINE
  8
Design
  6
CONTINUOUS
 62
1
 10
20.2177
 20
18.09598
 11
16.72301
 21
18.09598
  0
LINE
  8
Design
  6
CONTINUOUS
 62
1
 10
16.47301
 20
18.09598
 11
13.21051
 21
18.09599
  0
LINE
  8
Design
  6
CONTINUOUS
 62
1
 10
13.19269
 20
18.09599
 11
9.69801
 21
18.09599
  0
LINE
  8
Design
  6
CONTINUOUS
 62
1
 10
9.44801
 20
18.09599
 11
6.18551
 21
18.096
  0
LINE
  8
Design
  6
CONTINUOUS
 62
1
 10
5.93551
 20
18.096
 11
2.79801
 21
18.096
  0
LINE
  8
Design
  6
CONTINUOUS
 62
1
 10
0
 20
12.1105
 11
0
 21
9.173
  0
LINE
  8
Design
  6
CONTINUOUS
 62
1
 10
0
 20
15.29801
 11
0
 21
12.36051
  0
ARC
  8
Design
  6
CONTINUOUS
 62
1
 10
2.548012163
 20
15.548007837
 40
2.548002163
 50
90.000048631
 51
179.999951369
  0
ARC
  8
Design
  6
CONTINUOUS
 62
1
 10
37.673021895
 20
15.547961895
 40
2.547998105
 50
-0.000042619
 51
89.999817753
  0
LINE
  8
Design
  6
CONTINUOUS
 62
1
 10
40.22102
 20
15.29796
 11
40.22102
 21
12.36046
  0
LINE
  8
Design
  6
CONTINUOUS
 62
1
 10
20.4677
 20
18.09598
 11
23.49802
 21
18.09597
  0
LINE
  8
Design
  6
CONTINUOUS
 62
1
 10
23.74802
 20
18.09597
 11
27.24271
 21
18.09597
  0
LINE
  8
Design
  6
CONTINUOUS
 62
1
 10
27.49271
 20
18.09597
 11
30.52302
 21
18.09597
  0
LINE
  8
Design
  6
CONTINUOUS
 62
1
 10
30.77302
 20
18.09597
 11
34.03551
 21
18.09596
  0
LINE
  8
Design
  6
CONTINUOUS
 62
1
 10
34.4552
 20
18.09596
 11
37.42302
 21
18.09596
  0
LINE
  8
Design
  6
CONTINUOUS
 62
1
 10
40.22102
 20
12.11046
 11
40.22102
 21
9.17295
  0
ENDSEC
  0
EOF
