  0
SECTION
  2
HEADER
  9
$ACADVER
  1
AC1015
  9
$ACADMAINTVER
 70
    18
  9
$DWGCODEPAGE
  3
ANSI_1252
  9
$INSBASE
 10
0.0
 20
0.0
 30
0.0
  9
$EXTMIN
 10
0.0
 20
0.0
 30
0.0
  9
$EXTMAX
 10
2100.0
 20
2970.0
 30
0.0
  9
$LIMMIN
 10
0.0
 20
0.0
  9
$LIMMAX
 10
2100.0
 20
2970.0
  9
$ORTHOMODE
 70
     0
  9
$REGENMODE
 70
     1
  9
$FILLMODE
 70
     1
  9
$QTEXTMODE
 70
     0
  9
$MIRRTEXT
 70
     0
  9
$LTSCALE
 40
10.0
  9
$ATTMODE
 70
     1
  9
$TEXTSIZE
 40
0.2
  9
$TRACEWID
 40
0.05
  9
$TEXTSTYLE
  7
Standard
  9
$CLAYER
  8
0
  9
$CELTYPE
  6
ByLayer
  9
$CECOLOR
 62
   256
  9
$CELTSCALE
 40
1.0
  9
$DISPSILH
 70
     0
  9
$DIMSCALE
 40
1.0
  9
$DIMASZ
 40
1.799999999999999
  9
$DIMEXO
 40
0.0625
  9
$DIMDLI
 40
0.38
  9
$DIMRND
 40
0.0
  9
$DIMDLE
 40
0.0
  9
$DIMEXE
 40
0.18
  9
$DIMTP
 40
0.0
  9
$DIMTM
 40
0.0
  9
$DIMTXT
 40
0.5
  9
$DIMCEN
 40
0.09
  9
$DIMTSZ
 40
0.0
  9
$DIMTOL
 70
     0
  9
$DIMLIM
 70
     0
  9
$DIMTIH
 70
     1
  9
$DIMTOH
 70
     1
  9
$DIMSE1
 70
     0
  9
$DIMSE2
 70
     0
  9
$DIMTAD
 70
     0
  9
$DIMZIN
 70
     0
  9
$DIMBLK
  1

  9
$DIMASO
 70
     1
  9
$DIMSHO
 70
     1
  9
$DIMPOST
  1

  9
$DIMAPOST
  1

  9
$DIMALT
 70
     0
  9
$DIMALTD
 70
     2
  9
$DIMALTF
 40
25.4
  9
$DIMLFAC
 40
1.0
  9
$DIMTOFL
 70
     0
  9
$DIMTVP
 40
0.0
  9
$DIMTIX
 70
     0
  9
$DIMSOXD
 70
     0
  9
$DIMSAH
 70
     0
  9
$DIMBLK1
  1

  9
$DIMBLK2
  1

  9
$DIMSTYLE
  2
Standard
  9
$DIMCLRD
 70
     0
  9
$DIMCLRE
 70
     0
  9
$DIMCLRT
 70
     0
  9
$DIMTFAC
 40
1.0
  9
$DIMGAP
 40
0.09
  9
$DIMJUST
 70
     0
  9
$DIMSD1
 70
     0
  9
$DIMSD2
 70
     0
  9
$DIMTOLJ
 70
     1
  9
$DIMTZIN
 70
     0
  9
$DIMALTZ
 70
     0
  9
$DIMALTTZ
 70
     0
  9
$DIMUPT
 70
     0
  9
$DIMDEC
 70
     4
  9
$DIMTDEC
 70
     4
  9
$DIMALTU
 70
     2
  9
$DIMALTTD
 70
     2
  9
$DIMTXSTY
  7
Standard
  9
$DIMAUNIT
 70
     0
  9
$DIMADEC
 70
     0
  9
$DIMALTRND
 40
0.0
  9
$DIMAZIN
 70
     0
  9
$DIMDSEP
 70
    46
  9
$DIMATFIT
 70
     3
  9
$DIMFRAC
 70
     0
  9
$DIMLDRBLK
  1

  9
$DIMLUNIT
 70
     2
  9
$DIMLWD
 70
    -2
  9
$DIMLWE
 70
    -2
  9
$DIMTMOVE
 70
     0
  9
$LUNITS
 70
     2
  9
$LUPREC
 70
     4
  9
$SKETCHINC
 40
0.1
  9
$FILLETRAD
 40
0.0
  9
$AUNITS
 70
     0
  9
$AUPREC
 70
     0
  9
$MENU
  1
.
  9
$ELEVATION
 40
0.0
  9
$PELEVATION
 40
0.0
  9
$THICKNESS
 40
0.0
  9
$LIMCHECK
 70
     0
  9
$CHAMFERA
 40
0.0
  9
$CHAMFERB
 40
0.0
  9
$CHAMFERC
 40
0.0
  9
$CHAMFERD
 40
0.0
  9
$SKPOLY
 70
     0
  9
$TDCREATE
 40
2455734.410586632
  9
$TDUCREATE
 40
2455734.327253299
  9
$TDUPDATE
 40
2455734.410586632
  9
$TDUUPDATE
 40
2455734.327253299
  9
$TDINDWG
 40
0.0000140972
  9
$TDUSRTIMER
 40
0.0000140972
  9
$USRTIMER
 70
     1
  9
$ANGBASE
 50
0.0
  9
$ANGDIR
 70
     0
  9
$PDMODE
 70
     0
  9
$PDSIZE
 40
0.0
  9
$PLINEWID
 40
0.0
  9
$SPLFRAME
 70
     0
  9
$SPLINETYPE
 70
     6
  9
$SPLINESEGS
 70
     8
  9
$HANDSEED
  5
56C
  9
$SURFTAB1
 70
     6
  9
$SURFTAB2
 70
     6
  9
$SURFTYPE
 70
     6
  9
$SURFU
 70
     6
  9
$SURFV
 70
     6
  9
$UCSBASE
  2

  9
$UCSNAME
  2

  9
$UCSORG
 10
0.0
 20
0.0
 30
0.0
  9
$UCSXDIR
 10
1.0
 20
0.0
 30
0.0
  9
$UCSYDIR
 10
0.0
 20
1.0
 30
0.0
  9
$UCSORTHOREF
  2

  9
$UCSORTHOVIEW
 70
     0
  9
$UCSORGTOP
 10
0.0
 20
0.0
 30
0.0
  9
$UCSORGBOTTOM
 10
0.0
 20
0.0
 30
0.0
  9
$UCSORGLEFT
 10
0.0
 20
0.0
 30
0.0
  9
$UCSORGRIGHT
 10
0.0
 20
0.0
 30
0.0
  9
$UCSORGFRONT
 10
0.0
 20
0.0
 30
0.0
  9
$UCSORGBACK
 10
0.0
 20
0.0
 30
0.0
  9
$PUCSBASE
  2

  9
$PUCSNAME
  2

  9
$PUCSORG
 10
0.0
 20
0.0
 30
0.0
  9
$PUCSXDIR
 10
1.0
 20
0.0
 30
0.0
  9
$PUCSYDIR
 10
0.0
 20
1.0
 30
0.0
  9
$PUCSORTHOREF
  2

  9
$PUCSORTHOVIEW
 70
     0
  9
$PUCSORGTOP
 10
0.0
 20
0.0
 30
0.0
  9
$PUCSORGBOTTOM
 10
0.0
 20
0.0
 30
0.0
  9
$PUCSORGLEFT
 10
0.0
 20
0.0
 30
0.0
  9
$PUCSORGRIGHT
 10
0.0
 20
0.0
 30
0.0
  9
$PUCSORGFRONT
 10
0.0
 20
0.0
 30
0.0
  9
$PUCSORGBACK
 10
0.0
 20
0.0
 30
0.0
  9
$USERI1
 70
     0
  9
$USERI2
 70
     0
  9
$USERI3
 70
     0
  9
$USERI4
 70
     0
  9
$USERI5
 70
     0
  9
$USERR1
 40
0.0
  9
$USERR2
 40
0.0
  9
$USERR3
 40
0.0
  9
$USERR4
 40
0.0
  9
$USERR5
 40
0.0
  9
$WORLDVIEW
 70
     1
  9
$SHADEDGE
 70
     3
  9
$SHADEDIF
 70
    70
  9
$TILEMODE
 70
     1
  9
$MAXACTVP
 70
    64
  9
$PINSBASE
 10
0.0
 20
0.0
 30
0.0
  9
$PLIMCHECK
 70
     0
  9
$PEXTMIN
 10
0.0
 20
0.0
 30
0.0
  9
$PEXTMAX
 10
2100.0
 20
2970.0
 30
0.0
  9
$PLIMMIN
 10
0.0
 20
0.0
  9
$PLIMMAX
 10
2100.0
 20
2970.0
  9
$UNITMODE
 70
     0
  9
$VISRETAIN
 70
     1
  9
$PLINEGEN
 70
     0
  9
$PSLTSCALE
 70
     1
  9
$TREEDEPTH
 70
  3020
  9
$CMLSTYLE
  2
Standard
  9
$CMLJUST
 70
     0
  9
$CMLSCALE
 40
1.0
  9
$PROXYGRAPHICS
 70
     1
  9
$MEASUREMENT
 70
     1
  9
$CELWEIGHT
370
    -1
  9
$ENDCAPS
280
     0
  9
$JOINSTYLE
280
     0
  9
$LWDISPLAY
290
     0
  9
$INSUNITS
 70
     4
  9
$HYPERLINKBASE
  1

  9
$STYLESHEET
  1

  9
$XEDIT
290
     1
  9
$CEPSNTYPE
380
     0
  9
$PSTYLEMODE
290
     1
  9
$FINGERPRINTGUID
  2
{9E991658-A79B-4661-9652-07D8BFCFA751}
  9
$VERSIONGUID
  2
{823835EB-8113-4136-BABE-77C0017FA5F2}
  9
$EXTNAMES
290
     1
  9
$PSVPSCALE
 40
0.0
  9
$OLESTARTUP
290
     0
  0
ENDSEC
  0
SECTION
  2
CLASSES
  0
CLASS
  1
ACDBDICTIONARYWDFLT
  2
AcDbDictionaryWithDefault
  3
ObjectDBX Classes
 90
        0
280
     0
281
     0
  0
CLASS
  1
MATERIAL
  2
AcDbMaterial
  3
ObjectDBX Classes
 90
     1153
280
     0
281
     0
  0
CLASS
  1
VISUALSTYLE
  2
AcDbVisualStyle
  3
ObjectDBX Classes
 90
     4095
280
     0
281
     0
  0
CLASS
  1
SCALE
  2
AcDbScale
  3
ObjectDBX Classes
 90
     1153
280
     0
281
     0
  0
CLASS
  1
TABLESTYLE
  2
AcDbTableStyle
  3
ObjectDBX Classes
 90
     4095
280
     0
281
     0
  0
CLASS
  1
MLEADERSTYLE
  2
AcDbMLeaderStyle
  3
ACDB_MLEADERSTYLE_CLASS
 90
     4095
280
     0
281
     0
  0
CLASS
  1
DICTIONARYVAR
  2
AcDbDictionaryVar
  3
ObjectDBX Classes
 90
        0
280
     0
281
     0
  0
CLASS
  1
CELLSTYLEMAP
  2
AcDbCellStyleMap
  3
ObjectDBX Classes
 90
     1152
280
     0
281
     0
  0
CLASS
  1
ACDBPLACEHOLDER
  2
AcDbPlaceHolder
  3
ObjectDBX Classes
 90
        0
280
     0
281
     0
  0
CLASS
  1
LAYOUT
  2
AcDbLayout
  3
ObjectDBX Classes
 90
        0
280
     0
281
     0
  0
ENDSEC
  0
SECTION
  2
TABLES
  0
TABLE
  2
VPORT
  5
8
330
0
100
AcDbSymbolTable
 70
     1
  0
VPORT
  5
62
330
8
100
AcDbSymbolTableRecord
100
AcDbViewportTableRecord
  2
*Active
 70
     0
 10
0.0
 20
0.0
 11
1.0
 21
1.0
 12
1050.0
 22
1485.0
 13
0.0
 23
0.0
 14
1.0
 24
1.0
 15
0.0
 25
0.0
 16
0.0
 26
0.0
 36
1.0
 17
0.0
 27
0.0
 37
0.0
 40
2970.0
 41
0.7070707070707071
 42
50.0
 43
0.0
 44
0.0
 50
0.0
 51
0.0
 71
     0
 72
   100
 73
     1
 74
     1
 75
     0
 76
     0
 77
     0
 78
     0
281
     0
 65
     1
110
0.0
120
0.0
130
0.0
111
1.0
121
0.0
131
0.0
112
0.0
122
1.0
132
0.0
 79
     0
146
0.0
  0
ENDTAB
  0
TABLE
  2
LTYPE
  5
5
330
0
100
AcDbSymbolTable
 70
     1
  0
LTYPE
  5
66
330
5
100
AcDbSymbolTableRecord
100
AcDbLinetypeTableRecord
  2
ByBlock
 70
     0
  3

 72
    65
 73
     0
 40
0.0
  0
LTYPE
  5
67
330
5
100
AcDbSymbolTableRecord
100
AcDbLinetypeTableRecord
  2
ByLayer
 70
     0
  3

 72
    65
 73
     0
 40
0.0
  0
LTYPE
  5
68
330
5
100
AcDbSymbolTableRecord
100
AcDbLinetypeTableRecord
  2
Continuous
 70
     0
  3
Solid line
 72
    65
 73
     0
 40
0.0
  0
ENDTAB
  0
TABLE
  2
LAYER
  5
2
330
0
100
AcDbSymbolTable
 70
    75
  0
LAYER
  5
5F
330
2
100
AcDbSymbolTableRecord
100
AcDbLayerTableRecord
  2
0
 70
     0
 62
     7
  6
Continuous
370
    -3
390
F
  0
LAYER
  5
99
330
2
100
AcDbSymbolTableRecord
100
AcDbLayerTableRecord
  2
Dimensions(ISO)
 70
     0
 62
     7
  6
Continuous
370
    25
390
F
  0
LAYER
  5
AF
330
2
100
AcDbSymbolTableRecord
100
AcDbLayerTableRecord
  2
Sketch Geometry(DIN)
 70
     0
 62
     7
  6
Continuous
370
    50
390
F
  0
LAYER
  5
B0
330
2
100
AcDbSymbolTableRecord
100
AcDbLayerTableRecord
  2
Sketch Geometry(ISO)
 70
     0
 62
     7
  6
Continuous
370
    50
390
F
  0
LAYER
  5
B9
330
2
100
AcDbSymbolTableRecord
100
AcDbLayerTableRecord
  2
Symbole(DIN)
 70
     0
 62
     7
  6
Continuous
370
    25
390
F
  0
LAYER
  5
BA
330
2
100
AcDbSymbolTableRecord
100
AcDbLayerTableRecord
  2
Symbols(ISO)
 70
     0
 62
     7
  6
Continuous
370
    25
390
F
  0
LAYER
  5
C2
330
2
100
AcDbSymbolTableRecord
100
AcDbLayerTableRecord
  2
Visible Edges(ISO)
 70
     0
 62
     7
  6
Continuous
370
    50
390
F
  0
LAYER
  5
C4
330
2
100
AcDbSymbolTableRecord
100
AcDbLayerTableRecord
  2
Visible Tangent Edges(ISO)
 70
     0
 62
     7
  6
Continuous
370
    50
390
F
  0
LAYER
  5
33A
330
2
100
AcDbSymbolTableRecord
100
AcDbLayerTableRecord
  2
Defpoints
 70
     0
 62
     7
  6
Continuous
290
     0
370
    -3
390
F
  0
ENDTAB
  0
TABLE
  2
STYLE
  5
3
330
0
100
AcDbSymbolTable
 70
    19
  0
STYLE
  5
60
330
3
100
AcDbSymbolTableRecord
100
AcDbTextStyleTableRecord
  2
Standard
 70
     0
 40
0.0
 41
1.0
 50
0.0
 71
     0
 42
0.2
  3
monotxt.shx
  4

  0
STYLE
  5
65
330
3
100
AcDbSymbolTableRecord
100
AcDbTextStyleTableRecord
  2
Annotative
 70
     0
 40
0.0
 41
1.0
 50
0.0
 71
     0
 42
0.2
  3
txt
  4

1001
AcadAnnotative
1000
AnnotativeData
1002
{
1070
     1
1070
     1
1002
}
  0
STYLE
  5
C8
330
3
100
AcDbSymbolTableRecord
100
AcDbTextStyleTableRecord
  2
Current-DIN
 70
     0
 40
0.0
 41
1.0
 50
0.0
 71
     0
 42
0.2
  3
TAHOMA.TTF
  4

1001
ACAD
1000
Tahoma
1071
      256
  0
STYLE
  5
C9
330
3
100
AcDbSymbolTableRecord
100
AcDbTextStyleTableRecord
  2
Parts-List_2.0mm
 70
     0
 40
0.0
 41
0.899999976158142
 50
0.0
 71
     0
 42
0.2
  3
ARIAL.TTF
  4

1001
ACAD
1000
Arial
1071
      256
  0
STYLE
  5
CA
330
3
100
AcDbSymbolTableRecord
100
AcDbTextStyleTableRecord
  2
Parts-List_2.0mmByLayer
 70
     0
 40
0.0
 41
0.899999976158142
 50
0.0
 71
     0
 42
0.2
  3
ARIAL.TTF
  4

1001
ACAD
1000
Arial
1071
      256
  0
STYLE
  5
CB
330
3
100
AcDbSymbolTableRecord
100
AcDbTextStyleTableRecord
  2
Text__1.3mm
 70
     0
 40
0.0
 41
0.899999976158142
 50
0.0
 71
     0
 42
0.2
  3
ARIAL.TTF
  4

1001
ACAD
1000
Arial
1071
      256
  0
STYLE
  5
CC
330
3
100
AcDbSymbolTableRecord
100
AcDbTextStyleTableRecord
  2
Text__1.5mm
 70
     0
 40
0.0
 41
0.899999976158142
 50
0.0
 71
     0
 42
0.2
  3
ARIAL.TTF
  4

1001
ACAD
1000
Arial
1071
      256
  0
STYLE
  5
CD
330
3
100
AcDbSymbolTableRecord
100
AcDbTextStyleTableRecord
  2
Text__3.5mm
 70
     0
 40
0.0
 41
0.899999976158142
 50
0.0
 71
     0
 42
0.2
  3
ARIAL.TTF
  4

1001
ACAD
1000
Arial
1071
      256
  0
STYLE
  5
CE
330
3
100
AcDbSymbolTableRecord
100
AcDbTextStyleTableRecord
  2
Text__3.5mmBigText
 70
     0
 40
0.0
 41
0.899999976158142
 50
0.0
 71
     0
 42
0.2
  3
ARIAL.TTF
  4

1001
ACAD
1000
Arial
1071
      256
  0
STYLE
  5
CF
330
3
100
AcDbSymbolTableRecord
100
AcDbTextStyleTableRecord
  2
Text__3.5mmByLayer
 70
     0
 40
0.0
 41
0.899999976158142
 50
0.0
 71
     0
 42
0.2
  3
ARIAL.TTF
  4

1001
ACAD
1000
Arial
1071
      256
  0
STYLE
  5
D0
330
3
100
AcDbSymbolTableRecord
100
AcDbTextStyleTableRecord
  2
Text__5.0mm
 70
     0
 40
0.0
 41
0.899999976158142
 50
0.0
 71
     0
 42
0.2
  3
ARIAL.TTF
  4

1001
ACAD
1000
Arial
1071
      256
  0
STYLE
  5
D1
330
3
100
AcDbSymbolTableRecord
100
AcDbTextStyleTableRecord
  2
Text__5.0mmByLayer
 70
     0
 40
0.0
 41
0.899999976158142
 50
0.0
 71
     0
 42
0.2
  3
ARIAL.TTF
  4

1001
ACAD
1000
Arial
1071
      256
  0
STYLE
  5
D2
330
3
100
AcDbSymbolTableRecord
100
AcDbTextStyleTableRecord
  2
Text_2.5mm
 70
     0
 40
0.0
 41
0.899999976158142
 50
0.0
 71
     0
 42
0.2
  3
ARIAL.TTF
  4

1001
ACAD
1000
Arial
1071
      256
  0
STYLE
  5
D3
330
3
100
AcDbSymbolTableRecord
100
AcDbTextStyleTableRecord
  2
Text_3.5mm
 70
     0
 40
0.0
 41
0.899999976158142
 50
0.0
 71
     0
 42
0.2
  3
ARIAL.TTF
  4

1001
ACAD
1000
Arial
1071
      256
  0
STYLE
  5
D4
330
3
100
AcDbSymbolTableRecord
100
AcDbTextStyleTableRecord
  2
Text_5.0mm
 70
     0
 40
0.0
 41
0.899999976158142
 50
0.0
 71
     0
 42
0.2
  3
ARIAL.TTF
  4

1001
ACAD
1000
Arial
1071
      256
  0
STYLE
  5
D5
330
3
100
AcDbSymbolTableRecord
100
AcDbTextStyleTableRecord
  2
Text_5.0mmByLayer
 70
     0
 40
0.0
 41
0.899999976158142
 50
0.0
 71
     0
 42
0.2
  3
ARIAL.TTF
  4

1001
ACAD
1000
Arial
1071
      256
  0
STYLE
  5
10E
330
3
100
AcDbSymbolTableRecord
100
AcDbTextStyleTableRecord
  2
Text Style20
 70
     0
 40
0.0
 41
1.0
 50
0.0
 71
     0
 42
0.2
  3
ARIAL.TTF
  4

1001
ACAD
1000
Arial
1071
      256
  0
STYLE
  5
113
330
3
100
AcDbSymbolTableRecord
100
AcDbTextStyleTableRecord
  2
Text Style9
 70
     0
 40
0.0
 41
1.0
 50
0.0
 71
     0
 42
0.2
  3
ARIAL.TTF
  4

1001
ACAD
1000
Arial
1071
      256
  0
STYLE
  5
115
330
3
100
AcDbSymbolTableRecord
100
AcDbTextStyleTableRecord
  2
Text Style40
 70
     0
 40
0.0
 41
1.0
 50
0.0
 71
     0
 42
0.2
  3
ARIAL.TTF
  4

1001
ACAD
1000
Arial
1071
      256
  0
ENDTAB
  0
TABLE
  2
VIEW
  5
6
330
0
100
AcDbSymbolTable
 70
     0
  0
ENDTAB
  0
TABLE
  2
UCS
  5
7
330
0
100
AcDbSymbolTable
 70
     0
  0
ENDTAB
  0
TABLE
  2
APPID
  5
9
330
0
100
AcDbSymbolTable
 70
     4
  0
APPID
  5
61
330
9
100
AcDbSymbolTableRecord
100
AcDbRegAppTableRecord
  2
ACAD
 70
     0
  0
APPID
  5
69
330
9
100
AcDbSymbolTableRecord
100
AcDbRegAppTableRecord
  2
AcadAnnotative
 70
     0
  0
APPID
  5
112
330
9
100
AcDbSymbolTableRecord
100
AcDbRegAppTableRecord
  2
AcadAnnoPO
 70
     0
  0
APPID
  5
563
330
9
100
AcDbSymbolTableRecord
100
AcDbRegAppTableRecord
  2
ACAD_MLEADERVER
 70
     0
  0
ENDTAB
  0
TABLE
  2
DIMSTYLE
  5
A
330
0
100
AcDbSymbolTable
 70
    17
100
AcDbDimStyleTable
 71
     2
340
D6
340
63
  0
DIMSTYLE
105
63
330
A
100
AcDbSymbolTableRecord
100
AcDbDimStyleTableRecord
  2
Standard
 70
     0
340
60
  0
DIMSTYLE
105
64
330
A
100
AcDbSymbolTableRecord
100
AcDbDimStyleTableRecord
  2
Annotative
 70
     0
340
60
1001
AcadAnnotative
1000
AnnotativeData
1002
{
1070
     1
1070
     1
1002
}
  0
DIMSTYLE
105
D6
102
{ACAD_REACTORS
330
339
330
41C
102
}
330
A
100
AcDbSymbolTableRecord
100
AcDbDimStyleTableRecord
  2
KS-Marketing
 70
     0
 40
10.0
 41
3.5
 42
0.0
 43
12.0
 44
3.174999999999999
 45
0.00000001
 46
10.0
 73
     0
 74
     0
 77
     1
 78
     8
 79
     2
140
5.0
143
0.03937
146
0.7
147
0.8
171
     3
172
     1
176
     7
177
     7
178
     7
271
     1
274
     3
278
    44
284
     8
286
     8
340
D0
371
    25
372
    25
  0
DIMSTYLE
105
D7
330
A
100
AcDbSymbolTableRecord
100
AcDbDimStyleTableRecord
  2
KS-Marketing$7
 70
     0
 40
10.0
 41
5.0
 42
0.0
 43
12.0
 44
3.174999999999999
 45
0.00000001
 46
10.0
 73
     0
 74
     0
 77
     1
 78
     8
 79
     2
140
5.0
143
0.03937
146
0.7
147
0.8
171
     3
172
     1
176
     7
177
     7
178
     7
271
     1
274
     3
278
    44
284
     8
286
     8
340
D0
371
    25
372
    25
  0
DIMSTYLE
105
D8
330
A
100
AcDbSymbolTableRecord
100
AcDbDimStyleTableRecord
  2
KS-STANDARD
 70
     0
 40
10.0
 41
2.5
 42
0.0
 43
12.0
 44
3.174999999999999
 45
0.00000001
 46
10.0
 73
     0
 74
     0
 77
     1
 78
     8
 79
     2
140
3.5
143
0.03937
146
0.7142857142857144
147
0.8
171
     3
172
     1
176
     7
177
     7
178
     7
271
     1
274
     3
278
    44
284
     8
286
     8
340
D3
371
    25
372
    25
  0
DIMSTYLE
105
D9
330
A
100
AcDbSymbolTableRecord
100
AcDbDimStyleTableRecord
  2
KS-STANDARD$7
 70
     0
 40
10.0
 41
2.5
 42
0.0
 43
12.0
 44
3.174999999999999
 45
0.00000001
 46
10.0
 73
     0
 74
     0
 77
     1
 78
     8
 79
     2
140
3.5
143
0.03937
146
0.7142857142857144
147
0.8
171
     3
172
     1
176
     7
177
     7
178
     7
271
     1
274
     3
278
    44
284
     8
286
     8
340
D3
371
    25
372
    25
  0
DIMSTYLE
105
DA
330
A
100
AcDbSymbolTableRecord
100
AcDbDimStyleTableRecord
  2
KS-STANDARDBigText
 70
     0
 40
10.0
 41
5.0
 42
0.0
 43
12.0
 44
3.174999999999999
 45
0.00000001
 46
10.0
 73
     0
 74
     0
 77
     1
 78
     8
 79
     2
140
5.25
143
0.03937
146
0.4761904761904762
147
0.8
171
     3
172
     1
176
     7
177
     7
178
     7
271
     1
274
     3
278
    44
284
     8
286
     8
340
CE
371
    25
372
    25
  0
DIMSTYLE
105
DB
330
A
100
AcDbSymbolTableRecord
100
AcDbDimStyleTableRecord
  2
KS-STANDARDBigText$7
 70
     0
 40
10.0
 41
5.0
 42
0.0
 43
12.0
 44
3.174999999999999
 45
0.00000001
 46
10.0
 73
     0
 74
     0
 77
     1
 78
     8
 79
     2
140
5.25
143
0.03937
146
0.4761904761904762
147
0.8
171
     3
172
     1
176
     7
177
     7
178
     7
271
     1
274
     3
278
    44
284
     8
286
     8
340
CE
371
    25
372
    25
  0
DIMSTYLE
105
E6
330
A
100
AcDbSymbolTableRecord
100
AcDbDimStyleTableRecord
  2
Leader-Datum(DIN)
 70
     0
 40
10.0
 41
2.5
340
60
342
E7
  0
DIMSTYLE
105
EE
330
A
100
AcDbSymbolTableRecord
100
AcDbDimStyleTableRecord
  2
Leader-Datum(ISO)
 70
     0
 40
10.0
 41
2.5
340
60
342
E7
  0
DIMSTYLE
105
EF
330
A
100
AcDbSymbolTableRecord
100
AcDbDimStyleTableRecord
  2
Leader-Dot(DIN)
 70
     0
 40
10.0
 41
2.5
340
60
342
E7
  0
DIMSTYLE
105
F0
330
A
100
AcDbSymbolTableRecord
100
AcDbDimStyleTableRecord
  2
Leader-Dot(ISO)
 70
     0
 40
10.0
 41
2.5
340
60
342
E7
  0
DIMSTYLE
105
F1
330
A
100
AcDbSymbolTableRecord
100
AcDbDimStyleTableRecord
  2
Leader-Large(DIN)
 70
     0
 40
10.0
 41
5.0
340
60
342
E7
  0
DIMSTYLE
105
F2
330
A
100
AcDbSymbolTableRecord
100
AcDbDimStyleTableRecord
  2
Leader-OriginIndicator(DIN)
 70
     0
 40
10.0
 41
2.5
340
60
342
E7
  0
DIMSTYLE
105
F3
330
A
100
AcDbSymbolTableRecord
100
AcDbDimStyleTableRecord
  2
Leader-OriginIndicator(ISO)
 70
     0
 40
10.0
 41
2.5
340
60
342
E7
  0
DIMSTYLE
105
F4
330
A
100
AcDbSymbolTableRecord
100
AcDbDimStyleTableRecord
  2
Leader(DIN)
 70
     0
 40
10.0
 41
2.5
340
60
342
E7
  0
DIMSTYLE
105
F5
330
A
100
AcDbSymbolTableRecord
100
AcDbDimStyleTableRecord
  2
Leader(ISO)
 70
     0
 40
10.0
 41
2.5
340
60
342
E7
  0
ENDTAB
  0
TABLE
  2
BLOCK_RECORD
  5
1
330
0
100
AcDbSymbolTable
 70
     7
  0
BLOCK_RECORD
  5
77
330
1
100
AcDbSymbolTableRecord
100
AcDbBlockTableRecord
  2
*Model_Space
340
7A
  0
BLOCK_RECORD
  5
73
330
1
100
AcDbSymbolTableRecord
100
AcDbBlockTableRecord
  2
*Paper_Space
340
76
  0
BLOCK_RECORD
  5
7B
330
1
100
AcDbSymbolTableRecord
100
AcDbBlockTableRecord
  2
*Paper_Space0
340
7E
  0
BLOCK_RECORD
  5
DC
330
1
100
AcDbSymbolTableRecord
100
AcDbBlockTableRecord
  2
DatumFilled45
340
0
  0
BLOCK_RECORD
  5
E7
330
1
100
AcDbSymbolTableRecord
100
AcDbBlockTableRecord
  2
_Closed
340
0
  0
BLOCK_RECORD
  5
F6
330
1
100
AcDbSymbolTableRecord
100
AcDbBlockTableRecord
  2
Title Blocks FKT-Marketing
340
0
102
{BLKREFS
331
11B
102
}
  0
BLOCK_RECORD
  5
126
330
1
100
AcDbSymbolTableRecord
100
AcDbBlockTableRecord
  2
Borders Marketing Border
340
0
102
{BLKREFS
331
12D
102
}
  0
BLOCK_RECORD
  5
33B
330
1
100
AcDbSymbolTableRecord
100
AcDbBlockTableRecord
  2
*D5
340
0
  0
BLOCK_RECORD
  5
41D
330
1
100
AcDbSymbolTableRecord
100
AcDbBlockTableRecord
  2
*D6
340
0
  0
ENDTAB
  0
ENDSEC
  0
SECTION
  2
BLOCKS
  0
BLOCK
  5
78
330
77
100
AcDbEntity
  8
0
100
AcDbBlockBegin
  2
*Model_Space
 70
     0
 10
0.0
 20
0.0
 30
0.0
  3
*Model_Space
  1

  0
ENDBLK
  5
79
330
77
100
AcDbEntity
  8
0
100
AcDbBlockEnd
  0
BLOCK
  5
74
330
73
100
AcDbEntity
 67
     1
  8
0
100
AcDbBlockBegin
  2
*Paper_Space
 70
     0
 10
0.0
 20
0.0
 30
0.0
  3
*Paper_Space
  1

  0
ENDBLK
  5
75
330
73
100
AcDbEntity
 67
     1
  8
0
100
AcDbBlockEnd
  0
BLOCK
  5
7C
330
7B
100
AcDbEntity
 67
     1
  8
0
100
AcDbBlockBegin
  2
*Paper_Space0
 70
     0
 10
0.0
 20
0.0
 30
0.0
  3
*Paper_Space0
  1

  0
ENDBLK
  5
7D
330
7B
100
AcDbEntity
 67
     1
  8
0
100
AcDbBlockEnd
  0
BLOCK
  5
DD
330
DC
100
AcDbEntity
  8
0
100
AcDbBlockBegin
  2
DatumFilled45
 70
     0
 10
0.0
 20
0.0
 30
0.0
  3
DatumFilled45
  1

  0
POLYLINE
  5
DF
330
DC
100
AcDbEntity
  8
0
 62
     0
100
AcDb2dPolyline
 66
     1
 10
0.0
 20
0.0
 30
0.0
 70
   128
  0
VERTEX
  5
E0
330
DF
100
AcDbEntity
  8
0
 62
     0
100
AcDbVertex
100
AcDb2dVertex
 10
0.0
 20
1.0
 30
0.0
  0
VERTEX
  5
E1
330
DF
100
AcDbEntity
  8
0
 62
     0
100
AcDbVertex
100
AcDb2dVertex
 10
0.0
 20
-1.0
 30
0.0
  0
VERTEX
  5
E3
330
DF
100
AcDbEntity
  8
0
 62
     0
100
AcDbVertex
100
AcDb2dVertex
 10
-1.0
 20
0.0
 30
0.0
  0
VERTEX
  5
E4
330
DF
100
AcDbEntity
  8
0
 62
     0
100
AcDbVertex
100
AcDb2dVertex
 10
0.0
 20
1.0
 30
0.0
  0
SEQEND
  5
E2
330
DF
100
AcDbEntity
  8
0
 62
     0
  0
SOLID
  5
E5
330
DC
100
AcDbEntity
  8
0
 62
     0
100
AcDbTrace
 10
0.0
 20
1.0
 30
0.0
 11
0.0
 21
-1.0
 31
0.0
 12
-1.0
 22
0.0
 32
0.0
 13
0.0
 23
1.0
 33
0.0
  0
ENDBLK
  5
DE
330
DC
100
AcDbEntity
  8
0
100
AcDbBlockEnd
  0
BLOCK
  5
EC
330
E7
100
AcDbEntity
  8
0
100
AcDbBlockBegin
  2
_Closed
 70
     0
 10
0.0
 20
0.0
 30
0.0
  3
_Closed
  1

  0
LINE
  5
E8
330
E7
100
AcDbEntity
  8
0
  6
ByBlock
 62
     0
370
    -2
100
AcDbLine
 10
-1.0
 20
0.1666666666666666
 30
0.0
 11
0.0
 21
0.0
 31
0.0
  0
LINE
  5
E9
330
E7
100
AcDbEntity
  8
0
  6
ByBlock
 62
     0
370
    -2
100
AcDbLine
 10
0.0
 20
0.0
 30
0.0
 11
-1.0
 21
-0.1666666666666666
 31
0.0
  0
LINE
  5
EA
330
E7
100
AcDbEntity
  8
0
  6
ByBlock
 62
     0
370
    -2
100
AcDbLine
 10
-1.0
 20
0.1666666666666666
 30
0.0
 11
-1.0
 21
-0.1666666666666666
 31
0.0
  0
LINE
  5
EB
330
E7
100
AcDbEntity
  8
0
  6
ByBlock
 62
     0
370
    -2
100
AcDbLine
 10
0.0
 20
0.0
 30
0.0
 11
-1.0
 21
0.0
 31
0.0
  0
ENDBLK
  5
ED
330
E7
100
AcDbEntity
  8
0
100
AcDbBlockEnd
  0
BLOCK
  5
F7
330
F6
100
AcDbEntity
  8
0
100
AcDbBlockBegin
  2
Title Blocks FKT-Marketing
 70
     2
 10
0.0
 20
0.0
 30
0.0
  3
Title Blocks FKT-Marketing
  1

  0
LINE
  5
F9
330
F6
100
AcDbEntity
  8
Sketch Geometry(DIN)
  6
Continuous
 62
     7
370
    50
100
AcDbLine
 10
97.44584133029604
 20
102.3483016652058
 30
0.0
 11
287.445841330296
 21
102.3483016652058
 31
0.0
  0
LINE
  5
FA
330
F6
100
AcDbEntity
  8
Sketch Geometry(DIN)
  6
Continuous
 62
     7
370
    25
100
AcDbLine
 10
279.9458413302961
 20
118.3483016652058
 30
0.0
 11
279.9458413302961
 21
102.3483016652058
 31
0.0
  0
LINE
  5
FB
330
F6
100
AcDbEntity
  8
Sketch Geometry(DIN)
  6
Continuous
 62
     7
370
    50
100
AcDbLine
 10
97.44584133029604
 20
118.3483016652057
 30
0.0
 11
287.445841330296
 21
118.3483016652058
 31
0.0
  0
LINE
  5
FC
330
F6
100
AcDbEntity
  8
Sketch Geometry(DIN)
  6
Continuous
 62
     7
370
    18
100
AcDbLine
 10
97.44584133029604
 20
109.8483016652057
 30
0.0
 11
152.945841330296
 21
109.8483016652057
 31
0.0
  0
LINE
  5
FD
330
F6
100
AcDbEntity
  8
Sketch Geometry(DIN)
  6
Continuous
 62
     7
370
    18
100
AcDbLine
 10
97.44584133029604
 20
114.0983016652057
 30
0.0
 11
152.945841330296
 21
114.0983016652057
 31
0.0
  0
LINE
  5
FE
330
F6
100
AcDbEntity
  8
Sketch Geometry(DIN)
  6
Continuous
 62
     7
370
    18
100
AcDbLine
 10
109.445841330296
 20
118.3483016652057
 30
0.0
 11
109.445841330296
 21
109.8483016652057
 31
0.0
  0
LINE
  5
FF
330
F6
100
AcDbEntity
  8
Sketch Geometry(DIN)
  6
Continuous
 62
     7
370
    50
100
AcDbLine
 10
97.44584133029604
 20
118.3483016652057
 30
0.0
 11
97.44584133029604
 21
102.3483016652058
 31
0.0
  0
LINE
  5
100
330
F6
100
AcDbEntity
  8
Sketch Geometry(DIN)
  6
Continuous
 62
     7
370
    50
100
AcDbLine
 10
177.945841330296
 20
102.3483016652058
 30
0.0
 11
177.945841330296
 21
118.3483016652057
 31
0.0
  0
LINE
  5
101
330
F6
100
AcDbEntity
  8
Sketch Geometry(DIN)
  6
Continuous
 62
     7
370
    50
100
AcDbLine
 10
287.445841330296
 20
102.3483016652058
 30
0.0
 11
287.445841330296
 21
118.3483016652058
 31
0.0
  0
LINE
  5
102
330
F6
100
AcDbEntity
  8
Sketch Geometry(DIN)
  6
Continuous
 62
     7
370
    50
100
AcDbLine
 10
152.945841330296
 20
118.3483016652057
 30
0.0
 11
152.945841330296
 21
102.3483016652058
 31
0.0
  0
LINE
  5
103
330
F6
100
AcDbEntity
  8
Sketch Geometry(DIN)
  6
Continuous
 62
     7
370
    25
100
AcDbLine
 10
272.4458413302961
 20
118.3483016652058
 30
0.0
 11
272.4458413302961
 21
102.3483016652058
 31
0.0
  0
LINE
  5
104
330
F6
100
AcDbEntity
  8
Sketch Geometry(DIN)
  6
Continuous
 62
     7
370
    18
100
AcDbLine
 10
137.445841330296
 20
114.0983016652057
 30
0.0
 11
137.445841330296
 21
118.3483016652057
 31
0.0
  0
LINE
  5
105
330
F6
100
AcDbEntity
  8
Sketch Geometry(DIN)
  6
Continuous
 62
     7
370
    18
100
AcDbLine
 10
147.445841330296
 20
114.0983016652057
 30
0.0
 11
147.445841330296
 21
118.3483016652057
 31
0.0
  0
MTEXT
  5
106
330
F6
100
AcDbEntity
  8
Symbole(DIN)
 62
     7
100
AcDbMText
 10
98.04584133029607
 20
111.9733016652057
 30
0.0
 40
1.49859994649887
 41
13.67019921938464
 71
     4
 72
     1
  1
Drawn Date
  7
Text__1.5mm
 73
     1
 44
1.0
1001
ACAD
1000
MTEXTBEGIN
1070
    73
1070
     1
1070
    44
1040
1.0
1070
    74
1070
     0
1000
MTEXTEND
  0
MTEXT
  5
108
330
F6
100
AcDbEntity
  8
Symbole(DIN)
 62
     7
100
AcDbMText
 10
98.04584133029607
 20
105.8109795525361
 30
0.0
 40
1.299999952316284
 41
53.94504070281982
 71
     4
 72
     1
  1
\fArial|b0|i0;These drawings and specifications are the property of NIRO-Plan AG and shall not be reproduced, copied or transfered to any third party without the prior written permission of NIRO-Plan AG, Aarburg, Switzerland
  7
Text__1.3mm
 73
     2
 44
0.9442214369773864
1001
ACAD
1000
MTEXTBEGIN
1070
    73
1070
     2
1070
    44
1040
0.9442214369773864
1070
    74
1070
     0
1000
MTEXTEND
  0
MTEXT
  5
109
330
F6
100
AcDbEntity
  8
Symbole(DIN)
 62
     7
100
AcDbMText
 10
98.04584133029607
 20
116.2233016652057
 30
0.0
 40
1.49859994649887
 41
15.73208693730343
 71
     4
 72
     1
  1
\fArial|b0|i0;Drawing No.
  7
Text__1.5mm
 73
     1
 44
1.0
1001
ACAD
1000
MTEXTBEGIN
1070
    73
1070
     1
1070
    44
1040
1.0
1070
    74
1070
     0
1000
MTEXTEND
  0
MTEXT
  5
10A
330
F6
100
AcDbEntity
  8
Symbole(DIN)
 62
     7
100
AcDbMText
 10
283.695841330296
 20
116.3483016652058
 30
0.0
 40
1.49859994649887
 41
6.68705082292643
 71
     5
 72
     1
  1
Sheets
  7
Text__1.5mm
 73
     1
 44
1.0
1001
ACAD
1000
MTEXTBEGIN
1070
    73
1070
     1
1070
    44
1040
1.0
1070
    74
1070
     0
1000
MTEXTEND
  0
MTEXT
  5
10B
330
F6
100
AcDbEntity
  8
Symbole(DIN)
 62
     7
100
AcDbMText
 10
142.445841330296
 20
116.2233016652057
 30
0.0
 40
1.49859994649887
 41
13.47054972792548
 71
     5
 72
     1
  1
Revision
  7
Text__1.5mm
 73
     1
 44
1.0
1001
ACAD
1000
MTEXTBEGIN
1070
    73
1070
     1
1070
    44
1040
1.0
1070
    74
1070
     0
1000
MTEXTEND
  0
MTEXT
  5
10C
102
{ACAD_XDICTIONARY
360
56A
102
}
330
F6
100
AcDbEntity
  8
Symbole(DIN)
 62
     7
100
AcDbMText
 10
154.445841330296
 20
110.1134100823045
 30
0.0
 40
1.49859994649887
 41
34.18349976595322
 71
     4
 72
     1
  1
\fArial|b0|i0;\H1.4986;Franke K\U+00FCchentechnik AG\PCH-4663 Aarburg\PPhone:  +41 62 787 31 31\PInternet :  www.franke.com
  7
Text__3.5mm
 73
     2
 44
0.9442214369773864
1001
ACAD
1000
MTEXTBEGIN
1070
    73
1070
     2
1070
    44
1040
0.9442214369773864
1070
    74
1070
     0
1000
MTEXTEND
  0
MTEXT
  5
10D
330
F6
100
AcDbEntity
  8
Symbole(DIN)
 62
     7
100
AcDbMText
 10
276.1958413302961
 20
116.3483016652058
 30
0.0
 40
1.49859994649887
 41
6.68705082292643
 71
     5
 72
     1
  1
Sheet
  7
Text__1.5mm
 73
     1
 44
1.0
1001
ACAD
1000
MTEXTBEGIN
1070
    73
1070
     1
1070
    44
1040
1.0
1070
    74
1070
     0
1000
MTEXTEND
  0
ATTDEF
  5
10F
102
{ACAD_XDICTIONARY
360
50D
102
}
330
F6
100
AcDbEntity
  8
Symbole(DIN)
 62
     7
100
AcDbText
 10
179.1320623398458
 20
110.600006985806
 30
0.0
 40
5.0
  1
Sorter300-45EU
  7
Text Style20
100
AcDbAttributeDefinition
  3
Title
  2
Title_001
 70
     0
  0
ATTDEF
  5
114
102
{ACAD_XDICTIONARY
360
510
102
}
330
F6
100
AcDbEntity
  8
Symbole(DIN)
 62
     7
100
AcDbText
 10
179.1211482935336
 20
104.6127969113486
 30
0.0
 40
3.499999940395355
  1
installing document
  7
Text Style9
100
AcDbAttributeDefinition
  3
Auxiliary_Remark1
  2
Auxiliary_Remark1_001
 70
     0
  0
ATTDEF
  5
116
102
{ACAD_XDICTIONARY
360
513
102
}
330
F6
100
AcDbEntity
  8
Symbole(DIN)
 62
     7
100
AcDbText
 10
150.195841330296
 20
115.2233016503045
 30
0.0
 40
2.000000029802322
  1

  7
Text Style40
 72
     1
 11
150.195841330296
 21
116.2233016652057
 31
0.0
100
AcDbAttributeDefinition
  3
Revision_Index_1
  2
Revision_Index_1
 70
     0
 74
     2
  0
ATTDEF
  5
117
102
{ACAD_XDICTIONARY
360
516
102
}
330
F6
100
AcDbEntity
  8
Symbole(DIN)
 62
     7
100
AcDbText
 10
109.9298795277495
 20
115.2362620870597
 30
0.0
 40
2.000000029802322
  1
0056-195611
  7
Text Style40
100
AcDbAttributeDefinition
  3
Document_Number
  2
Document_Number_001
 70
     0
  0
ATTDEF
  5
118
102
{ACAD_XDICTIONARY
360
519
102
}
330
F6
100
AcDbEntity
  8
Symbole(DIN)
 62
     7
100
AcDbText
 10
109.9639859402632
 20
110.9862620870597
 30
0.0
 40
2.000000029802322
  1
21.06.2011
  7
Text Style40
100
AcDbAttributeDefinition
  3
Drawn_Date
  2
Drawn_Date_001
 70
     0
  0
ATTDEF
  5
119
102
{ACAD_XDICTIONARY
360
51C
102
}
330
F6
100
AcDbEntity
  8
Symbole(DIN)
 62
     7
100
AcDbText
 10
274.9584607027381
 20
105.8824080772112
 30
0.0
 40
5.0
  1
3
 41
0.9
  7
Text__5.0mm
100
AcDbAttributeDefinition
  3
Sheet number
  2
Sheet_number_001
 70
     0
  0
ATTDEF
  5
11A
102
{ACAD_XDICTIONARY
360
51F
102
}
330
F6
100
AcDbEntity
  8
Symbole(DIN)
 62
     7
100
AcDbText
 10
282.4431128173356
 20
105.8909346802126
 30
0.0
 40
5.0
  1
5
 41
0.9
  7
Text__5.0mm
100
AcDbAttributeDefinition
  3
Number of sheets
  2
Number_of_sheets_001
 70
     0
  0
ENDBLK
  5
F8
330
F6
100
AcDbEntity
  8
0
100
AcDbBlockEnd
  0
BLOCK
  5
127
330
126
100
AcDbEntity
  8
0
100
AcDbBlockBegin
  2
Borders Marketing Border
 70
     0
 10
0.0
 20
0.0
 30
0.0
  3
Borders Marketing Border
  1

  0
LINE
  5
129
330
126
100
AcDbEntity
  8
Sketch Geometry(ISO)
100
AcDbLine
 10
10.0
 20
287.0
 30
0.0
 11
200.0
 21
287.0
 31
0.0
  0
LINE
  5
12A
330
126
100
AcDbEntity
  8
Sketch Geometry(ISO)
100
AcDbLine
 10
200.0
 20
287.0
 30
0.0
 11
200.0
 21
10.00000000000003
 31
0.0
  0
LINE
  5
12B
330
126
100
AcDbEntity
  8
Sketch Geometry(ISO)
100
AcDbLine
 10
200.0
 20
10.00000000000002
 30
0.0
 11
10.00000000000007
 21
10.0
 31
0.0
  0
LINE
  5
12C
330
126
100
AcDbEntity
  8
Sketch Geometry(ISO)
100
AcDbLine
 10
10.00000000000005
 20
10.0
 30
0.0
 11
10.0
 21
287.0
 31
0.0
  0
ENDBLK
  5
128
330
126
100
AcDbEntity
  8
0
100
AcDbBlockEnd
  0
BLOCK
  5
33C
330
33B
100
AcDbEntity
  8
0
100
AcDbBlockBegin
  2
*D5
 70
     1
 10
0.0
 20
0.0
 30
0.0
  3
*D5
  1

  0
LINE
  5
413
330
33B
100
AcDbEntity
  8
Dimensions(ISO)
  6
Continuous
 62
     7
370
    25
100
AcDbLine
 10
490.2998436983112
 20
1332.931040546234
 30
0.0
 11
319.6467483632265
 21
1332.931040546234
 31
0.0
  0
LINE
  5
414
330
33B
100
AcDbEntity
  8
Dimensions(ISO)
  6
Continuous
 62
     7
370
    25
100
AcDbLine
 10
490.2998436983165
 20
1003.367040953147
 30
0.0
 11
319.6467483632264
 21
1003.367040953147
 31
0.0
  0
LINE
  5
415
330
33B
100
AcDbEntity
  8
Dimensions(ISO)
  6
Continuous
 62
     7
370
    25
100
AcDbLine
 10
351.3967483632264
 20
1297.931040546234
 30
0.0
 11
351.3967483632264
 21
1038.367040953147
 31
0.0
  0
SOLID
  5
416
330
33B
100
AcDbEntity
  8
Dimensions(ISO)
  6
Continuous
 62
     7
100
AcDbTrace
 10
345.5634150298931
 20
1297.931040546234
 30
0.0
 11
357.2300816965598
 21
1297.931040546234
 31
0.0
 12
351.3967483632264
 22
1332.931040546234
 32
0.0
 13
351.3967483632264
 23
1332.931040546234
 33
0.0
  0
SOLID
  5
417
330
33B
100
AcDbEntity
  8
Dimensions(ISO)
  6
Continuous
 62
     7
100
AcDbTrace
 10
345.563415029893
 20
1038.367040953147
 30
0.0
 11
357.2300816965597
 21
1038.367040953147
 31
0.0
 12
351.3967483632264
 22
1003.367040953147
 32
0.0
 13
351.3967483632264
 23
1003.367040953147
 33
0.0
  0
MTEXT
  5
418
330
33B
100
AcDbEntity
  8
Dimensions(ISO)
  6
Continuous
 62
     7
370
    25
100
AcDbMText
 10
317.8510457711389
 20
1118.529328558025
 30
0.0
 40
50.0
 41
0.0
 71
     4
 72
     1
  1
\A1;330
  7
Text__5.0mm
 11
0.0000000000000001
 21
1.0
 31
0.0
 73
     1
 44
1.0
1001
ACAD
1000
MTEXTBEGIN
1070
    73
1070
     1
1070
    44
1040
1.0
1070
    74
1070
     0
1000
MTEXTEND
  0
POINT
  5
419
330
33B
100
AcDbEntity
  8
Defpoints
  6
Continuous
 62
     0
100
AcDbPoint
 10
490.2998436983112
 20
1332.931040546234
 30
0.0
  0
POINT
  5
41A
330
33B
100
AcDbEntity
  8
Defpoints
  6
Continuous
 62
     0
100
AcDbPoint
 10
490.2998436983165
 20
1003.367040953147
 30
0.0
  0
POINT
  5
41B
330
33B
100
AcDbEntity
  8
Defpoints
  6
Continuous
 62
     0
100
AcDbPoint
 10
351.3967483632264
 20
1003.367040953147
 30
0.0
  0
ENDBLK
  5
33D
330
33B
100
AcDbEntity
  8
0
100
AcDbBlockEnd
  0
BLOCK
  5
41E
330
41D
100
AcDbEntity
  8
0
100
AcDbBlockBegin
  2
*D6
 70
     1
 10
0.0
 20
0.0
 30
0.0
  3
*D6
  1

  0
LINE
  5
4F5
330
41D
100
AcDbEntity
  8
Dimensions(ISO)
  6
Continuous
 62
     7
370
    25
100
AcDbLine
 10
457.665250838937
 20
1035.680246369664
 30
0.0
 11
457.665250838937
 21
848.6165254206616
 31
0.0
  0
LINE
  5
4F6
330
41D
100
AcDbEntity
  8
Dimensions(ISO)
  6
Continuous
 62
     7
370
    25
100
AcDbLine
 10
833.5128536093044
 20
1035.68024636967
 30
0.0
 11
833.5128536093044
 21
848.6165254206616
 31
0.0
  0
LINE
  5
4F7
330
41D
100
AcDbEntity
  8
Dimensions(ISO)
  6
Continuous
 62
     7
370
    25
100
AcDbLine
 10
492.6652508389371
 20
880.3665254206615
 30
0.0
 11
798.5128536093044
 21
880.3665254206615
 31
0.0
  0
SOLID
  5
4F8
330
41D
100
AcDbEntity
  8
Dimensions(ISO)
  6
Continuous
 62
     7
100
AcDbTrace
 10
492.6652508389371
 20
886.1998587539948
 30
0.0
 11
492.6652508389371
 21
874.5331920873281
 31
0.0
 12
457.665250838937
 22
880.3665254206615
 32
0.0
 13
457.665250838937
 23
880.3665254206615
 33
0.0
  0
SOLID
  5
4F9
330
41D
100
AcDbEntity
  8
Dimensions(ISO)
  6
Continuous
 62
     7
100
AcDbTrace
 10
798.5128536093044
 20
886.1998587539948
 30
0.0
 11
798.5128536093044
 21
874.5331920873281
 31
0.0
 12
833.5128536093044
 22
880.3665254206615
 32
0.0
 13
833.5128536093044
 23
880.3665254206615
 33
0.0
  0
MTEXT
  5
4FA
330
41D
100
AcDbEntity
  8
Dimensions(ISO)
  6
Continuous
 62
     7
370
    25
100
AcDbMText
 10
595.9079484924716
 20
913.9122280127489
 30
0.0
 40
50.0
 41
0.0
 71
     4
 72
     1
  1
\A1;376
  7
Text__5.0mm
 73
     1
 44
1.0
1001
ACAD
1000
MTEXTBEGIN
1070
    73
1070
     1
1070
    44
1040
1.0
1070
    74
1070
     0
1000
MTEXTEND
  0
POINT
  5
4FB
330
41D
100
AcDbEntity
  8
Defpoints
  6
Continuous
 62
     0
100
AcDbPoint
 10
457.665250838937
 20
1035.680246369664
 30
0.0
  0
POINT
  5
4FC
330
41D
100
AcDbEntity
  8
Defpoints
  6
Continuous
 62
     0
100
AcDbPoint
 10
833.5128536093044
 20
1035.68024636967
 30
0.0
  0
POINT
  5
4FD
330
41D
100
AcDbEntity
  8
Defpoints
  6
Continuous
 62
     0
100
AcDbPoint
 10
833.5128536093044
 20
880.3665254206615
 30
0.0
  0
ENDBLK
  5
41F
330
41D
100
AcDbEntity
  8
0
100
AcDbBlockEnd
  0
ENDSEC
  0
SECTION
  2
ENTITIES
  0
INSERT
  5
11B
330
77
100
AcDbEntity
  8
0
100
AcDbBlockReference
 66
     1
  2
Title Blocks FKT-Marketing
 10
-874.4584133029604
 20
-923.483016652058
 30
0.0
 41
10.0
 42
10.0
 43
10.0
  0
ATTRIB
  5
11D
102
{ACAD_XDICTIONARY
360
522
102
}
330
11B
100
AcDbEntity
  8
Symbole(DIN)
 62
     7
100
AcDbText
 10
916.862210095498
 20
182.5170532060021
 30
0.0
 40
50.0
  1
Sorter300-45EU
  7
Text Style20
100
AcDbAttribute
  2
Title_001
 70
     0
  0
ATTRIB
  5
11E
102
{ACAD_XDICTIONARY
360
525
102
}
330
11B
100
AcDbEntity
  8
Symbole(DIN)
 62
     7
100
AcDbText
 10
916.7530696323753
 20
122.6449524614278
 30
0.0
 40
34.99999940395355
  1
installing document
  7
Text Style9
100
AcDbAttribute
  2
Auxiliary_Remark1_001
 70
     0
  0
ATTRIB
  5
11F
102
{ACAD_XDICTIONARY
360
528
102
}
330
11B
100
AcDbEntity
  8
Symbole(DIN)
 62
     7
100
AcDbText
 10
627.5
 20
228.7499998509872
 30
0.0
 40
20.00000029802322
  1

  7
Text Style40
 72
     1
 11
627.5
 21
238.7499999999989
 31
0.0
100
AcDbAttribute
  2
Revision_Index_1
 70
     0
 74
     2
  0
ATTRIB
  5
120
102
{ACAD_XDICTIONARY
360
52B
102
}
330
11B
100
AcDbEntity
  8
Symbole(DIN)
 62
     7
100
AcDbText
 10
224.840381974535
 20
228.8796042185393
 30
0.0
 40
20.00000029802322
  1
0056-195611
  7
Text Style40
100
AcDbAttribute
  2
Document_Number_001
 70
     0
  0
ATTRIB
  5
121
102
{ACAD_XDICTIONARY
360
52E
102
}
330
11B
100
AcDbEntity
  8
Symbole(DIN)
 62
     7
100
AcDbText
 10
225.1814460996718
 20
186.3796042185393
 30
0.0
 40
20.00000029802322
  1
21.06.2011
  7
Text Style40
100
AcDbAttribute
  2
Drawn_Date_001
 70
     0
  0
ATTRIB
  5
122
102
{ACAD_XDICTIONARY
360
531
102
}
330
11B
100
AcDbEntity
  8
Symbole(DIN)
 62
     7
100
AcDbText
 10
1875.12619372442
 20
135.3410641200543
 30
0.0
 40
50.0
  1
3
 41
0.9
  7
Text__5.0mm
100
AcDbAttribute
  2
Sheet_number_001
 70
     0
  0
ATTRIB
  5
123
102
{ACAD_XDICTIONARY
360
534
102
}
330
11B
100
AcDbEntity
  8
Symbole(DIN)
 62
     7
100
AcDbText
 10
1949.972714870395
 20
135.426330150068
 30
0.0
 40
50.0
  1
5
 41
0.9
  7
Text__5.0mm
100
AcDbAttribute
  2
Number_of_sheets_001
 70
     0
  0
SEQEND
  5
11C
330
11B
100
AcDbEntity
  8
0
  0
MTEXT
  5
124
330
77
100
AcDbEntity
  8
Symbols(ISO)
 62
     7
100
AcDbMText
 10
115.2397946306251
 20
2809.156119358667
 30
0.0
 40
69.9999988079071
 41
117.271339893341
 71
     4
 72
     1
  1
{\fArial|b1|i0;\H70.0000;DT}
  7
Text_5.0mm
 73
     1
 44
1.0
1001
ACAD
1000
MTEXTBEGIN
1070
    73
1070
     1
1070
    44
1040
1.0
1070
    74
1070
     0
1000
MTEXTEND
  0
INSERT
  5
12D
330
77
100
AcDbEntity
  8
0
100
AcDbBlockReference
  2
Borders Marketing Border
 10
0.0
 20
0.0
 30
0.0
 41
10.0
 42
10.0
 43
10.0
  0
LINE
  5
12E
330
77
100
AcDbEntity
  8
Visible Edges(ISO)
100
AcDbLine
 10
890.5890522241143
 20
1984.597631789371
 30
0.0
 11
890.5890522241143
 21
1384.597631789371
 31
0.0
  0
LINE
  5
12F
330
77
100
AcDbEntity
  8
Visible Edges(ISO)
100
AcDbLine
 10
890.5890522241143
 20
1384.597631789371
 30
0.0
 11
400.5890522241143
 21
1384.597631789371
 31
0.0
  0
LINE
  5
130
330
77
100
AcDbEntity
  8
Visible Edges(ISO)
100
AcDbLine
 10
400.5890522241143
 20
1384.597631789371
 30
0.0
 11
400.5890522241141
 21
1984.597631789371
 31
0.0
  0
LINE
  5
131
330
77
100
AcDbEntity
  8
Visible Edges(ISO)
100
AcDbLine
 10
400.5890522241141
 20
1984.597631789371
 30
0.0
 11
890.5890522241142
 21
1984.597631789371
 31
0.0
  0
LINE
  5
132
330
77
100
AcDbEntity
  8
Visible Edges(ISO)
100
AcDbLine
 10
423.0890522241143
 20
984.5976317893709
 30
0.0
 11
423.0890522241143
 21
1000.597631789371
 31
0.0
  0
LINE
  5
133
330
77
100
AcDbEntity
  8
Visible Edges(ISO)
100
AcDbLine
 10
868.0890522241142
 20
984.5976317893709
 30
0.0
 11
868.0890522241142
 21
1000.597631789371
 31
0.0
  0
LINE
  5
134
330
77
100
AcDbEntity
  8
Visible Edges(ISO)
100
AcDbLine
 10
868.0890522241142
 20
1000.597631789371
 30
0.0
 11
423.0890522241143
 21
1000.597631789371
 31
0.0
  0
LINE
  5
135
330
77
100
AcDbEntity
  8
Visible Edges(ISO)
100
AcDbLine
 10
423.0890522241143
 20
984.5976317893709
 30
0.0
 11
868.0890522241142
 21
984.5976317893709
 31
0.0
  0
LINE
  5
136
330
77
100
AcDbEntity
  8
Visible Edges(ISO)
100
AcDbLine
 10
794.3264834503824
 20
1001.314965688152
 30
0.0
 11
794.3303233622067
 21
1001.095013807455
 31
0.0
  0
LINE
  5
137
330
77
100
AcDbEntity
  8
Visible Edges(ISO)
100
AcDbLine
 10
721.8477810860315
 20
1001.095013807454
 30
0.0
 11
721.8516209978558
 21
1001.314965688151
 31
0.0
  0
LINE
  5
138
330
77
100
AcDbEntity
  8
Visible Edges(ISO)
100
AcDbLine
 10
719.326483450383
 20
1001.314965688151
 30
0.0
 11
719.3303233622074
 21
1001.095013807454
 31
0.0
  0
LINE
  5
139
330
77
100
AcDbEntity
  8
Visible Edges(ISO)
100
AcDbLine
 10
796.8477810860308
 20
1001.095013807455
 30
0.0
 11
796.8516209978552
 21
1001.314965688152
 31
0.0
  0
LINE
  5
13A
330
77
100
AcDbEntity
  8
Visible Edges(ISO)
100
AcDbLine
 10
719.3390522241194
 20
1000.597638643246
 30
0.0
 11
719.3390522241194
 21
1001.314965688151
 31
0.0
  0
LINE
  5
13B
330
77
100
AcDbEntity
  8
Visible Edges(ISO)
100
AcDbLine
 10
721.8390522241194
 20
1001.314965688151
 30
0.0
 11
721.8390522241194
 21
1000.597638643246
 31
0.0
  0
LINE
  5
13C
330
77
100
AcDbEntity
  8
Visible Edges(ISO)
100
AcDbLine
 10
794.3390522241188
 20
1000.597638643247
 30
0.0
 11
794.3390522241188
 21
1001.314965688152
 31
0.0
  0
LINE
  5
13D
330
77
100
AcDbEntity
  8
Visible Edges(ISO)
100
AcDbLine
 10
796.8390522241187
 20
1001.314965688152
 30
0.0
 11
796.8390522241187
 21
1000.597638643247
 31
0.0
  0
LINE
  5
13E
330
77
100
AcDbEntity
  8
Visible Edges(ISO)
100
AcDbLine
 10
759.3505936563454
 20
1001.095013807455
 30
0.0
 11
759.3544335681698
 21
1001.314965688151
 31
0.0
  0
LINE
  5
13F
330
77
100
AcDbEntity
  8
Visible Edges(ISO)
100
AcDbLine
 10
756.8292960206969
 20
1001.314965688151
 30
0.0
 11
756.8331359325212
 21
1001.095013807455
 31
0.0
  0
LINE
  5
140
330
77
100
AcDbEntity
  8
Visible Edges(ISO)
100
AcDbLine
 10
534.3488084275433
 20
1001.314965688149
 30
0.0
 11
534.3449685157189
 21
1001.095013807452
 31
0.0
  0
LINE
  5
141
330
77
100
AcDbEntity
  8
Visible Edges(ISO)
100
AcDbLine
 10
531.8275107918948
 20
1001.095013807452
 30
0.0
 11
531.8236708800704
 21
1001.314965688149
 31
0.0
  0
LINE
  5
142
330
77
100
AcDbEntity
  8
Visible Edges(ISO)
100
AcDbLine
 10
531.8362396538069
 20
1000.597638643244
 30
0.0
 11
531.8362396538069
 21
1001.314965688149
 31
0.0
  0
LINE
  5
143
330
77
100
AcDbEntity
  8
Visible Edges(ISO)
100
AcDbLine
 10
534.3362396538068
 20
1001.314965688149
 30
0.0
 11
534.3362396538068
 21
1000.597638643244
 31
0.0
  0
LINE
  5
144
330
77
100
AcDbEntity
  8
Visible Edges(ISO)
100
AcDbLine
 10
756.8418647944334
 20
1000.597638643247
 30
0.0
 11
756.8418647944334
 21
1001.314965688151
 31
0.0
  0
LINE
  5
145
330
77
100
AcDbEntity
  8
Visible Edges(ISO)
100
AcDbLine
 10
759.3418647944333
 20
1001.314965688151
 30
0.0
 11
759.3418647944333
 21
1000.597638643247
 31
0.0
  0
LINE
  5
146
330
77
100
AcDbEntity
  8
Visible Edges(ISO)
100
AcDbLine
 10
684.3477810860319
 20
1001.095013807454
 30
0.0
 11
684.3516209978562
 21
1001.314965688151
 31
0.0
  0
LINE
  5
147
330
77
100
AcDbEntity
  8
Visible Edges(ISO)
100
AcDbLine
 10
681.8264834503834
 20
1001.314965688151
 30
0.0
 11
681.8303233622077
 21
1001.095013807454
 31
0.0
  0
LINE
  5
148
330
77
100
AcDbEntity
  8
Visible Edges(ISO)
100
AcDbLine
 10
609.3516209978568
 20
1001.31496568815
 30
0.0
 11
609.3477810860325
 21
1001.095013807453
 31
0.0
  0
LINE
  5
149
330
77
100
AcDbEntity
  8
Visible Edges(ISO)
100
AcDbLine
 10
606.8303233622084
 20
1001.095013807453
 30
0.0
 11
606.826483450384
 21
1001.31496568815
 31
0.0
  0
LINE
  5
14A
330
77
100
AcDbEntity
  8
Visible Edges(ISO)
100
AcDbLine
 10
606.8390522241204
 20
1000.597638643245
 30
0.0
 11
606.8390522241204
 21
1001.314965688149
 31
0.0
  0
LINE
  5
14B
330
77
100
AcDbEntity
  8
Visible Edges(ISO)
100
AcDbLine
 10
609.3390522241204
 20
1001.31496568815
 30
0.0
 11
609.3390522241206
 21
1000.597638643245
 31
0.0
  0
LINE
  5
14C
330
77
100
AcDbEntity
  8
Visible Edges(ISO)
100
AcDbLine
 10
681.8390522241197
 20
1000.597638643246
 30
0.0
 11
681.8390522241197
 21
1001.31496568815
 31
0.0
  0
LINE
  5
14D
330
77
100
AcDbEntity
  8
Visible Edges(ISO)
100
AcDbLine
 10
684.3390522241198
 20
1001.31496568815
 30
0.0
 11
684.3390522241198
 21
1000.597638643246
 31
0.0
  0
LINE
  5
14E
330
77
100
AcDbEntity
  8
Visible Edges(ISO)
100
AcDbLine
 10
646.8516209978566
 20
1001.31496568815
 30
0.0
 11
646.8477810860321
 21
1001.095013807453
 31
0.0
  0
LINE
  5
14F
330
77
100
AcDbEntity
  8
Visible Edges(ISO)
100
AcDbLine
 10
644.3303233622081
 20
1001.095013807453
 30
0.0
 11
644.3264834503836
 21
1001.31496568815
 31
0.0
  0
LINE
  5
150
330
77
100
AcDbEntity
  8
Visible Edges(ISO)
100
AcDbLine
 10
644.3390522241201
 20
1000.597638643245
 30
0.0
 11
644.3390522241201
 21
1001.31496568815
 31
0.0
  0
LINE
  5
151
330
77
100
AcDbEntity
  8
Visible Edges(ISO)
100
AcDbLine
 10
646.8390522241202
 20
1000.597638643245
 30
0.0
 11
646.8390522241202
 21
1001.31496568815
 31
0.0
  0
LINE
  5
152
330
77
100
AcDbEntity
  8
Visible Edges(ISO)
100
AcDbLine
 10
571.8516209978572
 20
1001.314965688149
 30
0.0
 11
571.8477810860328
 21
1001.095013807453
 31
0.0
  0
LINE
  5
153
330
77
100
AcDbEntity
  8
Visible Edges(ISO)
100
AcDbLine
 10
569.3303233622088
 20
1001.095013807453
 30
0.0
 11
569.3264834503844
 21
1001.314965688149
 31
0.0
  0
LINE
  5
154
330
77
100
AcDbEntity
  8
Visible Edges(ISO)
100
AcDbLine
 10
569.3390522241208
 20
1000.597638643244
 30
0.0
 11
569.3390522241208
 21
1001.314965688149
 31
0.0
  0
LINE
  5
155
330
77
100
AcDbEntity
  8
Visible Edges(ISO)
100
AcDbLine
 10
571.8390522241207
 20
1000.597638643244
 30
0.0
 11
571.8390522241207
 21
1001.314965688149
 31
0.0
  0
LINE
  5
156
330
77
100
AcDbEntity
  8
Visible Edges(ISO)
100
AcDbLine
 10
496.8516209978579
 20
1001.314965688149
 30
0.0
 11
496.8477810860335
 21
1001.095013807452
 31
0.0
  0
LINE
  5
157
330
77
100
AcDbEntity
  8
Visible Edges(ISO)
100
AcDbLine
 10
494.3303233622094
 20
1001.095013807452
 30
0.0
 11
494.3264834503851
 21
1001.314965688149
 31
0.0
  0
LINE
  5
158
330
77
100
AcDbEntity
  8
Visible Edges(ISO)
100
AcDbLine
 10
494.3390522241215
 20
1000.597638643244
 30
0.0
 11
494.3390522241215
 21
1001.314965688148
 31
0.0
  0
LINE
  5
159
330
77
100
AcDbEntity
  8
Visible Edges(ISO)
100
AcDbLine
 10
496.8390522241215
 20
1000.597638643244
 30
0.0
 11
496.8390522241215
 21
1001.314965688148
 31
0.0
  0
ELLIPSE
  5
15A
330
77
100
AcDbEntity
  8
Visible Tangent Edges(ISO)
100
AcDbEllipse
 10
447.4890522241213
 20
1045.010676644798
 30
0.0
 11
-0.9999999999999694
 21
-0.0000000000000114
 31
0.0
210
0.0
220
0.0
230
1.0
 40
0.0052359638314195
 41
4.712388980058017
 42
6.283185306513711
  0
LINE
  5
15B
330
77
100
AcDbEntity
  8
Visible Tangent Edges(ISO)
100
AcDbLine
 10
447.4890522241213
 20
1045.015912608629
 30
0.0
 11
447.4890522241166
 21
1384.597631789318
 31
0.0
  0
LINE
  5
15C
330
77
100
AcDbEntity
  8
Visible Edges(ISO)
100
AcDbLine
 10
446.4890522241166
 20
1384.597631789318
 30
0.0
 11
446.4890522241213
 21
1045.010676644798
 31
0.0
  0
LINE
  5
15D
330
77
100
AcDbEntity
  8
Visible Tangent Edges(ISO)
100
AcDbLine
 10
447.4890522241214
 20
1040.801409714969
 30
0.0
 11
447.4890522241213
 21
1045.015912608629
 31
0.0
  0
LINE
  5
15E
330
77
100
AcDbEntity
  8
Visible Edges(ISO)
100
AcDbLine
 10
446.4890522241213
 20
1045.010676644798
 30
0.0
 11
446.4890522241214
 21
1039.801409714969
 31
0.0
  0
ELLIPSE
  5
15F
330
77
100
AcDbEntity
  8
Visible Tangent Edges(ISO)
100
AcDbEllipse
 10
447.4890522241214
 20
1035.324971552212
 30
0.0
 11
-1.000000000000004
 21
-0.0000000000000114
 31
0.0
210
0.0
220
0.0
230
1.0
 40
0.0052359638314195
 41
4.712388980382025
 42
6.283185307176943
  0
LINE
  5
160
330
77
100
AcDbEntity
  8
Visible Tangent Edges(ISO)
100
AcDbLine
 10
447.4890522241214
 20
1040.801409714969
 30
0.0
 11
447.4890522241214
 21
1035.330207516043
 31
0.0
  0
LINE
  5
161
330
77
100
AcDbEntity
  8
Visible Edges(ISO)
100
AcDbLine
 10
446.4890522241214
 20
1035.324971552212
 30
0.0
 11
446.4890522241213
 21
1039.801409714969
 31
0.0
  0
ELLIPSE
  5
162
330
77
100
AcDbEntity
  8
Visible Edges(ISO)
100
AcDbEllipse
 10
447.4890522241221
 20
1001.32543761581
 30
0.0
 11
-1.000000000000075
 21
-0.0000000000000111
 31
0.0
210
0.0
220
0.0
230
1.0
 40
0.0052359638314195
 41
4.712388982325892
 42
6.283185311054559
  0
LINE
  5
163
330
77
100
AcDbEntity
  8
Visible Tangent Edges(ISO)
100
AcDbLine
 10
447.4890522241219
 20
1001.330673579642
 30
0.0
 11
447.4890522241214
 21
1035.330207516043
 31
0.0
  0
LINE
  5
164
330
77
100
AcDbEntity
  8
Visible Edges(ISO)
100
AcDbLine
 10
446.4890522241214
 20
1035.324971552212
 30
0.0
 11
446.4890522241219
 21
1001.325437615811
 31
0.0
  0
ELLIPSE
  5
165
330
77
100
AcDbEntity
  8
Visible Edges(ISO)
100
AcDbEllipse
 10
843.6890522241183
 20
1001.325437615815
 30
0.0
 11
0.9999999999999694
 21
0.0000000000000114
 31
0.0
210
0.0
220
0.0
230
1.0
 40
0.0052359638314195
 41
0.0
 42
1.570796326794896
  0
LINE
  5
166
330
77
100
AcDbEntity
  8
Visible Edges(ISO)
100
AcDbLine
 10
844.6890522241183
 20
1001.325437615815
 30
0.0
 11
844.6890522241178
 21
1035.324971552216
 31
0.0
  0
ELLIPSE
  5
167
330
77
100
AcDbEntity
  8
Visible Tangent Edges(ISO)
100
AcDbEllipse
 10
843.6890522241178
 20
1035.324971552216
 30
0.0
 11
1.000000000000004
 21
0.0000000000000114
 31
0.0
210
0.0
220
0.0
230
1.0
 40
0.0052359638314195
 41
0.0
 42
1.570796326792232
  0
LINE
  5
168
330
77
100
AcDbEntity
  8
Visible Tangent Edges(ISO)
100
AcDbLine
 10
843.6890522241178
 20
1035.330207516048
 30
0.0
 11
843.6890522241183
 21
1001.330673579647
 31
0.0
  0
LINE
  5
169
330
77
100
AcDbEntity
  8
Visible Tangent Edges(ISO)
100
AcDbLine
 10
843.6890522241178
 20
1035.330207516048
 30
0.0
 11
843.6890522241178
 21
1040.801409714973
 31
0.0
  0
LINE
  5
16A
330
77
100
AcDbEntity
  8
Visible Edges(ISO)
100
AcDbLine
 10
844.6890522241178
 20
1039.801409714974
 30
0.0
 11
844.6890522241178
 21
1035.324971552217
 31
0.0
  0
ELLIPSE
  5
16B
330
77
100
AcDbEntity
  8
Visible Tangent Edges(ISO)
100
AcDbEllipse
 10
843.6890522241176
 20
1045.010676644802
 30
0.0
 11
1.000000000000004
 21
0.0000000000000114
 31
0.0
210
0.0
220
0.0
230
1.0
 40
0.0052359638314195
 41
0.0
 42
1.570796326792232
  0
LINE
  5
16C
330
77
100
AcDbEntity
  8
Visible Tangent Edges(ISO)
100
AcDbLine
 10
843.6890522241176
 20
1045.015912608634
 30
0.0
 11
843.6890522241176
 21
1040.801409714973
 31
0.0
  0
LINE
  5
16D
330
77
100
AcDbEntity
  8
Visible Edges(ISO)
100
AcDbLine
 10
844.6890522241176
 20
1039.801409714974
 30
0.0
 11
844.6890522241176
 21
1045.010676644802
 31
0.0
  0
LINE
  5
16E
330
77
100
AcDbEntity
  8
Visible Tangent Edges(ISO)
100
AcDbLine
 10
843.689052224113
 20
1384.597631789318
 30
0.0
 11
843.6890522241176
 21
1045.015912608634
 31
0.0
  0
LINE
  5
16F
330
77
100
AcDbEntity
  8
Visible Edges(ISO)
100
AcDbLine
 10
844.6890522241176
 20
1045.010676644802
 30
0.0
 11
844.689052224113
 21
1384.597631789318
 31
0.0
  0
ARC
  5
170
330
77
100
AcDbEntity
  8
Visible Edges(ISO)
100
AcDbCircle
 10
447.4890522241214
 20
1039.801409714969
 30
0.0
 40
0.9999999999999907
100
AcDbArc
 50
90.0
 51
180.0
  0
ARC
  5
171
330
77
100
AcDbEntity
  8
Visible Edges(ISO)
100
AcDbCircle
 10
843.6890522241178
 20
1039.801409714974
 30
0.0
 40
0.9999999999999907
100
AcDbArc
 50
0.0
 51
90.0
  0
LINE
  5
172
330
77
100
AcDbEntity
  8
Visible Edges(ISO)
100
AcDbLine
 10
446.4890522241219
 20
1001.013897767841
 30
0.0
 11
446.4890522241219
 21
1000.867477462322
 31
0.0
  0
LINE
  5
173
330
77
100
AcDbEntity
  8
Visible Edges(ISO)
100
AcDbLine
 10
446.4890522241219
 20
1001.325437615811
 30
0.0
 11
446.4890522241219
 21
1001.195585712791
 31
0.0
  0
LINE
  5
174
330
77
100
AcDbEntity
  8
Visible Edges(ISO)
100
AcDbLine
 10
844.6890522241183
 20
1001.195585712796
 30
0.0
 11
844.6890522241183
 21
1001.325437615815
 31
0.0
  0
LINE
  5
175
330
77
100
AcDbEntity
  8
Visible Edges(ISO)
100
AcDbLine
 10
844.6890522241183
 20
1000.867477462326
 30
0.0
 11
844.6890522241183
 21
1001.013897767846
 31
0.0
  0
LINE
  5
176
330
77
100
AcDbEntity
  8
Visible Edges(ISO)
100
AcDbLine
 10
446.4890522241219
 20
1001.19034974896
 30
0.0
 11
446.4890522241219
 21
1001.019133731673
 31
0.0
  0
LINE
  5
177
330
77
100
AcDbEntity
  8
Visible Edges(ISO)
100
AcDbLine
 10
844.6890522241183
 20
1001.019133731677
 30
0.0
 11
844.6890522241183
 21
1001.190349748964
 31
0.0
  0
LINE
  5
178
330
77
100
AcDbEntity
  8
Visible Edges(ISO)
100
AcDbLine
 10
843.6890522241183
 20
1001.330673579647
 30
0.0
 11
447.4890522241219
 21
1001.330673579642
 31
0.0
  0
LINE
  5
179
330
77
100
AcDbEntity
  8
Visible Edges(ISO)
100
AcDbLine
 10
446.4890522241219
 20
1001.195585712791
 30
0.0
 11
445.9890522241219
 21
1001.195585712791
 31
0.0
  0
LINE
  5
17A
330
77
100
AcDbEntity
  8
Visible Edges(ISO)
100
AcDbLine
 10
445.9890522241219
 20
1001.19034974896
 30
0.0
 11
445.9890522241219
 21
1001.195585712791
 31
0.0
  0
LINE
  5
17B
330
77
100
AcDbEntity
  8
Visible Edges(ISO)
100
AcDbLine
 10
446.4890522241219
 20
1001.19034974896
 30
0.0
 11
445.9890522241219
 21
1001.19034974896
 31
0.0
  0
LINE
  5
17C
330
77
100
AcDbEntity
  8
Visible Edges(ISO)
100
AcDbLine
 10
446.4890522241219
 20
1001.019133731673
 30
0.0
 11
445.9890522241219
 21
1001.019133731673
 31
0.0
  0
LINE
  5
17D
330
77
100
AcDbEntity
  8
Visible Edges(ISO)
100
AcDbLine
 10
445.9890522241219
 20
1001.013897767841
 30
0.0
 11
445.9890522241219
 21
1001.019133731673
 31
0.0
  0
LINE
  5
17E
330
77
100
AcDbEntity
  8
Visible Edges(ISO)
100
AcDbLine
 10
446.4890522241219
 20
1001.013897767841
 30
0.0
 11
445.9890522241219
 21
1001.013897767841
 31
0.0
  0
LINE
  5
17F
330
77
100
AcDbEntity
  8
Visible Edges(ISO)
100
AcDbLine
 10
445.9890522241219
 20
1001.195585712791
 30
0.0
 11
445.9890522241217
 21
1020.195325265486
 31
0.0
  0
LINE
  5
180
330
77
100
AcDbEntity
  8
Visible Tangent Edges(ISO)
100
AcDbLine
 10
446.4890522241216
 20
1020.195325265486
 30
0.0
 11
445.9890522241217
 21
1020.195325265486
 31
0.0
  0
LINE
  5
181
330
77
100
AcDbEntity
  8
Visible Edges(ISO)
100
AcDbLine
 10
445.9890522241217
 20
1023.179617373991
 30
0.0
 11
445.9890522241217
 21
1020.195325265486
 31
0.0
  0
LINE
  5
182
330
77
100
AcDbEntity
  8
Visible Edges(ISO)
100
AcDbLine
 10
445.9890522241219
 20
1001.019133731673
 30
0.0
 11
445.9890522241219
 21
1001.19034974896
 31
0.0
  0
LINE
  5
183
330
77
100
AcDbEntity
  8
Visible Edges(ISO)
100
AcDbLine
 10
445.9890522241217
 20
1023.179617373991
 30
0.0
 11
446.4890522241216
 21
1023.179617373991
 31
0.0
  0
ELLIPSE
  5
184
330
77
100
AcDbEntity
  8
Visible Edges(ISO)
100
AcDbEllipse
 10
426.4890522241208
 20
1000.867477462321
 30
0.0
 11
20.00000000000113
 21
0.000000000000228
 31
0.0
210
0.0
220
0.0
230
1.0
 40
0.0052359638314195
 41
5.893424574385695
 42
6.283185307182979
  0
ELLIPSE
  5
185
330
77
100
AcDbEntity
  8
Visible Edges(ISO)
100
AcDbEllipse
 10
463.4890522241223
 20
1000.787897701808
 30
0.0
 11
-20.00000000000045
 21
-0.0000000000002277
 31
0.0
210
0.0
220
0.0
230
1.0
 40
0.0052359638314195
 41
5.893424574590568
 42
6.283185307403986
  0
LINE
  5
186
330
77
100
AcDbEntity
  8
Visible Tangent Edges(ISO)
100
AcDbLine
 10
444.9890522241219
 20
1000.827687582065
 30
0.0
 11
444.9890522241165
 21
1384.597631789318
 31
0.0
  0
LINE
  5
187
330
77
100
AcDbEntity
  8
Visible Edges(ISO)
100
AcDbLine
 10
443.4890522241166
 20
1384.597631789318
 30
0.0
 11
443.489052224122
 21
1000.787897701808
 31
0.0
  0
LINE
  5
188
330
77
100
AcDbEntity
  8
Visible Edges(ISO)
100
AcDbLine
 10
443.489052224122
 20
1000.712829847534
 30
0.0
 11
443.489052224122
 21
1000.787897701808
 31
0.0
  0
LINE
  5
189
330
77
100
AcDbEntity
  8
Visible Edges(ISO)
100
AcDbLine
 10
444.9890522241219
 20
1000.707593883703
 30
0.0
 11
444.489052224122
 21
1000.707593883703
 31
0.0
  0
LINE
  5
18A
330
77
100
AcDbEntity
  8
Visible Edges(ISO)
100
AcDbLine
 10
445.9890522241219
 20
1000.796605268837
 30
0.0
 11
445.9890522241219
 21
1000.712829847534
 31
0.0
  0
ELLIPSE
  5
18B
330
77
100
AcDbEntity
  8
Visible Edges(ISO)
100
AcDbEllipse
 10
444.489052224122
 20
1000.712829847534
 30
0.0
 11
-1.000000000000031
 21
-0.0000000000000112
 31
0.0
210
0.0
220
0.0
230
1.0
 40
0.0052359638314195
 41
0.0
 42
1.570796326794896
  0
ELLIPSE
  5
18C
330
77
100
AcDbEntity
  8
Visible Edges(ISO)
100
AcDbEllipse
 10
444.9890522241219
 20
1000.712829847534
 30
0.0
 11
1.00000000000004
 21
0.0000000000000112
 31
0.0
210
0.0
220
0.0
230
1.0
 40
0.0052359638314195
 41
4.712388981677966
 42
6.28318530976202
  0
ELLIPSE
  5
18D
330
77
100
AcDbEntity
  8
Visible Edges(ISO)
100
AcDbEllipse
 10
846.1890522241183
 20
1000.712829847539
 30
0.0
 11
-1.000000000000027
 21
-0.0000000000000112
 31
0.0
210
0.0
220
0.0
230
1.0
 40
0.0052359638314195
 41
0.0
 42
1.570796326794896
  0
ELLIPSE
  5
18E
330
77
100
AcDbEntity
  8
Visible Edges(ISO)
100
AcDbEllipse
 10
846.6890522241182
 20
1000.712829847539
 30
0.0
 11
1.00000000000004
 21
0.0000000000000112
 31
0.0
210
0.0
220
0.0
230
1.0
 40
0.0052359638314195
 41
4.712388981678055
 42
6.28318530976202
  0
ELLIPSE
  5
18F
330
77
100
AcDbEntity
  8
Visible Edges(ISO)
100
AcDbEllipse
 10
463.489052224121
 20
1000.787897701808
 30
0.0
 11
-17.57884154640685
 21
-0.0000000000002004
 31
0.0
210
0.0
220
0.0
230
1.0
 40
0.0052359638314195
 41
5.893424574378538
 42
6.188439523749217
  0
LINE
  5
190
330
77
100
AcDbEntity
  8
Visible Edges(ISO)
100
AcDbLine
 10
447.2286237936947
 20
1000.822870701818
 30
0.0
 11
447.7640522241219
 21
1000.829695562648
 31
0.0
  0
ELLIPSE
  5
191
330
77
100
AcDbEntity
  8
Visible Edges(ISO)
100
AcDbEllipse
 10
426.4890522241232
 20
1000.875453924943
 30
0.0
 11
22.99999999999869
 21
0.0000000000002622
 31
0.0
210
0.0
220
0.0
230
1.0
 40
0.0052359638314195
 41
5.893424574377821
 42
6.283185307175184
  0
LINE
  5
192
330
77
100
AcDbEntity
  8
Visible Edges(ISO)
100
AcDbLine
 10
449.4890522241218
 20
1001.314965688148
 30
0.0
 11
449.4890522241218
 21
1000.875453924943
 31
0.0
  0
LINE
  5
193
330
77
100
AcDbEntity
  8
Visible Tangent Edges(ISO)
100
AcDbLine
 10
494.3390522241215
 20
1001.314965688148
 30
0.0
 11
449.4890522241218
 21
1001.314965688148
 31
0.0
  0
LINE
  5
194
330
77
100
AcDbEntity
  8
Visible Tangent Edges(ISO)
100
AcDbLine
 10
531.8362396538069
 20
1001.314965688149
 30
0.0
 11
496.8390522241215
 21
1001.314965688148
 31
0.0
  0
LINE
  5
195
330
77
100
AcDbEntity
  8
Visible Tangent Edges(ISO)
100
AcDbLine
 10
569.3390522241208
 20
1001.314965688149
 30
0.0
 11
534.3362396538068
 21
1001.314965688149
 31
0.0
  0
LINE
  5
196
330
77
100
AcDbEntity
  8
Visible Tangent Edges(ISO)
100
AcDbLine
 10
606.8390522241204
 20
1001.314965688149
 30
0.0
 11
571.8390522241207
 21
1001.314965688149
 31
0.0
  0
LINE
  5
197
330
77
100
AcDbEntity
  8
Visible Tangent Edges(ISO)
100
AcDbLine
 10
644.3390522241201
 20
1001.31496568815
 30
0.0
 11
609.3390522241204
 21
1001.314965688149
 31
0.0
  0
LINE
  5
198
330
77
100
AcDbEntity
  8
Visible Tangent Edges(ISO)
100
AcDbLine
 10
681.8390522241197
 20
1001.31496568815
 30
0.0
 11
646.8390522241202
 21
1001.31496568815
 31
0.0
  0
LINE
  5
199
330
77
100
AcDbEntity
  8
Visible Tangent Edges(ISO)
100
AcDbLine
 10
719.3390522241194
 20
1001.314965688151
 30
0.0
 11
684.3390522241198
 21
1001.31496568815
 31
0.0
  0
LINE
  5
19A
330
77
100
AcDbEntity
  8
Visible Tangent Edges(ISO)
100
AcDbLine
 10
756.8418647944334
 20
1001.314965688151
 30
0.0
 11
721.8390522241193
 21
1001.314965688151
 31
0.0
  0
LINE
  5
19B
330
77
100
AcDbEntity
  8
Visible Tangent Edges(ISO)
100
AcDbLine
 10
794.3390522241188
 20
1001.314965688152
 30
0.0
 11
759.3418647944333
 21
1001.314965688151
 31
0.0
  0
LINE
  5
19C
330
77
100
AcDbEntity
  8
Visible Tangent Edges(ISO)
100
AcDbLine
 10
841.6890522241182
 20
1001.314965688152
 30
0.0
 11
796.8390522241187
 21
1001.314965688152
 31
0.0
  0
LINE
  5
19D
330
77
100
AcDbEntity
  8
Visible Edges(ISO)
100
AcDbLine
 10
571.8390523437739
 20
1001.314958834273
 30
0.0
 11
606.8390521044674
 21
1001.314958834274
 31
0.0
  0
LINE
  5
19E
330
77
100
AcDbEntity
  8
Visible Edges(ISO)
100
AcDbLine
 10
609.3390523437736
 20
1001.314958834274
 30
0.0
 11
644.3390521044671
 21
1001.314958834274
 31
0.0
  0
LINE
  5
19F
330
77
100
AcDbEntity
  8
Visible Edges(ISO)
100
AcDbLine
 10
496.8390523437745
 20
1001.314958834272
 30
0.0
 11
531.8362395341538
 21
1001.314958834273
 31
0.0
  0
LINE
  5
1A0
330
77
100
AcDbEntity
  8
Visible Edges(ISO)
100
AcDbLine
 10
534.3362397734599
 20
1001.314958834273
 30
0.0
 11
569.3390521044677
 21
1001.314958834273
 31
0.0
  0
LINE
  5
1A1
330
77
100
AcDbEntity
  8
Visible Edges(ISO)
100
AcDbLine
 10
684.3390523437729
 20
1001.314958834274
 30
0.0
 11
719.3390521044663
 21
1001.314958834275
 31
0.0
  0
LINE
  5
1A2
330
77
100
AcDbEntity
  8
Visible Edges(ISO)
100
AcDbLine
 10
646.8390523437731
 20
1001.314958834274
 30
0.0
 11
681.8390521044666
 21
1001.314958834274
 31
0.0
  0
LINE
  5
1A3
330
77
100
AcDbEntity
  8
Visible Edges(ISO)
100
AcDbLine
 10
759.3418649140864
 20
1001.314958834275
 30
0.0
 11
794.3390521044657
 21
1001.314958834276
 31
0.0
  0
LINE
  5
1A4
330
77
100
AcDbEntity
  8
Visible Edges(ISO)
100
AcDbLine
 10
721.8390523437724
 20
1001.314958834275
 30
0.0
 11
756.8418646747804
 21
1001.314958834275
 31
0.0
  0
LINE
  5
1A5
330
77
100
AcDbEntity
  8
Visible Edges(ISO)
100
AcDbLine
 10
449.4890522241218
 20
1001.314958834272
 30
0.0
 11
494.3390521044684
 21
1001.314958834272
 31
0.0
  0
LINE
  5
1A6
330
77
100
AcDbEntity
  8
Visible Edges(ISO)
100
AcDbLine
 10
796.8390523437719
 20
1001.314958834276
 30
0.0
 11
841.6890522241182
 21
1001.314958834276
 31
0.0
  0
LINE
  5
1A7
330
77
100
AcDbEntity
  8
Visible Edges(ISO)
100
AcDbLine
 10
841.6890522241182
 20
1001.314965688152
 30
0.0
 11
841.6890522241184
 21
1000.875453924948
 31
0.0
  0
ELLIPSE
  5
1A8
330
77
100
AcDbEntity
  8
Visible Edges(ISO)
100
AcDbEllipse
 10
864.6890522241172
 20
1000.875453924948
 30
0.0
 11
-22.99999999999876
 21
-0.0000000000002615
 31
0.0
210
0.0
220
0.0
230
1.0
 40
0.0052359638314195
 41
0.0000000004484115
 42
0.3897607332131294
  0
LINE
  5
1A9
330
77
100
AcDbEntity
  8
Visible Edges(ISO)
100
AcDbLine
 10
843.4140522241182
 20
1000.829695562652
 30
0.0
 11
843.9494806545454
 21
1000.822870701822
 31
0.0
  0
ELLIPSE
  5
1AA
330
77
100
AcDbEntity
  8
Visible Edges(ISO)
100
AcDbEllipse
 10
827.6890522241192
 20
1000.787897701813
 30
0.0
 11
17.57884154640685
 21
0.0000000000002004
 31
0.0
210
0.0
220
0.0
230
1.0
 40
0.0052359638314195
 41
0.0947457834217698
 42
0.3897607327930501
  0
LINE
  5
1AB
330
77
100
AcDbEntity
  8
Visible Edges(ISO)
100
AcDbLine
 10
845.1890522241184
 20
1000.796605268842
 30
0.0
 11
845.1890522241184
 21
1000.712829847539
 31
0.0
  0
LINE
  5
1AC
330
77
100
AcDbEntity
  8
Visible Edges(ISO)
100
AcDbLine
 10
846.1890522241183
 20
1000.707593883708
 30
0.0
 11
846.6890522241182
 21
1000.707593883708
 31
0.0
  0
LINE
  5
1AD
330
77
100
AcDbEntity
  8
Visible Edges(ISO)
100
AcDbLine
 10
847.6890522241182
 20
1000.712829847539
 30
0.0
 11
847.6890522241182
 21
1000.787897701813
 31
0.0
  0
ELLIPSE
  5
1AE
330
77
100
AcDbEntity
  8
Visible Edges(ISO)
100
AcDbEllipse
 10
827.6890522241178
 20
1000.787897701813
 30
0.0
 11
20.00000000000046
 21
0.000000000000228
 31
0.0
210
0.0
220
0.0
230
1.0
 40
0.0052359638314195
 41
0.0
 42
0.3897607327925394
  0
LINE
  5
1AF
330
77
100
AcDbEntity
  8
Visible Tangent Edges(ISO)
100
AcDbLine
 10
846.1890522241128
 20
1384.597631789318
 30
0.0
 11
846.1890522241182
 21
1000.82768758207
 31
0.0
  0
LINE
  5
1B0
330
77
100
AcDbEntity
  8
Visible Edges(ISO)
100
AcDbLine
 10
847.6890522241182
 20
1000.787897701813
 30
0.0
 11
847.6890522241129
 21
1384.597631789318
 31
0.0
  0
ELLIPSE
  5
1B1
330
77
100
AcDbEntity
  8
Visible Edges(ISO)
100
AcDbEllipse
 10
864.6890522241193
 20
1000.867477462326
 30
0.0
 11
-20.00000000000113
 21
-0.0000000000002297
 31
0.0
210
0.0
220
0.0
230
1.0
 40
0.0052359638314195
 41
0.0
 42
0.389760731714337
  0
LINE
  5
1B2
330
77
100
AcDbEntity
  8
Visible Edges(ISO)
100
AcDbLine
 10
844.6890522241183
 20
1001.013897767846
 30
0.0
 11
845.1890522241182
 21
1001.013897767846
 31
0.0
  0
LINE
  5
1B3
330
77
100
AcDbEntity
  8
Visible Edges(ISO)
100
AcDbLine
 10
845.1890522241182
 20
1001.013897767846
 30
0.0
 11
845.1890522241182
 21
1001.019133731677
 31
0.0
  0
LINE
  5
1B4
330
77
100
AcDbEntity
  8
Visible Edges(ISO)
100
AcDbLine
 10
844.6890522241183
 20
1001.019133731677
 30
0.0
 11
845.1890522241182
 21
1001.019133731677
 31
0.0
  0
LINE
  5
1B5
330
77
100
AcDbEntity
  8
Visible Edges(ISO)
100
AcDbLine
 10
844.6890522241183
 20
1001.190349748964
 30
0.0
 11
845.1890522241182
 21
1001.190349748964
 31
0.0
  0
LINE
  5
1B6
330
77
100
AcDbEntity
  8
Visible Edges(ISO)
100
AcDbLine
 10
845.1890522241182
 20
1001.190349748964
 30
0.0
 11
845.1890522241182
 21
1001.195585712796
 31
0.0
  0
LINE
  5
1B7
330
77
100
AcDbEntity
  8
Visible Edges(ISO)
100
AcDbLine
 10
844.6890522241183
 20
1001.195585712796
 30
0.0
 11
845.1890522241182
 21
1001.195585712796
 31
0.0
  0
LINE
  5
1B8
330
77
100
AcDbEntity
  8
Visible Edges(ISO)
100
AcDbLine
 10
845.1890522241182
 20
1001.195585712796
 30
0.0
 11
845.189052224118
 21
1020.195325265491
 31
0.0
  0
LINE
  5
1B9
330
77
100
AcDbEntity
  8
Visible Tangent Edges(ISO)
100
AcDbLine
 10
844.6890522241179
 20
1020.195325265491
 30
0.0
 11
845.189052224118
 21
1020.195325265491
 31
0.0
  0
LINE
  5
1BA
330
77
100
AcDbEntity
  8
Visible Edges(ISO)
100
AcDbLine
 10
845.189052224118
 20
1023.179617373995
 30
0.0
 11
845.189052224118
 21
1020.195325265491
 31
0.0
  0
LINE
  5
1BB
330
77
100
AcDbEntity
  8
Visible Edges(ISO)
100
AcDbLine
 10
845.1890522241182
 20
1001.019133731677
 30
0.0
 11
845.1890522241182
 21
1001.190349748965
 31
0.0
  0
LINE
  5
1BC
330
77
100
AcDbEntity
  8
Visible Edges(ISO)
100
AcDbLine
 10
844.6890522241179
 20
1023.179617373995
 30
0.0
 11
845.189052224118
 21
1023.179617373995
 31
0.0
  0
LINE
  5
1BD
330
77
100
AcDbEntity
  8
Visible Tangent Edges(ISO)
100
AcDbLine
 10
471.7006806466521
 20
1331.993029433008
 30
0.0
 11
471.7006806466514
 21
1384.597631789318
 31
0.0
  0
LINE
  5
1BE
330
77
100
AcDbEntity
  8
Visible Tangent Edges(ISO)
100
AcDbLine
 10
491.1888017735235
 20
1384.597631789318
 30
0.0
 11
491.1888017735242
 21
1332.931077861365
 31
0.0
  0
LINE
  5
1BF
330
77
100
AcDbEntity
  8
Visible Tangent Edges(ISO)
100
AcDbLine
 10
799.9893026747068
 20
1332.93107786137
 30
0.0
 11
799.989302674706
 21
1384.597631789318
 31
0.0
  0
LINE
  5
1C0
330
77
100
AcDbEntity
  8
Visible Tangent Edges(ISO)
100
AcDbLine
 10
819.4774238015783
 20
1384.597631789318
 30
0.0
 11
819.477423801579
 21
1331.993029433126
 31
0.0
  0
LINE
  5
1C1
330
77
100
AcDbEntity
  8
Visible Tangent Edges(ISO)
100
AcDbLine
 10
457.6651746865138
 20
1045.015912608629
 30
0.0
 11
447.4890522241213
 21
1045.015912608629
 31
0.0
  0
LINE
  5
1C2
330
77
100
AcDbEntity
  8
Visible Tangent Edges(ISO)
100
AcDbLine
 10
843.6890522241176
 20
1045.015912608634
 30
0.0
 11
833.5129297617278
 21
1045.015912608634
 31
0.0
  0
LINE
  5
1C3
330
77
100
AcDbEntity
  8
Visible Tangent Edges(ISO)
100
AcDbLine
 10
469.71952449224
 20
1332.010409009922
 30
0.0
 11
469.7195244922393
 21
1384.597631789318
 31
0.0
  0
LINE
  5
1C4
330
77
100
AcDbEntity
  8
Visible Tangent Edges(ISO)
100
AcDbLine
 10
468.2204382517106
 20
1384.597631789318
 30
0.0
 11
468.2204382517113
 21
1332.023559656609
 31
0.0
  0
LINE
  5
1C5
330
77
100
AcDbEntity
  8
Visible Tangent Edges(ISO)
100
AcDbLine
 10
822.9576661965197
 20
1332.023559656788
 30
0.0
 11
822.9576661965189
 21
1384.597631789318
 31
0.0
  0
LINE
  5
1C6
330
77
100
AcDbEntity
  8
Visible Tangent Edges(ISO)
100
AcDbLine
 10
821.4585799559904
 20
1384.597631789318
 30
0.0
 11
821.4585799559911
 21
1332.010409010075
 31
0.0
  0
LINE
  5
1C7
330
77
100
AcDbEntity
  8
Visible Tangent Edges(ISO)
100
AcDbLine
 10
833.510999057427
 20
1035.330207516048
 30
0.0
 11
843.6890522241178
 21
1035.330207516048
 31
0.0
  0
LINE
  5
1C8
330
77
100
AcDbEntity
  8
Visible Tangent Edges(ISO)
100
AcDbLine
 10
447.4890522241214
 20
1035.330207516043
 30
0.0
 11
457.6670666109134
 21
1035.330207516043
 31
0.0
  0
LINE
  5
1C9
330
77
100
AcDbEntity
  8
Visible Edges(ISO)
100
AcDbLine
 10
447.4890522241214
 20
1040.801409714969
 30
0.0
 11
457.6651746865138
 21
1040.801409714969
 31
0.0
  0
LINE
  5
1CA
330
77
100
AcDbEntity
  8
Visible Edges(ISO)
100
AcDbLine
 10
843.6890522241178
 20
1040.801409714973
 30
0.0
 11
833.5129297617278
 21
1040.801409714973
 31
0.0
  0
ELLIPSE
  5
1CB
330
77
100
AcDbEntity
  8
Visible Edges(ISO)
100
AcDbEllipse
 10
796.8477810860307
 20
1001.097631789371
 30
0.0
 11
-0.0087287423318699
 21
-0.499999999999199
 31
0.0
210
0.0
220
0.0
230
0.9999999999999998
 40
0.0000913801611598
 41
6.277950918910291
 42
7.848747243602743
  0
ELLIPSE
  5
1CC
330
77
100
AcDbEntity
  8
Visible Edges(ISO)
100
AcDbEllipse
 10
794.3303233622066
 20
1001.097631789371
 30
0.0
 11
0.0087287423318837
 21
-0.4999999999991987
 31
0.0
210
0.0
220
0.0
230
1.0
 40
0.0000913801611598
 41
4.717623370522392
 42
6.288419696877358
  0
ELLIPSE
  5
1CD
330
77
100
AcDbEntity
  8
Visible Edges(ISO)
100
AcDbEllipse
 10
759.3505936563453
 20
1001.09763178937
 30
0.0
 11
-0.0087287423318699
 21
-0.499999999999199
 31
0.0
210
0.0
220
0.0
230
0.9999999999999998
 40
0.0000913801611598
 41
6.277950918910291
 42
7.848747243602743
  0
ELLIPSE
  5
1CE
330
77
100
AcDbEntity
  8
Visible Edges(ISO)
100
AcDbEllipse
 10
756.8331359325212
 20
1001.09763178937
 30
0.0
 11
0.0087287423318837
 21
-0.4999999999991987
 31
0.0
210
0.0
220
0.0
230
1.0
 40
0.0000913801611598
 41
4.717623370522392
 42
6.288419696877358
  0
ELLIPSE
  5
1CF
330
77
100
AcDbEntity
  8
Visible Edges(ISO)
100
AcDbEllipse
 10
721.8477810860315
 20
1001.09763178937
 30
0.0
 11
-0.0087287423318699
 21
-0.499999999999199
 31
0.0
210
0.0
220
0.0
230
0.9999999999999998
 40
0.0000913801611598
 41
6.277950918910291
 42
7.848747243602743
  0
ELLIPSE
  5
1D0
330
77
100
AcDbEntity
  8
Visible Edges(ISO)
100
AcDbEllipse
 10
719.3303233622074
 20
1001.09763178937
 30
0.0
 11
0.0087287423318837
 21
-0.4999999999991987
 31
0.0
210
0.0
220
0.0
230
1.0
 40
0.0000913801611598
 41
4.717623370522392
 42
6.288419696877358
  0
ELLIPSE
  5
1D1
330
77
100
AcDbEntity
  8
Visible Edges(ISO)
100
AcDbEllipse
 10
684.3477810860319
 20
1001.097631789369
 30
0.0
 11
-0.0087287423318699
 21
-0.499999999999199
 31
0.0
210
0.0
220
0.0
230
0.9999999999999998
 40
0.0000913801611598
 41
6.277950918910291
 42
7.848747243602743
  0
ELLIPSE
  5
1D2
330
77
100
AcDbEntity
  8
Visible Edges(ISO)
100
AcDbEllipse
 10
681.8303233622077
 20
1001.097631789369
 30
0.0
 11
0.0087287423318837
 21
-0.4999999999991987
 31
0.0
210
0.0
220
0.0
230
1.0
 40
0.0000913801611598
 41
4.717623370522392
 42
6.288419696877358
  0
ELLIPSE
  5
1D3
330
77
100
AcDbEntity
  8
Visible Edges(ISO)
100
AcDbEllipse
 10
644.3303233622081
 20
1001.097631789369
 30
0.0
 11
0.0087287423318837
 21
-0.4999999999991987
 31
0.0
210
0.0
220
0.0
230
1.0
 40
0.0000913801611598
 41
4.717623370522392
 42
6.288419696877358
  0
ELLIPSE
  5
1D4
330
77
100
AcDbEntity
  8
Visible Edges(ISO)
100
AcDbEllipse
 10
646.8477810860322
 20
1001.097631789369
 30
0.0
 11
-0.0087287423318699
 21
-0.499999999999199
 31
0.0
210
0.0
220
0.0
230
0.9999999999999998
 40
0.0000913801611598
 41
6.277950918910291
 42
7.848747243602743
  0
ELLIPSE
  5
1D5
330
77
100
AcDbEntity
  8
Visible Edges(ISO)
100
AcDbEllipse
 10
606.8303233622084
 20
1001.097631789368
 30
0.0
 11
0.0087287423318837
 21
-0.4999999999991987
 31
0.0
210
0.0
220
0.0
230
1.0
 40
0.0000913801611598
 41
4.717623370522392
 42
6.288419696877358
  0
ELLIPSE
  5
1D6
330
77
100
AcDbEntity
  8
Visible Edges(ISO)
100
AcDbEllipse
 10
609.3477810860325
 20
1001.097631789369
 30
0.0
 11
-0.0087287423318699
 21
-0.499999999999199
 31
0.0
210
0.0
220
0.0
230
0.9999999999999998
 40
0.0000913801611598
 41
6.277950918910291
 42
7.848747243602743
  0
ELLIPSE
  5
1D7
330
77
100
AcDbEntity
  8
Visible Edges(ISO)
100
AcDbEllipse
 10
569.3303233622088
 20
1001.097631789368
 30
0.0
 11
0.0087287423318837
 21
-0.4999999999991987
 31
0.0
210
0.0
220
0.0
230
1.0
 40
0.0000913801611598
 41
4.717623370522392
 42
6.288419696877358
  0
ELLIPSE
  5
1D8
330
77
100
AcDbEntity
  8
Visible Edges(ISO)
100
AcDbEllipse
 10
571.8477810860328
 20
1001.097631789368
 30
0.0
 11
-0.0087287423318699
 21
-0.499999999999199
 31
0.0
210
0.0
220
0.0
230
0.9999999999999998
 40
0.0000913801611598
 41
6.277950918910291
 42
7.848747243602743
  0
ELLIPSE
  5
1D9
330
77
100
AcDbEntity
  8
Visible Edges(ISO)
100
AcDbEllipse
 10
531.8275107918948
 20
1001.097631789368
 30
0.0
 11
0.0087287423318837
 21
-0.4999999999991987
 31
0.0
210
0.0
220
0.0
230
1.0
 40
0.0000913801611598
 41
4.717623370522392
 42
6.288419696877358
  0
ELLIPSE
  5
1DA
330
77
100
AcDbEntity
  8
Visible Edges(ISO)
100
AcDbEllipse
 10
534.3449685157189
 20
1001.097631789368
 30
0.0
 11
-0.0087287423318699
 21
-0.499999999999199
 31
0.0
210
0.0
220
0.0
230
0.9999999999999998
 40
0.0000913801611598
 41
6.277950918910291
 42
7.848747243602743
  0
ELLIPSE
  5
1DB
330
77
100
AcDbEntity
  8
Visible Edges(ISO)
100
AcDbEllipse
 10
494.3303233622094
 20
1001.097631789367
 30
0.0
 11
0.0087287423318837
 21
-0.4999999999991987
 31
0.0
210
0.0
220
0.0
230
1.0
 40
0.0000913801611598
 41
4.717623370522392
 42
6.288419696877358
  0
ELLIPSE
  5
1DC
330
77
100
AcDbEntity
  8
Visible Edges(ISO)
100
AcDbEllipse
 10
496.8477810860335
 20
1001.097631789367
 30
0.0
 11
-0.0087287423318699
 21
-0.499999999999199
 31
0.0
210
0.0
220
0.0
230
0.9999999999999998
 40
0.0000913801611598
 41
6.277950918910291
 42
7.848747243602743
  0
ELLIPSE
  5
1DD
330
77
100
AcDbEntity
  8
Visible Edges(ISO)
100
AcDbEllipse
 10
645.5890522241177
 20
1166.421512442687
 30
0.0
 11
7.615773105863669
 21
0.0000000000001074
 31
0.0
210
0.0
220
0.0
230
1.0
 40
0.9999862922474566
 41
0.0
 42
6.283185307179586
  0
LINE
  5
1DE
330
77
100
AcDbEntity
  8
Visible Tangent Edges(ISO)
100
AcDbLine
 10
755.6753558369076
 20
1270.705735240657
 30
0.0
 11
755.6753558369076
 21
1265.812998658541
 31
0.0
  0
LINE
  5
1DF
330
77
100
AcDbEntity
  8
Visible Tangent Edges(ISO)
100
AcDbLine
 10
535.502748611325
 20
1265.812998658537
 30
0.0
 11
535.5027486113249
 21
1270.705735240653
 31
0.0
  0
LINE
  5
1E0
330
77
100
AcDbEntity
  8
Visible Tangent Edges(ISO)
100
AcDbLine
 10
755.6753558369077
 20
1265.812998658541
 30
0.0
 11
535.502748611325
 21
1265.812998658537
 31
0.0
  0
ELLIPSE
  5
1E1
330
77
100
AcDbEntity
  8
Visible Tangent Edges(ISO)
100
AcDbEllipse
 10
774.3368864465365
 20
1253.611341574581
 30
0.0
 11
-21.99999999999628
 21
0.0000000000347756
 31
0.0
210
0.0
220
0.0
230
1.0
 40
0.0052359638314565
 41
1.278021808206677
 42
1.420699397251589
  0
SPLINE
  5
1E2
330
77
100
AcDbEntity
  8
Visible Tangent Edges(ISO)
100
AcDbSpline
210
0.0
220
0.0
230
1.0
 70
     8
 71
     3
 72
    10
 73
     6
 74
     0
 42
0.0000000001
 43
0.0000000001
 40
12.39131711892168
 40
12.39131711892168
 40
12.39131711892168
 40
12.39131711892168
 40
13.11056143013399
 40
13.11056143013399
 40
13.44991371259143
 40
13.44991371259143
 40
13.44991371259143
 40
13.44991371259143
 10
762.8970456102808
 20
1270.701836192641
 30
0.0
 10
765.1225468108918
 20
1269.764387946961
 30
0.0
 10
767.1676014416572
 20
1268.393443158705
 30
0.0
 10
769.6653544104225
 20
1265.898144033865
 30
0.0
 10
770.3901102558526
 20
1265.018270028195
 30
0.0
 10
771.0308180949239
 20
1264.077734721584
 30
0.0
  0
SPLINE
  5
1E3
330
77
100
AcDbEntity
  8
Visible Tangent Edges(ISO)
100
AcDbSpline
210
0.0
220
0.0
230
1.0
 70
     8
 71
     3
 72
    14
 73
    10
 74
     0
 42
0.0000000001
 43
0.0000000001
 40
-14.56796108613373
 40
-14.56796108613373
 40
-14.56796108613373
 40
-14.56796108613373
 40
-14.54376698095355
 40
-14.54376698095355
 40
-13.11056143013399
 40
-13.11056143013399
 40
-12.21480796087177
 40
-12.21480796087177
 40
-11.65496204258288
 40
-11.65496204258288
 40
-11.65496204258288
 40
-11.65496204258288
 10
767.9874711431859
 20
1253.501052123673
 30
0.0
 10
767.9874426629945
 20
1253.554357743235
 30
0.0
 10
767.9871253925811
 20
1253.607562880888
 30
0.0
 10
767.9455472608654
 20
1256.812403643487
 30
0.0
 10
766.6081845440933
 20
1259.982254269957
 30
0.0
 10
762.9826983879944
 20
1263.604178673837
 30
0.0
 10
761.2321652692023
 20
1264.665220950141
 30
0.0
 10
758.1558637389329
 20
1265.624054391738
 30
0.0
 10
756.9065673675354
 20
1265.81299865854
 30
0.0
 10
755.6753558369077
 20
1265.81299865854
 30
0.0
  0
ELLIPSE
  5
1E4
330
77
100
AcDbEntity
  8
Visible Tangent Edges(ISO)
100
AcDbEllipse
 10
516.8412180016914
 20
1253.611341574622
 30
0.0
 11
-22.00000000002041
 21
0.0000000000193017
 31
0.0
210
0.0
220
0.0
230
1.0
 40
0.0052359638313851
 41
1.720893256338626
 42
1.863570845383456
  0
SPLINE
  5
1E5
330
77
100
AcDbEntity
  8
Visible Tangent Edges(ISO)
100
AcDbSpline
210
0.0
220
0.0
230
1.0
 70
     8
 71
     3
 72
    14
 73
    10
 74
     0
 42
0.0000000001
 43
0.0000000001
 40
0.0
 40
0.0
 40
0.0
 40
0.0
 40
0.5598459182888861
 40
0.5598459182888861
 40
1.455599387551103
 40
1.455599387551103
 40
2.888804938370652
 40
2.888804938370652
 40
2.916048593243444
 40
2.916048593243444
 40
2.916048593243444
 40
2.916048593243444
 10
535.502748611325
 20
1265.812998658537
 30
0.0
 10
534.2715370806972
 20
1265.812998658537
 30
0.0
 10
533.0367558288143
 20
1265.626541305877
 30
0.0
 10
529.970496473254
 20
1264.676093643424
 30
0.0
 10
528.2170585851733
 20
1263.621144291525
 30
0.0
 10
524.5729051830947
 20
1259.992639272849
 30
0.0
 10
523.2383567869858
 20
1256.847147048292
 30
0.0
 10
523.1910736358326
 20
1253.621319287814
 30
0.0
 10
523.1906721107799
 20
1253.561152741393
 30
0.0
 10
523.1906333050472
 20
1253.5010521237
 30
0.0
  0
SPLINE
  5
1E6
330
77
100
AcDbEntity
  8
Visible Tangent Edges(ISO)
100
AcDbSpline
210
0.0
220
0.0
230
1.0
 70
     8
 71
     3
 72
    10
 73
     6
 74
     0
 42
0.0000000001
 43
0.0000000001
 40
-1.798760369495793
 40
-1.798760369495793
 40
-1.798760369495793
 40
-1.798760369495793
 40
-1.455599387551103
 40
-1.455599387551103
 40
-0.7393559579232285
 40
-0.7393559579232285
 40
-0.7393559579232285
 40
-0.7393559579232285
 10
520.1384322799054
 20
1264.069529422725
 30
0.0
 10
520.7865765416507
 20
1265.019917325761
 30
0.0
 10
521.5215309546084
 20
1265.90957520448
 30
0.0
 10
524.0340604460755
 20
1268.411315626318
 30
0.0
 10
526.0736953957302
 20
1269.772598673305
 30
0.0
 10
528.2850979678932
 20
1270.703493902637
 30
0.0
  0
ELLIPSE
  5
1E7
330
77
100
AcDbEntity
  8
Visible Tangent Edges(ISO)
100
AcDbEllipse
 10
774.3368864465395
 20
1079.441121864026
 30
0.0
 11
-22.00000000000018
 21
-0.0000000000003101
 31
0.0
210
0.0
220
0.0
230
1.0
 40
0.0052359638314228
 41
1.278021808206564
 42
1.420699397251317
  0
LINE
  5
1E8
330
77
100
AcDbEntity
  8
Visible Tangent Edges(ISO)
100
AcDbLine
 10
767.9874711431883
 20
1079.330832413108
 30
0.0
 11
767.9874711431859
 21
1253.501052123673
 31
0.0
  0
ELLIPSE
  5
1E9
330
77
100
AcDbEntity
  8
Visible Tangent Edges(ISO)
100
AcDbEllipse
 10
516.8412180017039
 20
1079.441121864022
 30
0.0
 11
-21.99999999997434
 21
-0.0000000000003102
 31
0.0
210
0.0
220
0.0
230
1.0
 40
0.0052359638314228
 41
1.720893256338118
 42
1.863570845383421
  0
LINE
  5
1EA
330
77
100
AcDbEntity
  8
Visible Tangent Edges(ISO)
100
AcDbLine
 10
523.1906333050472
 20
1253.5010521237
 30
0.0
 11
523.1906333050496
 21
1079.330832413105
 31
0.0
  0
LINE
  5
1EB
330
77
100
AcDbEntity
  8
Visible Tangent Edges(ISO)
100
AcDbLine
 10
755.6753558368888
 20
1065.792384251403
 30
0.0
 11
755.6753558368907
 21
1067.01888587826
 31
0.0
  0
SPLINE
  5
1EC
330
77
100
AcDbEntity
  8
Visible Tangent Edges(ISO)
100
AcDbSpline
210
0.0
220
0.0
230
1.0
 70
     8
 71
     3
 72
    14
 73
    10
 74
     0
 42
0.0000000001
 43
0.0000000001
 40
-14.56796108613381
 40
-14.56796108613381
 40
-14.56796108613381
 40
-14.56796108613381
 40
-14.54376698095356
 40
-14.54376698095356
 40
-13.11056143013401
 40
-13.11056143013401
 40
-12.21480796087179
 40
-12.21480796087179
 40
-11.6549620425829
 40
-11.6549620425829
 40
-11.6549620425829
 40
-11.6549620425829
 10
755.6753558368907
 20
1067.01888587826
 30
0.0
 10
755.7286621871636
 20
1067.018914358061
 30
0.0
 10
755.7818680541494
 20
1067.019231624126
 30
0.0
 10
758.9867527485145
 20
1067.060809185899
 30
0.0
 10
762.1566468271079
 20
1068.398153570434
 30
0.0
 10
765.7786208801125
 20
1072.023590029265
 30
0.0
 10
766.8396777011206
 20
1073.774099152183
 30
0.0
 10
767.7985242863496
 20
1076.850358513272
 30
0.0
 10
767.9874711431883
 20
1078.099637759624
 30
0.0
 10
767.9874711431883
 20
1079.330832413108
 30
0.0
  0
LINE
  5
1ED
330
77
100
AcDbEntity
  8
Visible Tangent Edges(ISO)
100
AcDbLine
 10
535.5027486113167
 20
1067.018885878257
 30
0.0
 11
535.5027486113156
 21
1065.792384251399
 31
0.0
  0
SPLINE
  5
1EE
330
77
100
AcDbEntity
  8
Visible Tangent Edges(ISO)
100
AcDbSpline
210
0.0
220
0.0
230
1.0
 70
     8
 71
     3
 72
    14
 73
    10
 74
     0
 42
0.0000000001
 43
0.0000000001
 40
0.0
 40
0.0
 40
0.0
 40
0.0
 40
0.5598459182888882
 40
0.5598459182888882
 40
1.455599387551109
 40
1.455599387551109
 40
2.888804938370663
 40
2.888804938370663
 40
2.916048593243431
 40
2.916048593243431
 40
2.916048593243431
 40
2.916048593243431
 10
523.1906333050497
 20
1079.330832413105
 30
0.0
 10
523.1906333050497
 20
1078.09963775962
 30
0.0
 10
523.3770932136565
 20
1076.864873433813
 30
0.0
 10
524.3275539047898
 20
1073.798656109777
 30
0.0
 10
525.3825177178714
 20
1072.045242257389
 30
0.0
 10
529.0110724758776
 20
1068.401138808464
 30
0.0
 10
532.1566078186555
 20
1067.066608706014
 30
0.0
 10
535.3824797985883
 20
1067.019326203006
 30
0.0
 10
535.4426471697685
 20
1067.018924683458
 30
0.0
 10
535.5027486113167
 20
1067.018885878257
 30
0.0
  0
LINE
  5
1EF
330
77
100
AcDbEntity
  8
Visible Tangent Edges(ISO)
100
AcDbLine
 10
535.5027486113167
 20
1067.018885878257
 30
0.0
 11
755.6753558368907
 21
1067.01888587826
 31
0.0
  0
LINE
  5
1F0
330
77
100
AcDbEntity
  8
Visible Tangent Edges(ISO)
100
AcDbLine
 10
535.5027486113278
 20
1074.239601810657
 30
0.0
 11
535.5027486113278
 21
1067.018885878257
 31
0.0
  0
ELLIPSE
  5
1F1
330
77
100
AcDbEntity
  8
Visible Tangent Edges(ISO)
100
AcDbEllipse
 10
535.5027486113276
 20
1079.336402587394
 30
0.0
 11
-5.096870643378736
 21
-0.0000000000000896
 31
0.0
210
0.0
220
0.0
230
1.0
 40
0.9999862922474564
 41
0.0000000000000524
 42
1.570796326794913
  0
ELLIPSE
  5
1F2
330
77
100
AcDbEntity
  8
Visible Tangent Edges(ISO)
100
AcDbEllipse
 10
530.4058779679494
 20
1079.205503491609
 30
0.0
 11
25.00000000000304
 21
0.0000000000004146
 31
0.0
210
0.0
220
0.0
230
1.0
 40
0.0052359638313894
 41
1.570796326794559
 42
1.863570845383085
  0
LINE
  5
1F3
330
77
100
AcDbEntity
  8
Visible Tangent Edges(ISO)
100
AcDbLine
 10
530.4058779679464
 20
1253.506622297978
 30
0.0
 11
530.405877967949
 21
1079.336402587394
 31
0.0
  0
ELLIPSE
  5
1F4
330
77
100
AcDbEntity
  8
Visible Tangent Edges(ISO)
100
AcDbEllipse
 10
530.4058779679472
 20
1253.375723202192
 30
0.0
 11
25.00000000000559
 21
0.0000000000003525
 31
0.0
210
0.0
220
0.0
230
1.0
 40
0.0052359638314228
 41
1.570796326794964
 42
1.863570845383428
  0
ELLIPSE
  5
1F5
330
77
100
AcDbEntity
  8
Visible Tangent Edges(ISO)
100
AcDbEllipse
 10
535.5027486113252
 20
1253.506622297978
 30
0.0
 11
-5.096870643378735
 21
-0.0000000000000896
 31
0.0
210
0.0
220
0.0
230
1.0
 40
0.9999862922474566
 41
4.712388980384689
 42
6.283185307179603
  0
LINE
  5
1F6
330
77
100
AcDbEntity
  8
Visible Tangent Edges(ISO)
100
AcDbLine
 10
535.5027486113251
 20
1258.603423074715
 30
0.0
 11
535.502748611325
 21
1265.812998658537
 31
0.0
  0
LINE
  5
1F7
330
77
100
AcDbEntity
  8
Visible Tangent Edges(ISO)
100
AcDbLine
 10
755.6753558369079
 20
1258.603423074718
 30
0.0
 11
535.5027486113251
 21
1258.603423074715
 31
0.0
  0
LINE
  5
1F8
330
77
100
AcDbEntity
  8
Visible Tangent Edges(ISO)
100
AcDbLine
 10
755.6753558369077
 20
1265.81299865854
 30
0.0
 11
755.6753558369079
 21
1258.603423074718
 31
0.0
  0
LINE
  5
1F9
330
77
100
AcDbEntity
  8
Visible Tangent Edges(ISO)
100
AcDbLine
 10
755.6753558369104
 20
1067.01888587826
 30
0.0
 11
755.6753558369104
 21
1074.23960181066
 31
0.0
  0
LINE
  5
1FA
330
77
100
AcDbEntity
  8
Visible Tangent Edges(ISO)
100
AcDbLine
 10
535.5027486113278
 20
1074.239601810657
 30
0.0
 11
755.6753558369104
 21
1074.23960181066
 31
0.0
  0
ELLIPSE
  5
1FB
330
77
100
AcDbEntity
  8
Visible Tangent Edges(ISO)
100
AcDbEllipse
 10
760.7722264802895
 20
1079.205503491613
 30
0.0
 11
24.99999999999664
 21
0.0000000000002939
 31
0.0
210
0.0
220
0.0
230
1.0
 40
0.0052359638313894
 41
1.278021808152129
 42
1.570796326794932
  0
ELLIPSE
  5
1FC
330
77
100
AcDbEntity
  8
Visible Tangent Edges(ISO)
100
AcDbEllipse
 10
755.6753558369102
 20
1079.336402587397
 30
0.0
 11
5.096870643378771
 21
0.0000000000001074
 31
0.0
210
0.0
220
0.0
230
1.0
 40
0.9999862922474564
 41
4.712388980384686
 42
6.283185307179565
  0
ELLIPSE
  5
1FD
330
77
100
AcDbEntity
  8
Visible Tangent Edges(ISO)
100
AcDbEllipse
 10
760.7722264802871
 20
1253.375723202196
 30
0.0
 11
24.99999999999607
 21
0.0000000000003547
 31
0.0
210
0.0
220
0.0
230
1.0
 40
0.0052359638314228
 41
1.278021808154877
 42
1.570796326794932
  0
LINE
  5
1FE
330
77
100
AcDbEntity
  8
Visible Tangent Edges(ISO)
100
AcDbLine
 10
760.772226480289
 20
1079.336402587397
 30
0.0
 11
760.7722264802866
 21
1253.506622297981
 31
0.0
  0
ELLIPSE
  5
1FF
330
77
100
AcDbEntity
  8
Visible Tangent Edges(ISO)
100
AcDbEllipse
 10
755.6753558369079
 20
1253.506622297981
 30
0.0
 11
5.096870643378736
 21
0.0000000000000363
 31
0.0
210
0.0
220
0.0
230
1.0
 40
0.9999862922474564
 41
0.0
 42
1.570796326794889
  0
ELLIPSE
  5
200
330
77
100
AcDbEntity
  8
Visible Tangent Edges(ISO)
100
AcDbEllipse
 10
470.0890988358208
 20
1325.452945042956
 30
0.0
 11
-0.3135820634288694
 21
0.3894435639090352
 31
0.0
210
0.0
220
0.0
230
1.0
 40
0.0021892194374492
 41
0.0
 42
0.0204601744802515
  0
SPLINE
  5
201
330
77
100
AcDbEntity
  8
Visible Tangent Edges(ISO)
100
AcDbSpline
210
0.0
220
0.0
230
1.0
 70
     8
 71
     3
 72
    10
 73
     6
 74
     0
 42
0.0000000001
 43
0.0000000001
 40
0.0786192995169188
 40
0.0786192995169188
 40
0.0786192995169188
 40
0.0786192995169188
 40
0.0792994888039245
 40
0.0792994888039245
 40
0.0796683408873405
 40
0.0796683408873405
 40
0.0796683408873405
 40
0.0796683408873405
 10
467.1807609769914
 20
1323.512879202075
 30
0.0
 10
467.1807669107014
 20
1323.512885135798
 30
0.0
 10
467.1807837426511
 20
1323.512880172919
 30
0.0
 10
467.1808265250526
 20
1323.512855697189
 30
0.0
 10
467.1808447741277
 20
1323.512843885078
 30
0.0
 10
467.1808662287301
 20
1323.512828866468
 30
0.0
  0
ELLIPSE
  5
202
330
77
100
AcDbEntity
  8
Visible Tangent Edges(ISO)
100
AcDbEllipse
 10
490.1651746865105
 20
1300.527736781434
 30
0.0
 11
-29.29547826073406
 21
14.08585441287263
 31
0.0
210
0.0
220
0.0
230
0.9999999999999998
 40
0.9998122489351953
 41
5.838557655062501
 42
5.945897747158347
  0
SPLINE
  5
203
330
77
100
AcDbEntity
  8
Visible Tangent Edges(ISO)
100
AcDbSpline
210
0.0
220
0.0
230
1.0
 70
     8
 71
     3
 72
     8
 73
     4
 74
     0
 42
0.0000000001
 43
0.0000000001
 40
0.0
 40
0.0
 40
0.0
 40
0.0
 40
0.0122177167326062
 40
0.0122177167326062
 40
0.0122177167326062
 40
0.0122177167326062
 10
800.8782607499208
 20
1332.931040546234
 30
0.0
 10
800.8782833727771
 20
1332.931065422008
 30
0.0
 10
800.8783059956336
 20
1332.931075872558
 30
0.0
 10
800.8783286184899
 20
1332.931071997605
 30
0.0
  0
SPLINE
  5
204
330
77
100
AcDbEntity
  8
Visible Tangent Edges(ISO)
100
AcDbSpline
210
0.0
220
0.0
230
1.0
 70
     8
 71
     3
 72
     8
 73
     4
 74
     0
 42
0.0000000001
 43
0.0000000001
 40
1.558675559961677
 40
1.558675559961677
 40
1.558675559961677
 40
1.558675559961677
 40
1.570893276694352
 40
1.570893276694352
 40
1.570893276694352
 40
1.570893276694352
 10
490.299775829742
 20
1332.931071997601
 30
0.0
 10
490.2997984525984
 20
1332.931075872553
 30
0.0
 10
490.2998210754548
 20
1332.931065422003
 30
0.0
 10
490.2998436983112
 20
1332.931040546229
 30
0.0
  0
LINE
  5
205
330
77
100
AcDbEntity
  8
Visible Tangent Edges(ISO)
100
AcDbLine
 10
490.2998436983112
 20
1332.931040546229
 30
0.0
 11
800.8782607499208
 21
1332.931040546234
 31
0.0
  0
ELLIPSE
  5
206
330
77
100
AcDbEntity
  8
Visible Tangent Edges(ISO)
100
AcDbEllipse
 10
833.012929761354
 20
1035.680200679585
 30
0.0
 11
0.500000000372145
 21
0.0000000000000321
 31
0.0
210
0.0
220
0.0
230
1.0
 40
0.0052359638314227
 41
6.283184634618809
 42
6.300637927240447
  0
ELLIPSE
  5
207
330
77
100
AcDbEntity
  8
Visible Tangent Edges(ISO)
100
AcDbEllipse
 10
801.0129297617268
 20
1035.683612173721
 30
0.0
 11
10.11266759404663
 21
-30.89171473976247
 31
0.0
210
0.0
220
0.0
230
0.9999999999999998
 40
0.9998328289670828
 41
0.4691326712223134
 42
1.254378541372608
  0
SPLINE
  5
208
330
77
100
AcDbEntity
  8
Visible Tangent Edges(ISO)
100
AcDbSpline
210
0.0
220
0.0
230
1.0
 70
     8
 71
     3
 72
    10
 73
     6
 74
     0
 42
0.0000000001
 43
0.0000000001
 40
-0.0003607101279408
 40
-0.0003607101279408
 40
-0.0003607101279408
 40
-0.0003607101279408
 40
0.0
 40
0.0
 40
0.0010587434950986
 40
0.0010587434950986
 40
0.0010587434950986
 40
0.0010587434950986
 10
823.9972382194926
 20
1012.700717469626
 30
0.0
 10
823.9972592004967
 20
1012.700690195276
 30
0.0
 10
823.99727711551
 20
1012.70066598592
 30
0.0
 10
823.9973355493212
 20
1012.70058278309
 30
0.0
 10
823.9973527062712
 20
1012.700547152626
 30
0.0
 10
823.9973434714642
 20
1012.700537918243
 30
0.0
  0
SPLINE
  5
209
330
77
100
AcDbEntity
  8
Visible Tangent Edges(ISO)
100
AcDbSpline
210
0.0
220
0.0
230
1.0
 70
     8
 71
     3
 72
     8
 73
     4
 74
     0
 42
0.0000000001
 43
0.0000000001
 40
0.0
 40
0.0
 40
0.0
 40
0.0
 40
0.0226903409802781
 40
0.0226903409802781
 40
0.0226903409802781
 40
0.0226903409802781
 10
490.2998436983165
 20
1003.367040953142
 30
0.0
 10
490.2998016838929
 20
1003.366955161215
 30
0.0
 10
490.2997596694694
 20
1003.366919165356
 30
0.0
 10
490.2997176550458
 20
1003.366932333685
 30
0.0
  0
SPLINE
  5
20A
330
77
100
AcDbEntity
  8
Visible Tangent Edges(ISO)
100
AcDbSpline
210
0.0
220
0.0
230
1.0
 70
     8
 71
     3
 72
     8
 73
     4
 74
     0
 42
0.0000000001
 43
0.0000000001
 40
1.548202935713925
 40
1.548202935713925
 40
1.548202935713925
 40
1.548202935713925
 40
1.570893276694219
 40
1.570893276694219
 40
1.570893276694219
 40
1.570893276694219
 10
800.8783867931967
 20
1003.36693233369
 30
0.0
 10
800.8783447787731
 20
1003.366919165361
 30
0.0
 10
800.8783027643495
 20
1003.36695516122
 30
0.0
 10
800.8782607499259
 20
1003.367040953147
 30
0.0
  0
LINE
  5
20B
330
77
100
AcDbEntity
  8
Visible Tangent Edges(ISO)
100
AcDbLine
 10
800.8782607499259
 20
1003.367040953147
 30
0.0
 11
490.2998436983165
 21
1003.367040953142
 31
0.0
  0
ELLIPSE
  5
20C
330
77
100
AcDbEntity
  8
Visible Tangent Edges(ISO)
100
AcDbEllipse
 10
809.8181941282241
 20
1005.140642010951
 30
0.0
 11
0.1396461532499074
 21
-0.480103063969321
 31
0.0
210
0.0
220
0.0
230
0.9999999999999998
 40
0.0039331379022707
 41
0.0
 42
0.0266606841073838
  0
ELLIPSE
  5
20D
330
77
100
AcDbEntity
  8
Visible Tangent Edges(ISO)
100
AcDbEllipse
 10
817.7306712575976
 20
1008.481191734738
 30
0.0
 11
0.235352131136078
 21
-0.4411455251518037
 31
0.0
210
0.0
220
0.0
230
0.9999999999999998
 40
0.9064724968719046
 41
0.0000000000301301
 42
0.067457216789606
  0
SPLINE
  5
20E
330
77
100
AcDbEntity
  8
Visible Tangent Edges(ISO)
100
AcDbSpline
210
0.0
220
0.0
230
1.0
 70
     8
 71
     3
 72
    20
 73
    16
 74
     0
 42
0.0000000001
 43
0.0000000001
 40
0.0
 40
0.0
 40
0.0
 40
0.0
 40
0.187273302448622
 40
0.187273302448622
 40
0.4012999338184757
 40
0.4012999338184757
 40
0.5350665784246341
 40
0.5350665784246341
 40
0.6019499007277134
 40
0.6019499007277134
 40
0.7089632164126402
 40
0.7089632164126402
 40
0.8801845215085229
 40
0.8801845215085229
 40
1.070133156849268
 40
1.070133156849268
 40
1.070133156849268
 40
1.070133156849268
 10
817.9924428717981
 20
1008.055429966428
 30
0.0
 10
817.7563947549884
 20
1007.929214387201
 30
0.0
 10
817.4680502481335
 20
1007.773890004075
 30
0.0
 10
816.7480655674546
 20
1007.395851113322
 30
0.0
 10
816.3046229876865
 20
1007.168262811321
 30
0.0
 10
815.4977769915491
 20
1006.776273656142
 30
0.0
 10
815.1647143158532
 20
1006.619238976237
 30
0.0
 10
814.6370982588852
 20
1006.3805477009
 30
0.0
 10
814.4565878305366
 20
1006.300469390041
 30
0.0
 10
813.9769148747669
 20
1006.092319691796
 30
0.0
 10
813.6715474347452
 20
1005.964302835042
 30
0.0
 10
812.8587650130775
 20
1005.636881796113
 30
0.0
 10
812.3344659730527
 20
1005.438533759631
 30
0.0
 10
811.1936209576171
 20
1005.038770505058
 30
0.0
 10
810.5752993552929
 20
1004.840326427729
 30
0.0
 10
809.9578409924381
 20
1004.660724205184
 30
0.0
  0
ELLIPSE
  5
20F
330
77
100
AcDbEntity
  8
Visible Tangent Edges(ISO)
100
AcDbEllipse
 10
821.0890056124014
 20
1010.760681682683
 30
0.0
 11
0.3135646776383189
 21
-0.3894575625507637
 31
0.0
210
0.0
220
0.0
230
0.9999999999999998
 40
0.0087566110029119
 41
6.283185177558131
 42
6.311802092986598
  0
SPLINE
  5
210
330
77
100
AcDbEntity
  8
Visible Tangent Edges(ISO)
100
AcDbSpline
210
0.0
220
0.0
230
1.0
 70
     8
 71
     3
 72
    14
 73
    10
 74
     0
 42
0.0000000001
 43
0.0000000001
 40
0.0
 40
0.0
 40
0.0
 40
0.0
 40
0.1797137136245155
 40
0.1797137136245155
 40
0.3417091737930931
 40
0.3417091737930931
 40
0.4429563363984541
 40
0.4429563363984541
 40
0.5062358130268047
 40
0.5062358130268047
 40
0.5062358130268047
 40
0.5062358130268047
 10
821.4025394851372
 20
1010.371462142641
 30
0.0
 10
820.9286624997115
 20
1009.989925909285
 30
0.0
 10
820.436813362175
 20
1009.621640748523
 30
0.0
 10
819.5627760364912
 20
1009.009281888121
 30
0.0
 10
819.1684307388685
 20
1008.751785836534
 30
0.0
 10
818.6217960715143
 20
1008.413687586228
 30
0.0
 10
818.4303111201629
 20
1008.300387350231
 30
0.0
 10
818.1639332444657
 20
1008.148681349615
 30
0.0
 10
818.0722033133321
 20
1008.098078094545
 30
0.0
 10
817.9924428717981
 20
1008.055429966428
 30
0.0
  0
SPLINE
  5
211
330
77
100
AcDbEntity
  8
Visible Tangent Edges(ISO)
100
AcDbSpline
210
0.0
220
0.0
230
1.0
 70
     8
 71
     3
 72
    20
 73
    16
 74
     0
 42
0.0000000001
 43
0.0000000001
 40
0.000000000000003
 40
0.000000000000003
 40
0.000000000000003
 40
0.000000000000003
 40
0.112833268786798
 40
0.112833268786798
 40
0.112833268786798
 40
0.2933664988456701
 40
0.2933664988456701
 40
0.2933664988456701
 40
0.5822196669398653
 40
0.5822196669398653
 40
0.5822196669398653
 40
0.9026661502943632
 40
0.9026661502943632
 40
0.9026661502943632
 40
0.9035406824133712
 40
0.9035406824133712
 40
0.9035406824133712
 40
0.9035406824133712
 10
809.9578409924381
 20
1004.660724205184
 30
0.0
 10
809.5910584393777
 20
1004.55403691146
 30
0.0
 10
809.2219708372837
 20
1004.45369333705
 30
0.0
 10
808.8509025153301
 20
1004.359823905208
 30
0.0
 10
808.2571932002045
 20
1004.209632814262
 30
0.0
 10
807.6584098417225
 20
1004.076023632726
 30
0.0
 10
807.0559600180056
 20
1003.959415716463
 30
0.0
 10
806.0920403000585
 20
1003.772843050442
 30
0.0
 10
805.1187346824065
 20
1003.629852288762
 30
0.0
 10
804.1420754743832
 20
1003.531301043385
 30
0.0
 10
803.0585941654823
 20
1003.421970755546
 30
0.0
 10
801.971982426591
 20
1003.367344204478
 30
0.0
 10
800.8871426953813
 20
1003.367042212416
 30
0.0
 10
800.8841820537821
 20
1003.367041388248
 30
0.0
 10
800.8812214052419
 20
1003.36704096849
 30
0.0
 10
800.8782607499259
 20
1003.367040953147
 30
0.0
  0
ELLIPSE
  5
212
330
77
100
AcDbEntity
  8
Visible Tangent Edges(ISO)
100
AcDbEllipse
 10
801.0129297617268
 20
1035.683612173721
 30
0.0
 11
31.05139879091165
 21
-9.613507265721677
 31
0.0
210
0.0
220
0.0
230
1.0
 40
0.9997454508991676
 41
5.690613309372874
 42
5.797953401468082
  0
SPLINE
  5
213
330
77
100
AcDbEntity
  8
Visible Tangent Edges(ISO)
100
AcDbSpline
210
0.0
220
0.0
230
1.0
 70
     8
 71
     3
 72
    29
 73
    25
 74
     0
 42
0.0000000001
 43
0.0000000001
 40
-0.0008745321190114
 40
-0.0008745321190114
 40
-0.0008745321190114
 40
-0.0008745321190114
 40
0.0
 40
0.0
 40
0.0
 40
0.1602232416883611
 40
0.1602232416883611
 40
0.1602232416883611
 40
0.3046498257454753
 40
0.3046498257454753
 40
0.3046498257454753
 40
0.3949164407811716
 40
0.3949164407811716
 40
0.3949164407811716
 40
0.4513330751784819
 40
0.4513330751784819
 40
0.4513330751784819
 40
0.5641663439731023
 40
0.5641663439731023
 40
0.5641663439731023
 40
0.7446995740444951
 40
0.7446995740444951
 40
0.7446995740444951
 40
0.9026661503569636
 40
0.9026661503569636
 40
0.9026661503569636
 40
0.9026661503569636
 10
490.2998436983165
 20
1003.367040953142
 30
0.0
 10
490.2968830430006
 20
1003.367040968485
 30
0.0
 10
490.2939223944603
 20
1003.367041388243
 30
0.0
 10
490.2909617528612
 20
1003.367042212411
 30
0.0
 10
489.7485418872186
 20
1003.367193208442
 30
0.0
 10
489.2060807954557
 20
1003.380905652036
 30
0.0
 10
488.6633093919362
 20
1003.40826487294
 30
0.0
 10
488.1740506620033
 20
1003.432926705868
 30
0.0
 10
487.6847946710847
 20
1003.46868045062
 30
0.0
 10
487.1962911527274
 20
1003.515530416781
 30
0.0
 10
486.8909764537541
 20
1003.544811645632
 30
0.0
 10
486.5859561043546
 20
1003.578425988563
 30
0.0
 10
486.2814150993642
 20
1003.616360772813
 30
0.0
 10
486.0910769712452
 20
1003.640070012969
 30
0.0
 10
485.9009261059245
 20
1003.665466714001
 30
0.0
 10
485.7110076518854
 20
1003.692545670571
 30
0.0
 10
485.3311707438073
 20
1003.746703583712
 30
0.0
 10
484.9522638225405
 20
1003.807592109472
 30
0.0
 10
484.5746454612045
 20
1003.875150312455
 30
0.0
 10
483.970456083067
 20
1003.983243437229
 30
0.0
 10
483.3695696769103
 20
1004.108418650837
 30
0.0
 10
482.7734125811208
 20
1004.250294931007
 30
0.0
 10
482.2517751223048
 20
1004.374436676156
 30
0.0
 10
481.733759029511
 20
1004.511361994122
 30
0.0
 10
481.2202634551937
 20
1004.660724205356
 30
0.0
  0
ELLIPSE
  5
214
330
77
100
AcDbEntity
  8
Visible Tangent Edges(ISO)
100
AcDbEllipse
 10
481.3599103192448
 20
1005.140642011236
 30
0.0
 11
-0.139646153079498
 21
-0.4801030640848192
 31
0.0
210
0.0
220
0.0
230
1.0
 40
0.0039331384883304
 41
6.256524623054843
 42
6.283185307204428
  0
ELLIPSE
  5
215
330
77
100
AcDbEntity
  8
Visible Tangent Edges(ISO)
100
AcDbEllipse
 10
833.0129297613336
 20
1300.534072663679
 30
0.0
 11
0.500000000388452
 21
0.0000000000000321
 31
0.0
210
0.0
220
0.0
230
1.0
 40
0.0052359638314227
 41
6.283184634618809
 42
6.300637927239876
  0
LINE
  5
216
330
77
100
AcDbEntity
  8
Visible Tangent Edges(ISO)
100
AcDbLine
 10
833.5128536093002
 20
1300.534118353763
 30
0.0
 11
833.5128536093044
 21
1035.68024636967
 31
0.0
  0
SPLINE
  5
217
330
77
100
AcDbEntity
  8
Visible Tangent Edges(ISO)
100
AcDbSpline
210
0.0
220
0.0
230
1.0
 70
     8
 71
     3
 72
    14
 73
    10
 74
     0
 42
0.0000000001
 43
0.0000000001
 40
0.0000000000334911
 40
0.0000000000334911
 40
0.0000000000334911
 40
0.0000000000334911
 40
0.1337634156907564
 40
0.1337634156907564
 40
0.3477848807423808
 40
0.3477848807423808
 40
0.6902192248249799
 40
0.6902192248249799
 40
1.070107325291613
 40
1.070107325291613
 40
1.070107325291613
 40
1.070107325291613
 10
481.2202634553296
 20
1004.660724205317
 30
0.0
 10
480.7854441185475
 20
1004.787201590666
 30
0.0
 10
480.3500181814191
 20
1004.922977576311
 30
0.0
 10
479.2336453012966
 20
1005.294500605937
 30
0.0
 10
478.5628685837185
 20
1005.541433403863
 30
0.0
 10
476.925898646222
 20
1006.194540991412
 30
0.0
 10
475.9971545153243
 20
1006.618906419034
 30
0.0
 10
474.3572348545377
 20
1007.423669420916
 30
0.0
 10
473.6644904834005
 20
1007.799398828962
 30
0.0
 10
473.185661576444
 20
1008.055429966422
 30
0.0
  0
ELLIPSE
  5
218
330
77
100
AcDbEntity
  8
Visible Tangent Edges(ISO)
100
AcDbEllipse
 10
473.447433190633
 20
1008.48119173474
 30
0.0
 11
-0.2353521310949924
 21
-0.4411455251756517
 31
0.0
210
0.0
220
0.0
230
1.0
 40
0.9064724968708885
 41
6.21572809034633
 42
6.283185307105445
  0
ELLIPSE
  5
219
330
77
100
AcDbEntity
  8
Visible Tangent Edges(ISO)
100
AcDbEllipse
 10
801.0129297617226
 20
1300.52773678144
 30
0.0
 11
14.8364248764693
 21
28.92265915471565
 31
0.0
210
0.0
220
0.0
230
1.0
 40
0.9997640749567397
 41
5.18645831920028
 42
5.971704189350099
  0
SPLINE
  5
21A
330
77
100
AcDbEntity
  8
Visible Tangent Edges(ISO)
100
AcDbSpline
210
0.0
220
0.0
230
1.0
 70
     8
 71
     3
 72
    10
 73
     6
 74
     0
 42
0.0000000001
 43
0.0000000001
 40
-0.0006801897500709
 40
-0.0006801897500709
 40
-0.0006801897500709
 40
-0.0006801897500709
 40
0.0
 40
0.0
 40
0.0003688523340274
 40
0.0003688523340274
 40
0.0003688523340274
 40
0.0003688523340274
 10
823.9973434712405
 20
1323.512879202082
 30
0.0
 10
823.9973375375306
 20
1323.512885135804
 30
0.0
 10
823.9973207055811
 20
1323.512880172925
 30
0.0
 10
823.9972779231797
 20
1323.512855697195
 30
0.0
 10
823.9972596741008
 20
1323.512843885088
 30
0.0
 10
823.9972382194984
 20
1323.512828866477
 30
0.0
  0
ELLIPSE
  5
21B
330
77
100
AcDbEntity
  8
Visible Tangent Edges(ISO)
100
AcDbEllipse
 10
470.0890988359128
 20
1010.760681682337
 30
0.0
 11
-0.3135646777103406
 21
-0.3894575622104137
 31
0.0
210
0.0
220
0.0
230
0.9999999999999998
 40
0.0087566110106302
 41
6.254568391770586
 42
6.283185307174534
  0
SPLINE
  5
21C
330
77
100
AcDbEntity
  8
Visible Tangent Edges(ISO)
100
AcDbSpline
210
0.0
220
0.0
230
1.0
 70
     8
 71
     3
 72
    14
 73
    10
 74
     0
 42
0.0000000001
 43
0.0000000001
 40
0.0000000000000008
 40
0.0000000000000008
 40
0.0000000000000008
 40
0.0000000000000008
 40
0.0632794766283576
 40
0.0632794766283576
 40
0.1645266392337284
 40
0.1645266392337284
 40
0.3265220994023217
 40
0.3265220994023217
 40
0.506235813026855
 40
0.506235813026855
 40
0.506235813026855
 40
0.506235813026855
 10
473.185661576444
 20
1008.055429966422
 30
0.0
 10
473.10590113491
 20
1008.09807809454
 30
0.0
 10
473.0141712037765
 20
1008.148681349609
 30
0.0
 10
472.7477933280793
 20
1008.300387350225
 30
0.0
 10
472.5563083767277
 20
1008.413687586222
 30
0.0
 10
472.0096737093739
 20
1008.751785836529
 30
0.0
 10
471.6153284117516
 20
1009.009281888115
 30
0.0
 10
470.7412910860717
 20
1009.621640748514
 30
0.0
 10
470.2494419485307
 20
1009.989925909279
 30
0.0
 10
469.775564963105
 20
1010.371462142635
 30
0.0
  0
ELLIPSE
  5
21D
330
77
100
AcDbEntity
  8
Visible Tangent Edges(ISO)
100
AcDbEllipse
 10
821.0890056120051
 20
1325.452945043219
 30
0.0
 11
0.3135820638351444
 21
0.3894435636511362
 31
0.0
210
0.0
220
0.0
230
0.9999999999999998
 40
0.002189219444528
 41
6.262725155842514
 42
6.283185330070252
  0
ELLIPSE
  5
21E
330
77
100
AcDbEntity
  8
Visible Tangent Edges(ISO)
100
AcDbEllipse
 10
801.0129297617226
 20
1300.52773678144
 30
0.0
 11
29.29547826074119
 21
14.08585441285786
 31
0.0
210
0.0
220
0.0
230
0.9999999999999998
 40
0.9998122489351953
 41
0.3372875600219256
 42
0.4446276521176112
  0
ELLIPSE
  5
21F
330
77
100
AcDbEntity
  8
Visible Tangent Edges(ISO)
100
AcDbEllipse
 10
490.1651746865146
 20
1035.683612173716
 30
0.0
 11
-31.05139879091483
 21
-9.61350726571154
 31
0.0
210
0.0
220
0.0
230
1.0
 40
0.999745450899168
 41
0.4852319057151826
 42
0.5925719978070676
  0
SPLINE
  5
220
330
77
100
AcDbEntity
  8
Visible Tangent Edges(ISO)
100
AcDbSpline
210
0.0
220
0.0
230
1.0
 70
     8
 71
     3
 72
    10
 73
     6
 74
     0
 42
0.0000000001
 43
0.0000000001
 40
-0.0796683625689229
 40
-0.0796683625689229
 40
-0.0796683625689229
 40
-0.0796683625689229
 40
-0.0793076526931255
 40
-0.0793076526931255
 40
-0.0782489099373659
 40
-0.0782489099373659
 40
-0.0782489099373659
 40
-0.0782489099373659
 10
467.180866228826
 20
1012.700717469543
 30
0.0
 10
467.1808452478217
 20
1012.700690195194
 30
0.0
 10
467.1808273327318
 20
1012.700665985915
 30
0.0
 10
467.1807688989214
 20
1012.700582783084
 30
0.0
 10
467.1807517419716
 20
1012.700547152619
 30
0.0
 10
467.1807609767786
 20
1012.700537918236
 30
0.0
  0
ELLIPSE
  5
221
330
77
100
AcDbEntity
  8
Visible Tangent Edges(ISO)
100
AcDbEllipse
 10
817.7306712575827
 20
1327.759583912693
 30
0.0
 11
0.2439533294148675
 21
0.4364479042190844
 31
0.0
210
0.0
220
0.0
230
1.0
 40
0.9043414030199501
 41
6.237376802781959
 42
6.283185307196735
  0
SPLINE
  5
222
330
77
100
AcDbEntity
  8
Visible Tangent Edges(ISO)
100
AcDbSpline
210
0.0
220
0.0
230
1.0
 70
     8
 71
     3
 72
    14
 73
    10
 74
     0
 42
0.0000000001
 43
0.0000000001
 40
0.0
 40
0.0
 40
0.0
 40
0.0
 40
0.1797133066044175
 40
0.1797133066044175
 40
0.3417083998816388
 40
0.3417083998816388
 40
0.4429553331799021
 40
0.4429553331799021
 40
0.5062346664913166
 40
0.5062346664913166
 40
0.5062346664913166
 40
0.5062346664913166
 10
817.9924428717932
 20
1328.185471366569
 30
0.0
 10
818.2189620127223
 20
1328.058671361346
 30
0.0
 10
818.5428022012178
 20
1327.867608222231
 30
0.0
 10
819.2732116967253
 20
1327.402606388639
 30
0.0
 10
819.6737307309753
 20
1327.134894664726
 30
0.0
 10
820.352972379845
 20
1326.650202910603
 30
0.0
 10
820.6248498665317
 20
1326.449214788997
 30
0.0
 10
821.066139961645
 20
1326.110036504239
 30
0.0
 10
821.2356817695768
 20
1325.976648488273
 30
0.0
 10
821.4025394851322
 20
1325.842293050599
 30
0.0
  0
ELLIPSE
  5
223
330
77
100
AcDbEntity
  8
Visible Tangent Edges(ISO)
100
AcDbEllipse
 10
458.1651746864265
 20
1035.680200679579
 30
0.0
 11
-0.4999999999112514
 21
-0.0000000000000079
 31
0.0
210
0.0
220
0.0
230
1.0
 40
0.0052359638314227
 41
6.265732014658544
 42
6.283185307177213
  0
ELLIPSE
  5
224
330
77
100
AcDbEntity
  8
Visible Tangent Edges(ISO)
100
AcDbEllipse
 10
490.1651746865146
 20
1035.683612173716
 30
0.0
 11
-10.1126675940534
 21
-30.89171473976028
 31
0.0
210
0.0
220
0.0
230
1.0
 40
0.9998328289670824
 41
5.028806765807225
 42
5.814052635960844
  0
SPLINE
  5
225
330
77
100
AcDbEntity
  8
Visible Tangent Edges(ISO)
100
AcDbSpline
210
0.0
220
0.0
230
1.0
 70
     8
 71
     3
 72
    14
 73
    10
 74
     0
 42
0.0000000001
 43
0.0000000001
 40
0.0
 40
0.0
 40
0.0
 40
0.0
 40
0.3798972706814934
 40
0.3798972706814934
 40
0.722339880873262
 40
0.722339880873262
 40
0.9363665122431171
 40
0.9363665122431171
 40
1.070133156849276
 40
1.070133156849276
 40
1.070133156849276
 40
1.070133156849276
 10
809.957840992433
 20
1331.637259240976
 30
0.0
 10
811.1927577181424
 20
1331.278024492652
 30
0.0
 10
812.4219300979122
 20
1330.840061668548
 30
0.0
 10
814.514330254371
 20
1329.975768246796
 30
0.0
 10
815.4197798021217
 20
1329.547036740588
 30
0.0
 10
816.6384353446462
 20
1328.927295221512
 30
0.0
 10
817.0557927385013
 20
1328.703283880357
 30
0.0
 10
817.6286814894702
 20
1328.388876938805
 30
0.0
 10
817.8238370740718
 20
1328.279852865386
 30
0.0
 10
817.9924428717932
 20
1328.185471366569
 30
0.0
  0
ELLIPSE
  5
226
330
77
100
AcDbEntity
  8
Visible Tangent Edges(ISO)
100
AcDbEllipse
 10
458.1651746864157
 20
1300.534072663673
 30
0.0
 11
-0.4999999999046434
 21
-0.0000000000000079
 31
0.0
210
0.0
220
0.0
230
1.0
 40
0.0052359638314227
 41
6.26573201465683
 42
6.28318530717573
  0
LINE
  5
227
330
77
100
AcDbEntity
  8
Visible Tangent Edges(ISO)
100
AcDbLine
 10
457.665250838937
 20
1035.680246369664
 30
0.0
 11
457.6652508389328
 21
1300.534118353757
 31
0.0
  0
SPLINE
  5
228
330
77
100
AcDbEntity
  8
Visible Tangent Edges(ISO)
100
AcDbSpline
210
0.0
220
0.0
230
1.0
 70
     8
 71
     3
 72
    20
 73
    16
 74
     0
 42
0.0000000001
 43
0.0000000001
 40
-0.0008745321190119
 40
-0.0008745321190119
 40
-0.0008745321190119
 40
-0.0008745321190119
 40
0.0
 40
0.0
 40
0.0
 40
0.3204464833544978
 40
0.3204464833544978
 40
0.3204464833544978
 40
0.6092996514486931
 40
0.6092996514486931
 40
0.6092996514486931
 40
0.7898328815075651
 40
0.7898328815075651
 40
0.7898328815075651
 40
0.90266615029436
 40
0.90266615029436
 40
0.90266615029436
 40
0.90266615029436
 10
800.8782607499208
 20
1332.931040546234
 30
0.0
 10
800.8812214052367
 20
1332.931040537972
 30
0.0
 10
800.8841820537769
 20
1332.931040125257
 30
0.0
 10
800.887142695376
 20
1332.931039308095
 30
0.0
 10
801.9719824265859
 20
1332.930739883078
 30
0.0
 10
803.0585941654772
 20
1332.876110874019
 30
0.0
 10
804.1420754743779
 20
1332.766773056095
 30
0.0
 10
805.1187346824011
 20
1332.668215023038
 30
0.0
 10
806.0920403000531
 20
1332.525213351336
 30
0.0
 10
807.0559600180004
 20
1332.338625717743
 30
0.0
 10
807.6584098417173
 20
1332.222008446748
 30
0.0
 10
808.2571932001993
 20
1332.08838832762
 30
0.0
 10
808.850902515325
 20
1331.938184751635
 30
0.0
 10
809.2219708372786
 20
1331.844307516645
 30
0.0
 10
809.5910584393726
 20
1331.743955535061
 30
0.0
 10
809.957840992433
 20
1331.637259240975
 30
0.0
  0
ELLIPSE
  5
229
330
77
100
AcDbEntity
  8
Visible Tangent Edges(ISO)
100
AcDbEllipse
 10
490.1651746865105
 20
1300.527736781434
 30
0.0
 11
-14.83642487647491
 21
28.92265915471275
 31
0.0
210
0.0
220
0.0
230
0.9999999999999998
 40
0.9997640749567406
 41
0.3114811178294783
 42
1.096726987979144
  0
SPLINE
  5
22A
330
77
100
AcDbEntity
  8
Visible Tangent Edges(ISO)
100
AcDbSpline
210
0.0
220
0.0
230
1.0
 70
     8
 71
     3
 72
    29
 73
    25
 74
     0
 42
0.0000000001
 43
0.0000000001
 40
0.0
 40
0.0
 40
0.0
 40
0.0
 40
0.160223241677248
 40
0.160223241677248
 40
0.160223241677248
 40
0.3046498257243448
 40
0.3046498257243448
 40
0.3046498257243448
 40
0.3949164407537804
 40
0.3949164407537804
 40
0.3949164407537804
 40
0.4513330751471776
 40
0.4513330751471776
 40
0.4513330751471776
 40
0.564166343933972
 40
0.564166343933972
 40
0.564166343933972
 40
0.7446995739928429
 40
0.7446995739928429
 40
0.7446995739928429
 40
0.902666150294355
 40
0.902666150294355
 40
0.902666150294355
 40
0.9035406824133593
 40
0.9035406824133593
 40
0.9035406824133593
 40
0.9035406824133593
 10
481.2202634557991
 20
1331.63725924097
 30
0.0
 10
481.7410946811449
 20
1331.788767978572
 30
0.0
 10
482.2665766590745
 20
1331.927480552012
 30
0.0
 10
482.795770683982
 20
1332.053035774522
 30
0.0
 10
483.2727906500956
 20
1332.166212313122
 30
0.0
 10
483.7528249552473
 20
1332.268698522084
 30
0.0
 10
484.2351463115709
 20
1332.360292270405
 30
0.0
 10
484.536597159273
 20
1332.417538363105
 30
0.0
 10
484.8389406973659
 20
1332.470530811877
 30
0.0
 10
485.1419945233737
 20
1332.519233229777
 30
0.0
 10
485.3314031646286
 20
1332.549672240964
 30
0.0
 10
485.5210891981673
 20
1332.578435661044
 30
0.0
 10
485.7110076521935
 20
1332.605516670317
 30
0.0
 10
486.0908445602459
 20
1332.659678688863
 30
0.0
 10
486.471611160516
 20
1332.707109436197
 30
0.0
 10
486.8529460581398
 20
1332.747773761346
 30
0.0
 10
487.463081894338
 20
1332.812836681582
 30
0.0
 10
488.0746700445851
 20
1332.860569082292
 30
0.0
 10
488.6862433952614
 20
1332.890964679829
 30
0.0
 10
489.2213700771031
 20
1332.917560827674
 30
0.0
 10
489.756181603668
 20
1332.930891704209
 30
0.0
 10
490.290961752856
 20
1332.93103930809
 30
0.0
 10
490.2939223944551
 20
1332.931040125252
 30
0.0
 10
490.2968830429953
 20
1332.931040537967
 30
0.0
 10
490.2998436983112
 20
1332.931040546229
 30
0.0
  0
ELLIPSE
  5
22B
330
77
100
AcDbEntity
  8
Visible Tangent Edges(ISO)
100
AcDbEllipse
 10
473.4474331906323
 20
1327.759583912669
 30
0.0
 11
-0.2439533292877419
 21
0.4364479042986716
 31
0.0
210
0.0
220
0.0
230
0.9999999999999998
 40
0.9043414030182919
 41
0.0
 42
0.0458085046924142
  0
SPLINE
  5
22C
330
77
100
AcDbEntity
  8
Visible Tangent Edges(ISO)
100
AcDbSpline
210
0.0
220
0.0
230
1.0
 70
     8
 71
     3
 72
    14
 73
    10
 74
     0
 42
0.0000000001
 43
0.0000000001
 40
0.0000000000000137
 40
0.0000000000000137
 40
0.0000000000000137
 40
0.0000000000000137
 40
0.0632793333114537
 40
0.0632793333114537
 40
0.1645262666097578
 40
0.1645262666097578
 40
0.3265213598870443
 40
0.3265213598870443
 40
0.5062346664915341
 40
0.5062346664915341
 40
0.5062346664915341
 40
0.5062346664915341
 10
469.7755649631
 20
1325.842293050594
 30
0.0
 10
469.9424226786554
 20
1325.976648488268
 30
0.0
 10
470.111964486587
 20
1326.110036504233
 30
0.0
 10
470.5532545816981
 20
1326.449214788989
 30
0.0
 10
470.8251320683822
 20
1326.650202910593
 30
0.0
 10
471.504373717244
 20
1327.134894664711
 30
0.0
 10
471.9048927515052
 20
1327.402606388632
 30
0.0
 10
472.6353022470117
 20
1327.867608222224
 30
0.0
 10
472.9591424355098
 20
1328.058671361341
 30
0.0
 10
473.1856615764391
 20
1328.185471366563
 30
0.0
  0
SPLINE
  5
22D
330
77
100
AcDbEntity
  8
Visible Tangent Edges(ISO)
100
AcDbSpline
210
0.0
220
0.0
230
1.0
 70
     8
 71
     3
 72
    14
 73
    10
 74
     0
 42
0.0000000001
 43
0.0000000001
 40
0.0000000000000075
 40
0.0000000000000075
 40
0.0000000000000075
 40
0.0000000000000075
 40
0.1337666446061647
 40
0.1337666446061647
 40
0.3477932759760161
 40
0.3477932759760161
 40
0.6902358861677783
 40
0.6902358861677783
 40
1.070133156849264
 40
1.070133156849264
 40
1.070133156849264
 40
1.070133156849264
 10
473.1856615764391
 20
1328.185471366564
 30
0.0
 10
473.3542673741604
 20
1328.27985286538
 30
0.0
 10
473.5494229587621
 20
1328.3888769388
 30
0.0
 10
474.1223117097309
 20
1328.703283880352
 30
0.0
 10
474.539669103586
 20
1328.927295221506
 30
0.0
 10
475.7583246461106
 20
1329.547036740583
 30
0.0
 10
476.6637741938612
 20
1329.97576824679
 30
0.0
 10
478.7561743503199
 20
1330.840061668542
 30
0.0
 10
479.9853467300897
 20
1331.278024492647
 30
0.0
 10
481.2202634557991
 20
1331.63725924097
 30
0.0
  0
ELLIPSE
  5
22E
330
77
100
AcDbEntity
  8
Visible Tangent Edges(ISO)
100
AcDbEllipse
 10
771.5471390427477
 20
1265.713348088822
 30
0.0
 11
-0.5000000000269456
 21
-0.0000000000000041
 31
0.0
210
0.0
220
0.0
230
1.0
 40
0.0052359638314227
 41
6.230825536672744
 42
6.283185414397046
  0
ELLIPSE
  5
22F
330
77
100
AcDbEntity
  8
Visible Tangent Edges(ISO)
100
AcDbEllipse
 10
766.0546766015706
 20
1265.714855249278
 30
0.0
 11
0.0002731518706646
 21
5.008278771109301
 31
0.0
210
0.0
220
0.0
230
0.9999999999999998
 40
0.9969788188327919
 41
4.712169779476397
 42
5.496198415003417
  0
SPLINE
  5
230
330
77
100
AcDbEntity
  8
Visible Edges(ISO)
100
AcDbSpline
210
0.0
220
0.0
230
1.0
 70
     8
 71
     3
 72
    10
 73
     6
 74
     0
 42
0.0000000001
 43
0.0000000001
 40
-0.0806147569532355
 40
-0.0806147569532355
 40
-0.0806147569532355
 40
-0.0806147569532355
 40
-0.0802580207694747
 40
-0.0802580207694747
 40
-0.0767228247117128
 40
-0.0767228247117128
 40
-0.0767228247117128
 40
-0.0767228247117128
 10
769.5911629973245
 20
1269.250419488895
 30
0.0
 10
769.591100847039
 20
1269.250351130142
 30
0.0
 10
769.5910416839607
 20
1269.25028575691
 30
0.0
 10
769.5904288265766
 20
1269.249605131308
 30
0.0
 10
769.5901661583104
 20
1269.249280815446
 30
0.0
 10
769.5901968742767
 20
1269.249249907993
 30
0.0
  0
LINE
  5
231
330
77
100
AcDbEntity
  8
Visible Tangent Edges(ISO)
100
AcDbLine
 10
525.1234278466633
 20
1270.706564332344
 30
0.0
 11
525.1234278466633
 21
1270.705735240652
 31
0.0
  0
ELLIPSE
  5
232
330
77
100
AcDbEntity
  8
Visible Tangent Edges(ISO)
100
AcDbEllipse
 10
525.1234278466634
 20
1265.714855249274
 30
0.0
 11
-5.003054885667816
 21
0.2279440610335622
 31
0.0
210
0.0
220
0.0
230
0.9999999999999998
 40
0.9966914672038333
 41
4.75776804113446
 42
5.541796676661523
  0
SPLINE
  5
233
330
77
100
AcDbEntity
  8
Visible Edges(ISO)
100
AcDbSpline
210
0.0
220
0.0
230
1.0
 70
     8
 71
     3
 72
    10
 73
     6
 74
     0
 42
0.0000000001
 43
0.0000000001
 40
-0.0806147569536893
 40
-0.0806147569536893
 40
-0.0806147569536893
 40
-0.0806147569536893
 40
-0.0802580207697234
 40
-0.0802580207697234
 40
-0.0767228247116228
 40
-0.0767228247116228
 40
-0.0767228247116228
 40
-0.0767228247116228
 10
521.5869414509093
 20
1269.250419488891
 30
0.0
 10
521.5870036011949
 20
1269.250351130138
 30
0.0
 10
521.5870627642577
 20
1269.250285756891
 30
0.0
 10
521.5876756216832
 20
1269.24960513133
 30
0.0
 10
521.5879382899638
 20
1269.249280815482
 30
0.0
 10
521.5879075739997
 20
1269.249249908031
 30
0.0
  0
ELLIPSE
  5
234
330
77
100
AcDbEntity
  8
Visible Tangent Edges(ISO)
100
AcDbEllipse
 10
519.6309654054864
 20
1265.713348088818
 30
0.0
 11
0.5000000000269279
 21
0.0000000000000118
 31
0.0
210
0.0
220
0.0
230
1.0
 40
0.0052359638314227
 41
6.28318519995606
 42
6.3355450776126
  0
LINE
  5
235
330
77
100
AcDbEntity
  8
Visible Tangent Edges(ISO)
100
AcDbLine
 10
520.1302801728907
 20
1265.713485103404
 30
0.0
 11
520.1302801728939
 21
1070.784908417821
 31
0.0
  0
ELLIPSE
  5
236
330
77
100
AcDbEntity
  8
Visible Tangent Edges(ISO)
100
AcDbEllipse
 10
519.630965405518
 20
1070.784771403235
 30
0.0
 11
0.4999999999984175
 21
0.0000000000000079
 31
0.0
210
0.0
220
0.0
230
1.0
 40
0.0052359638314227
 41
0.0
 42
0.0523598775841672
  0
ELLIPSE
  5
237
330
77
100
AcDbEntity
  8
Visible Tangent Edges(ISO)
100
AcDbEllipse
 10
525.1234278466633
 20
1265.714855249274
 30
0.0
 11
-0.000273151871053
 21
5.008278771109283
 31
0.0
210
0.0
220
0.0
230
0.9999999999999998
 40
0.9969788188327951
 41
0.7869868921761274
 42
1.571015527703182
  0
ELLIPSE
  5
238
330
77
100
AcDbEntity
  8
Visible Tangent Edges(ISO)
100
AcDbEllipse
 10
525.1234278466665
 20
1070.786278563692
 30
0.0
 11
-0.4556709619544069
 21
-4.987357405731025
 31
0.0
210
0.0
220
0.0
230
0.9999999999999998
 40
0.9969833497544138
 41
4.803501479519953
 42
5.587530115047019
  0
LINE
  5
239
330
77
100
AcDbEntity
  8
Visible Tangent Edges(ISO)
100
AcDbLine
 10
525.1234278466666
 20
1065.792384251401
 30
0.0
 11
525.1234278466666
 21
1065.791829188881
 31
0.0
  0
ELLIPSE
  5
23A
330
77
100
AcDbEntity
  8
Visible Tangent Edges(ISO)
100
AcDbEllipse
 10
525.1234278466665
 20
1070.786278563692
 30
0.0
 11
-5.003242257149527
 21
-0.2236424210661771
 31
0.0
210
0.0
220
0.0
230
1.0
 40
0.9972413099242604
 41
0.7422209942573286
 42
1.526249629784375
  0
LINE
  5
23B
330
77
100
AcDbEntity
  8
Visible Tangent Edges(ISO)
100
AcDbLine
 10
766.0546766015706
 20
1270.706564332348
 30
0.0
 11
766.0546766015706
 21
1270.705735240655
 31
0.0
  0
LINE
  5
23C
330
77
100
AcDbEntity
  8
Visible Tangent Edges(ISO)
100
AcDbLine
 10
766.0546766015706
 20
1270.706564332348
 30
0.0
 11
525.1234278466633
 21
1270.706564332344
 31
0.0
  0
LINE
  5
23D
330
77
100
AcDbEntity
  8
Visible Tangent Edges(ISO)
100
AcDbLine
 10
766.0546766015739
 20
1065.792384251404
 30
0.0
 11
766.0546766015739
 21
1065.791829188885
 31
0.0
  0
LINE
  5
23E
330
77
100
AcDbEntity
  8
Visible Tangent Edges(ISO)
100
AcDbLine
 10
525.1234278466666
 20
1065.791829188881
 30
0.0
 11
766.0546766015738
 21
1065.791829188885
 31
0.0
  0
ELLIPSE
  5
23F
330
77
100
AcDbEntity
  8
Visible Tangent Edges(ISO)
100
AcDbEllipse
 10
766.0546766015706
 20
1265.714855249278
 30
0.0
 11
5.003054885667808
 21
0.2279440610337725
 31
0.0
210
0.0
220
0.0
230
1.0
 40
0.9966914672038328
 41
0.741388630518058
 42
1.525417266045118
  0
ELLIPSE
  5
240
330
77
100
AcDbEntity
  8
Visible Tangent Edges(ISO)
100
AcDbEllipse
 10
766.0546766015738
 20
1070.786278563695
 30
0.0
 11
5.003242257149524
 21
-0.2236424210662007
 31
0.0
210
0.0
220
0.0
230
0.9999999999999998
 40
0.9972413099242604
 41
4.756935677395215
 42
5.540964312922275
  0
ELLIPSE
  5
241
330
77
100
AcDbEntity
  8
Visible Tangent Edges(ISO)
100
AcDbEllipse
 10
771.5471390427482
 20
1070.784771403239
 30
0.0
 11
-0.5000000000243522
 21
-0.0000000000000079
 31
0.0
210
0.0
220
0.0
230
1.0
 40
0.0052359638314227
 41
6.230825429592997
 42
6.283185307176422
  0
ELLIPSE
  5
242
330
77
100
AcDbEntity
  8
Visible Tangent Edges(ISO)
100
AcDbEllipse
 10
766.0546766015738
 20
1070.786278563695
 30
0.0
 11
0.4556709619542091
 21
-4.987357405731063
 31
0.0
210
0.0
220
0.0
230
1.0
 40
0.9969833497544101
 41
0.6956551921326089
 42
1.479683827659672
  0
LINE
  5
243
330
77
100
AcDbEntity
  8
Visible Tangent Edges(ISO)
100
AcDbLine
 10
771.0478242753465
 20
1070.784908417826
 30
0.0
 11
771.0478242753435
 21
1265.713485103409
 31
0.0
  0
SPLINE
  5
244
330
77
100
AcDbEntity
  8
Visible Edges(ISO)
100
AcDbSpline
210
0.0
220
0.0
230
1.0
 70
     8
 71
     3
 72
     8
 73
     4
 74
     0
 42
0.0000000001
 43
0.0000000001
 40
0.0
 40
0.0
 40
0.0
 40
0.0
 40
0.3487038256575041
 40
0.3487038256575041
 40
0.3487038256575041
 40
0.3487038256575041
 10
467.1807609774538
 20
1323.512879202639
 30
0.0
 10
468.0027717404939
 20
1324.334669169966
 30
0.0
 10
468.8701824716082
 20
1325.113408532422
 30
0.0
 10
469.7755167723919
 20
1325.842388606865
 30
0.0
  0
LINE
  5
245
330
77
100
AcDbEntity
  8
Visible Edges(ISO)
100
AcDbLine
 10
800.8783286203902
 20
1332.931077861404
 30
0.0
 11
490.2997758278418
 21
1332.931077861399
 31
0.0
  0
SPLINE
  5
246
330
77
100
AcDbEntity
  8
Visible Edges(ISO)
100
AcDbSpline
210
0.0
220
0.0
230
1.0
 70
     8
 71
     3
 72
    12
 73
     8
 74
     0
 42
0.0000000001
 43
0.0000000001
 40
0.0
 40
0.0
 40
0.0
 40
0.0
 40
1.054225324731573
 40
1.054225324731573
 40
2.089322090211849
 40
2.089322090211849
 40
2.542795574412092
 40
2.542795574412092
 40
2.542795574412092
 40
2.542795574412092
 10
833.512929761726
 20
1035.680200679585
 30
0.0
 10
833.512929761726
 20
1032.166162963682
 30
0.0
 10
832.9280744557156
 20
1028.606812815829
 30
0.0
 10
830.6993652948108
 20
1022.008661644048
 30
0.0
 10
829.0477084050788
 20
1018.879418217713
 30
0.0
 10
826.0623205119777
 20
1014.916099942502
 30
0.0
 10
825.0660105612722
 20
1013.769558999768
 30
0.0
 10
823.9973434722102
 20
1012.700537918653
 30
0.0
  0
LINE
  5
247
330
77
100
AcDbEntity
  8
Visible Edges(ISO)
100
AcDbLine
 10
490.2997176531589
 20
1003.366912257804
 30
0.0
 11
800.8783867950835
 21
1003.366912257809
 31
0.0
  0
SPLINE
  5
248
330
77
100
AcDbEntity
  8
Visible Edges(ISO)
100
AcDbSpline
210
0.0
220
0.0
230
1.0
 70
     8
 71
     3
 72
    26
 73
    22
 74
     0
 42
0.0000000001
 43
0.0000000001
 40
0.0
 40
0.0
 40
0.0
 40
0.0
 40
0.1070133156849268
 40
0.1070133156849268
 40
0.2140266313698536
 40
0.2140266313698536
 40
0.3210399470547804
 40
0.3210399470547804
 40
0.4280532627397073
 40
0.4280532627397073
 40
0.5350665784246341
 40
0.5350665784246341
 40
0.6420798941095609
 40
0.6420798941095609
 40
0.7490932097944877
 40
0.7490932097944877
 40
0.8561065254794144
 40
0.8561065254794144
 40
0.9631198411643413
 40
0.9631198411643413
 40
1.070133156849268
 40
1.070133156849268
 40
1.070133156849268
 40
1.070133156849268
 10
817.9660233887336
 20
1008.040046209586
 30
0.0
 10
817.8337303575634
 20
1007.969467579533
 30
0.0
 10
817.6838749649537
 20
1007.889151878561
 30
0.0
 10
817.3508803740517
 20
1007.711953070118
 30
0.0
 10
817.1677334217829
 20
1007.615075624208
 30
0.0
 10
816.7709737295227
 20
1007.408478508729
 30
0.0
 10
816.5573719111694
 20
1007.29877433442
 30
0.0
 10
816.1034868835166
 20
1007.070745478332
 30
0.0
 10
815.8637252467558
 20
1006.952656416813
 30
0.0
 10
815.3545028364252
 20
1006.708657960329
 30
0.0
 10
815.0857332381061
 20
1006.583117027397
 30
0.0
 10
814.5242699224311
 20
1006.329299047179
 30
0.0
 10
814.2315988955298
 20
1006.201042168499
 30
0.0
 10
813.6279612234288
 20
1005.946174876322
 30
0.0
 10
813.3180075860535
 20
1005.819960086661
 30
0.0
 10
812.6808699228751
 20
1005.571060129142
 30
0.0
 10
812.3527483076736
 20
1005.448045166357
 30
0.0
 10
811.6832622363654
 20
1005.208489919548
 30
0.0
 10
811.3419289253487
 20
1005.091966963302
 30
0.0
 10
810.6529045678632
 20
1004.868511029664
 30
0.0
 10
810.3052491107467
 20
1004.761588721966
 30
0.0
 10
809.957840281474
 20
1004.660538946982
 30
0.0
  0
SPLINE
  5
249
330
77
100
AcDbEntity
  8
Visible Edges(ISO)
100
AcDbSpline
210
0.0
220
0.0
230
1.0
 70
     8
 71
     3
 72
    16
 73
    12
 74
     0
 42
0.0000000001
 43
0.0000000001
 40
0.0
 40
0.0
 40
0.0
 40
0.0
 40
0.1012471626053609
 40
0.1012471626053609
 40
0.2024943252107219
 40
0.2024943252107219
 40
0.3037414878160828
 40
0.3037414878160828
 40
0.4049886504214438
 40
0.4049886504214438
 40
0.5062358130268047
 40
0.5062358130268047
 40
0.5062358130268047
 40
0.5062358130268047
 10
821.4025702900396
 20
1010.371224120133
 30
0.0
 10
821.1347799526169
 20
1010.155617597237
 30
0.0
 10
820.8602869365495
 20
1009.943180400606
 30
0.0
 10
820.3191451680755
 20
1009.540419801208
 30
0.0
 10
820.0543073229516
 20
1009.351264901024
 30
0.0
 10
819.5414483597657
 20
1008.998372960339
 30
0.0
 10
819.2944851629885
 20
1008.835478451036
 30
0.0
 10
818.8403358536721
 20
1008.546502113845
 30
0.0
 10
818.6322765488784
 20
1008.419723865808
 30
0.0
 10
818.2605792257014
 20
1008.201359726341
 30
0.0
 10
818.0989749651775
 20
1008.110976175026
 30
0.0
 10
817.9660233887336
 20
1008.040046209586
 30
0.0
  0
SPLINE
  5
24A
330
77
100
AcDbEntity
  8
Visible Edges(ISO)
100
AcDbSpline
210
0.0
220
0.0
230
1.0
 70
     8
 71
     3
 72
    16
 73
    12
 74
     0
 42
0.0000000001
 43
0.0000000001
 40
-0.9035282267438635
 40
-0.9035282267438635
 40
-0.9035282267438635
 40
-0.9035282267438635
 40
-0.7228225813950914
 40
-0.7228225813950914
 40
-0.5421169360463193
 40
-0.5421169360463193
 40
-0.3614112906975472
 40
-0.3614112906975472
 40
-0.1807056453487751
 40
-0.1807056453487751
 40
-0.000000000000003
 40
-0.000000000000003
 40
-0.000000000000003
 40
-0.000000000000003
 10
800.8783867913097
 20
1003.366912265761
 30
0.0
 10
801.4901500328591
 20
1003.36691408183
 30
0.0
 10
802.1020496716868
 20
1003.384167173868
 30
0.0
 10
803.3263267966757
 20
1003.453412151986
 30
0.0
 10
803.9383039559913
 20
1003.505411147422
 30
0.0
 10
805.1589850980489
 20
1003.644108617873
 30
0.0
 10
805.7676859171094
 20
1003.730807136507
 30
0.0
 10
806.9788474232968
 20
1003.938509569785
 30
0.0
 10
807.5813050650078
 20
1004.059512746271
 30
0.0
 10
808.777096370497
 20
1004.335098638138
 30
0.0
 10
809.3704271088045
 20
1004.48967982102
 30
0.0
 10
809.957840281474
 20
1004.660538946982
 30
0.0
  0
SPLINE
  5
24B
330
77
100
AcDbEntity
  8
Visible Edges(ISO)
100
AcDbSpline
210
0.0
220
0.0
230
1.0
 70
     8
 71
     3
 72
     8
 73
     4
 74
     0
 42
0.0000000001
 43
0.0000000001
 40
0.0
 40
0.0
 40
0.0
 40
0.0
 40
0.3487058391203306
 40
0.3487058391203306
 40
0.3487058391203306
 40
0.3487058391203306
 10
823.9973434705644
 20
1012.700537917007
 30
0.0
 10
823.1753273922873
 20
1011.878816579496
 30
0.0
 10
822.3079108119957
 20
1011.100142586174
 30
0.0
 10
821.4025702900396
 20
1010.371224120133
 30
0.0
  0
SPLINE
  5
24C
330
77
100
AcDbEntity
  8
Visible Edges(ISO)
100
AcDbSpline
210
0.0
220
0.0
230
1.0
 70
     8
 71
     3
 72
    16
 73
    12
 74
     0
 42
0.0000000001
 43
0.0000000001
 40
-0.9026661503569636
 40
-0.9026661503569636
 40
-0.9026661503569636
 40
-0.9026661503569636
 40
-0.7219605049956698
 40
-0.7219605049956698
 40
-0.541254859634376
 40
-0.541254859634376
 40
-0.3605492142730821
 40
-0.3605492142730821
 40
-0.1798435689117882
 40
-0.1798435689117882
 40
0.0008620764495056
 40
0.0008620764495056
 40
0.0008620764495056
 40
0.0008620764495056
 10
481.2202641661578
 20
1004.660538947154
 30
0.0
 10
481.8076773388646
 20
1004.489679821169
 30
0.0
 10
482.4010080772106
 20
1004.335098638265
 30
0.0
 10
483.5967993827787
 20
1004.059512746361
 30
0.0
 10
484.1992570245298
 20
1003.938509569858
 30
0.0
 10
485.4104185307989
 20
1003.730807136552
 30
0.0
 10
486.0191193499008
 20
1003.644108617906
 30
0.0
 10
487.2398004920417
 20
1003.505411147435
 30
0.0
 10
487.851777651399
 20
1003.453412151992
 30
0.0
 10
489.0760547764715
 20
1003.384167173865
 30
0.0
 10
489.687954415341
 20
1003.366914081825
 30
0.0
 10
490.2997176569328
 20
1003.366912265756
 30
0.0
  0
LINE
  5
24D
330
77
100
AcDbEntity
  8
Visible Edges(ISO)
100
AcDbLine
 10
833.5129297617218
 20
1300.534072663679
 30
0.0
 11
833.5129297617262
 21
1035.680200679585
 31
0.0
  0
SPLINE
  5
24E
330
77
100
AcDbEntity
  8
Visible Edges(ISO)
100
AcDbSpline
210
0.0
220
0.0
230
1.0
 70
     8
 71
     3
 72
    26
 73
    22
 74
     0
 42
0.0000000001
 43
0.0000000001
 40
-1.070107325291612
 40
-1.070107325291612
 40
-1.070107325291612
 40
-1.070107325291612
 40
-0.963096592767194
 40
-0.963096592767194
 40
-0.8560858602427753
 40
-0.8560858602427753
 40
-0.7490751277183568
 40
-0.7490751277183568
 40
-0.642064395193938
 40
-0.642064395193938
 40
-0.5350536626695193
 40
-0.5350536626695193
 40
-0.4280429301451005
 40
-0.4280429301451005
 40
-0.3210321976206817
 40
-0.3210321976206817
 40
-0.2140214650962629
 40
-0.2140214650962629
 40
-0.1070107325718441
 40
-0.1070107325718441
 40
-0.0000000000474253
 40
-0.0000000000474253
 40
-0.0000000000474253
 40
-0.0000000000474253
 10
473.2120810595084
 20
1008.04004620958
 30
0.0
 10
473.3443708972992
 20
1007.969469283202
 30
0.0
 10
473.4941657109274
 20
1007.889186367714
 30
0.0
 10
473.8268178115466
 20
1007.712168704846
 30
0.0
 10
474.0096818221227
 20
1007.615440186441
 30
0.0
 10
474.4055878764689
 20
1007.409276229549
 30
0.0
 10
474.6186177166133
 20
1007.299856663673
 30
0.0
 10
475.0710805098176
 20
1007.072502860647
 30
0.0
 10
475.3115336633984
 20
1006.95404049954
 30
0.0
 10
475.8215963920176
 20
1006.709598356621
 30
0.0
 10
476.0906357827121
 20
1006.583917892881
 30
0.0
 10
476.6521593199632
 20
1006.33004010896
 30
0.0
 10
476.944618761332
 20
1006.201863070866
 30
0.0
 10
477.5473240057768
 20
1005.947341129653
 30
0.0
 10
477.8564916318814
 20
1005.821401192005
 30
0.0
 10
478.4947911586091
 20
1005.571982236946
 30
0.0
 10
478.8234705171054
 20
1005.448735713296
 30
0.0
 10
479.4938851043808
 20
1005.208816624486
 30
0.0
 10
479.8355887544502
 20
1005.092161127358
 30
0.0
 10
480.5250962185362
 20
1004.868540781358
 30
0.0
 10
480.8728637228775
 20
1004.761586282936
 30
0.0
 10
481.2202641661585
 20
1004.660538947154
 30
0.0
  0
SPLINE
  5
24F
330
77
100
AcDbEntity
  8
Visible Edges(ISO)
100
AcDbSpline
210
0.0
220
0.0
230
1.0
 70
     8
 71
     3
 72
    12
 73
     8
 74
     0
 42
0.0000000001
 43
0.0000000001
 40
0.0
 40
0.0
 40
0.0
 40
0.0
 40
1.053806093039999
 40
1.053806093039999
 40
2.088646558207186
 40
2.088646558207186
 40
2.542800540153397
 40
2.542800540153397
 40
2.542800540153397
 40
2.542800540153397
 10
823.9973434720832
 20
1323.512879201341
 30
0.0
 10
826.4807712992869
 20
1321.028852209007
 30
0.0
 10
828.582741321415
 20
1318.099470805216
 30
0.0
 10
831.6707223049382
 20
1311.859876873136
 30
0.0
 10
832.7149787697964
 20
1308.480182322553
 30
0.0
 10
833.4066726821141
 20
1303.565401042895
 30
0.0
 10
833.5129297617218
 20
1302.047899152142
 30
0.0
 10
833.5129297617218
 20
1300.534072663679
 30
0.0
  0
SPLINE
  5
250
330
77
100
AcDbEntity
  8
Visible Edges(ISO)
100
AcDbSpline
210
0.0
220
0.0
230
1.0
 70
     8
 71
     3
 72
    16
 73
    12
 74
     0
 42
0.0000000001
 43
0.0000000001
 40
0.0000000000000008
 40
0.0000000000000008
 40
0.0000000000000008
 40
0.0000000000000008
 40
0.1012471626053716
 40
0.1012471626053716
 40
0.2024943252107425
 40
0.2024943252107425
 40
0.3037414878161133
 40
0.3037414878161133
 40
0.4049886504214841
 40
0.4049886504214841
 40
0.506235813026855
 40
0.506235813026855
 40
0.506235813026855
 40
0.506235813026855
 10
473.2120810595084
 20
1008.04004620958
 30
0.0
 10
473.0791294830646
 20
1008.11097617502
 30
0.0
 10
472.9175252225407
 20
1008.201359726336
 30
0.0
 10
472.5458278993638
 20
1008.419723865802
 30
0.0
 10
472.3377685945701
 20
1008.54650211384
 30
0.0
 10
471.8836192852539
 20
1008.83547845103
 30
0.0
 10
471.6366560884772
 20
1008.998372960333
 30
0.0
 10
471.1237971252932
 20
1009.351264901017
 30
0.0
 10
470.8589592801688
 20
1009.5404198012
 30
0.0
 10
470.317817511693
 20
1009.9431804006
 30
0.0
 10
470.0433244956252
 20
1010.155617597232
 30
0.0
 10
469.7755341582025
 20
1010.371224120127
 30
0.0
  0
SPLINE
  5
251
330
77
100
AcDbEntity
  8
Visible Edges(ISO)
100
AcDbSpline
210
0.0
220
0.0
230
1.0
 70
     8
 71
     3
 72
     8
 73
     4
 74
     0
 42
0.0000000001
 43
0.0000000001
 40
0.0
 40
0.0
 40
0.0
 40
0.0
 40
0.3487038256722163
 40
0.3487038256722163
 40
0.3487038256722163
 40
0.3487038256722163
 10
821.4025876758402
 20
1325.842388606871
 30
0.0
 10
822.3079219766621
 20
1325.113408532397
 30
0.0
 10
823.1753327078115
 20
1324.334669169906
 30
0.0
 10
823.9973434708826
 20
1323.512879202541
 30
0.0
  0
SPLINE
  5
252
330
77
100
AcDbEntity
  8
Visible Edges(ISO)
100
AcDbSpline
210
0.0
220
0.0
230
1.0
 70
     8
 71
     3
 72
     8
 73
     4
 74
     0
 42
0.0000000001
 43
0.0000000001
 40
0.0
 40
0.0
 40
0.0
 40
0.0
 40
0.3487058391275277
 40
0.3487058391275277
 40
0.3487058391275277
 40
0.3487058391275277
 10
469.7755341582026
 20
1010.371224120127
 30
0.0
 10
468.8701936362276
 20
1011.100142586183
 30
0.0
 10
468.002777055919
 20
1011.878816579523
 30
0.0
 10
467.1807609776267
 20
1012.700537917052
 30
0.0
  0
SPLINE
  5
253
330
77
100
AcDbEntity
  8
Visible Edges(ISO)
100
AcDbSpline
210
0.0
220
0.0
230
1.0
 70
     8
 71
     3
 72
    16
 73
    12
 74
     0
 42
0.0000000001
 43
0.0000000001
 40
0.0
 40
0.0
 40
0.0
 40
0.0
 40
0.1012469332982633
 40
0.1012469332982633
 40
0.2024938665965267
 40
0.2024938665965267
 40
0.3037407998947899
 40
0.3037407998947899
 40
0.4049877331930534
 40
0.4049877331930534
 40
0.5062346664913166
 40
0.5062346664913166
 40
0.5062346664913166
 40
0.5062346664913166
 10
817.9746245869976
 20
1328.196031816912
 30
0.0
 10
818.1057656213404
 20
1328.122730303393
 30
0.0
 10
818.266266748475
 20
1328.029836921119
 30
0.0
 10
818.6357789024707
 20
1327.807021096687
 30
0.0
 10
818.8428610647784
 20
1327.678280988394
 30
0.0
 10
819.2962999716758
 20
1327.385223117375
 30
0.0
 10
819.5426079724686
 20
1327.22079461595
 30
0.0
 10
820.0532547626483
 20
1326.866319161463
 30
0.0
 10
820.3186121342593
 20
1326.675644927322
 30
0.0
 10
820.8604662999219
 20
1326.270747744174
 30
0.0
 10
821.1350306562142
 20
1326.057826965845
 30
0.0
 10
821.4025876758402
 20
1325.842388606871
 30
0.0
  0
SPLINE
  5
254
330
77
100
AcDbEntity
  8
Visible Edges(ISO)
100
AcDbSpline
210
0.0
220
0.0
230
1.0
 70
     8
 71
     3
 72
    12
 73
     8
 74
     0
 42
0.0000000001
 43
0.0000000001
 40
0.0
 40
0.0
 40
0.0
 40
0.0
 40
1.053808283717266
 40
1.053808283717266
 40
2.088650761602576
 40
2.088650761602576
 40
2.542801645857231
 40
2.542801645857231
 40
2.542801645857231
 40
2.542801645857231
 10
467.1807609760324
 20
1012.700537918647
 30
0.0
 10
464.6973297055675
 20
1015.184791816609
 30
0.0
 10
462.5953572956342
 20
1018.114366993382
 30
0.0
 10
459.5073747145878
 20
1024.354249353256
 30
0.0
 10
458.4631188237887
 20
1027.734043947507
 30
0.0
 10
457.7714303089133
 20
1032.648883616664
 30
0.0
 10
457.6651746865151
 20
1034.166384516618
 30
0.0
 10
457.6651746865151
 20
1035.680200679579
 30
0.0
  0
SPLINE
  5
255
330
77
100
AcDbEntity
  8
Visible Edges(ISO)
100
AcDbSpline
210
0.0
220
0.0
230
1.0
 70
     8
 71
     3
 72
    26
 73
    22
 74
     0
 42
0.0000000001
 43
0.0000000001
 40
-1.070133156849276
 40
-1.070133156849276
 40
-1.070133156849276
 40
-1.070133156849276
 40
-0.9631198411643492
 40
-0.9631198411643492
 40
-0.8561065254794215
 40
-0.8561065254794215
 40
-0.749093209794494
 40
-0.749093209794494
 40
-0.6420798941095663
 40
-0.6420798941095663
 40
-0.5350665784246386
 40
-0.5350665784246386
 40
-0.428053262739711
 40
-0.428053262739711
 40
-0.3210399470547832
 40
-0.3210399470547832
 40
-0.2140266313698555
 40
-0.2140266313698555
 40
-0.1070133156849278
 40
-0.1070133156849278
 40
0.0
 40
0.0
 40
0.0
 40
0.0
 10
817.9746245869976
 20
1328.196031816912
 30
0.0
 10
817.8414874250698
 20
1328.270449069482
 30
0.0
 10
817.6909933574474
 20
1328.354439569873
 30
0.0
 10
817.3569169477193
 20
1328.538679740112
 30
0.0
 10
817.1733310596124
 20
1328.638922052276
 30
0.0
 10
816.7758041160686
 20
1328.851915210559
 30
0.0
 10
816.5618753050704
 20
1328.9646498325
 30
0.0
 10
816.1074026429623
 20
1329.198375319128
 30
0.0
 10
815.8673811226194
 20
1329.319127464112
 30
0.0
 10
815.3576741267841
 20
1329.568128865558
 30
0.0
 10
815.0886810948842
 20
1329.6959992939
 30
0.0
 10
814.5267949306299
 20
1329.954089556812
 30
0.0
 10
814.2339245792051
 20
1330.084288962466
 30
0.0
 10
813.6299038126594
 20
1330.342625139843
 30
0.0
 10
813.3197670023971
 20
1330.470362419614
 30
0.0
 10
812.6822702232988
 20
1330.721900230768
 30
0.0
 10
812.3539722538145
 20
1330.846032636451
 30
0.0
 10
811.6841366272709
 20
1331.08739892473
 30
0.0
 10
811.3426301390994
 20
1331.204615337049
 30
0.0
 10
810.6532605968244
 20
1331.429030461437
 30
0.0
 10
810.3054331532405
 20
1331.536218565643
 30
0.0
 10
809.9578522089759
 20
1331.637327769048
 30
0.0
  0
LINE
  5
256
330
77
100
AcDbEntity
  8
Visible Edges(ISO)
100
AcDbLine
 10
457.6651746865152
 20
1035.680200679579
 30
0.0
 11
457.665174686511
 21
1300.534072663673
 31
0.0
  0
SPLINE
  5
257
330
77
100
AcDbEntity
  8
Visible Edges(ISO)
100
AcDbSpline
210
0.0
220
0.0
230
1.0
 70
     8
 71
     3
 72
    16
 73
    12
 74
     0
 42
0.0000000001
 43
0.0000000001
 40
-0.90266615029436
 40
-0.90266615029436
 40
-0.90266615029436
 40
-0.90266615029436
 40
-0.7219593551557666
 40
-0.7219593551557666
 40
-0.5412525600171732
 40
-0.5412525600171732
 40
-0.3605457648785797
 40
-0.3605457648785797
 40
-0.1798389697399862
 40
-0.1798389697399862
 40
0.0008678253986072
 40
0.0008678253986072
 40
0.0008678253986072
 40
0.0008678253986072
 10
809.9578522089759
 20
1331.637327769048
 30
0.0
 10
809.3704346707575
 20
1331.808203993235
 30
0.0
 10
808.7770994473663
 20
1331.962800578777
 30
0.0
 10
807.5812989992297
 20
1332.23841375967
 30
0.0
 10
806.97883670007
 20
1332.359428822321
 30
0.0
 10
805.7676657798827
 20
1332.567151423066
 30
0.0
 10
805.1589602043959
 20
1332.653858222907
 30
0.0
 10
803.9382695267335
 20
1332.79256860406
 30
0.0
 10
803.3262875883723
 20
1332.844572229001
 30
0.0
 10
802.1020009579835
 20
1332.913822810569
 30
0.0
 10
801.4900966268182
 20
1332.931076879147
 30
0.0
 10
800.8783286165897
 20
1332.931077857154
 30
0.0
  0
SPLINE
  5
258
330
77
100
AcDbEntity
  8
Visible Edges(ISO)
100
AcDbSpline
210
0.0
220
0.0
230
1.0
 70
     8
 71
     3
 72
    12
 73
     8
 74
     0
 42
0.0000000001
 43
0.0000000001
 40
0.0
 40
0.0
 40
0.0
 40
0.0
 40
1.054225337890234
 40
1.054225337890234
 40
2.089321434310726
 40
2.089321434310726
 40
2.542794436646953
 40
2.542794436646953
 40
2.542794436646953
 40
2.542794436646953
 10
457.665174686511
 20
1300.534072663673
 30
0.0
 10
457.665174686511
 20
1304.048110423438
 30
0.0
 10
458.25003005036
 20
1307.607408916833
 30
0.0
 10
460.4787399543359
 20
1314.205360072844
 30
0.0
 10
462.1303968898071
 20
1317.334454765542
 30
0.0
 10
465.1157846701863
 20
1321.297503827751
 30
0.0
 10
466.1120942828592
 20
1322.443954675788
 30
0.0
 10
467.1807609762183
 20
1323.512879201404
 30
0.0
  0
SPLINE
  5
259
330
77
100
AcDbEntity
  8
Visible Edges(ISO)
100
AcDbSpline
210
0.0
220
0.0
230
1.0
 70
     8
 71
     3
 72
    16
 73
    12
 74
     0
 42
0.0000000001
 43
0.0000000001
 40
-0.9035339756929566
 40
-0.9035339756929566
 40
-0.9035339756929566
 40
-0.9035339756929566
 40
-0.7228271805543653
 40
-0.7228271805543653
 40
-0.5421203854157739
 40
-0.5421203854157739
 40
-0.3614135902771825
 40
-0.3614135902771825
 40
-0.1807067951385912
 40
-0.1807067951385912
 40
0.0
 40
0.0
 40
0.0
 40
0.0
 10
490.2997758316423
 20
1332.931077857149
 30
0.0
 10
489.6880078214136
 20
1332.931076879142
 30
0.0
 10
489.0761034902484
 20
1332.913822810564
 30
0.0
 10
487.8518168598596
 20
1332.844572228996
 30
0.0
 10
487.2398349214985
 20
1332.792568604054
 30
0.0
 10
486.019144243836
 20
1332.653858222902
 30
0.0
 10
485.4104386683492
 20
1332.567151423061
 30
0.0
 10
484.1992677481619
 20
1332.359428822315
 30
0.0
 10
483.5968054490024
 20
1332.238413759665
 30
0.0
 10
482.4010050008657
 20
1331.962800578772
 30
0.0
 10
481.8076697774743
 20
1331.80820399323
 30
0.0
 10
481.2202522392561
 20
1331.637327769042
 30
0.0
  0
SPLINE
  5
25A
330
77
100
AcDbEntity
  8
Visible Edges(ISO)
100
AcDbSpline
210
0.0
220
0.0
230
1.0
 70
     8
 71
     3
 72
    16
 73
    12
 74
     0
 42
0.0000000001
 43
0.0000000001
 40
0.0000000000000137
 40
0.0000000000000137
 40
0.0000000000000137
 40
0.0000000000000137
 40
0.1012469332983177
 40
0.1012469332983177
 40
0.2024938665966218
 40
0.2024938665966218
 40
0.3037407998949258
 40
0.3037407998949258
 40
0.40498773319323
 40
0.40498773319323
 40
0.5062346664915341
 40
0.5062346664915341
 40
0.5062346664915341
 40
0.5062346664915341
 10
469.7755167723919
 20
1325.842388606865
 30
0.0
 10
470.043073792018
 20
1326.05782696584
 30
0.0
 10
470.3176381483094
 20
1326.270747744167
 30
0.0
 10
470.8594923139676
 20
1326.675644927313
 30
0.0
 10
471.1248496855738
 20
1326.866319161451
 30
0.0
 10
471.6354964757596
 20
1327.220794615942
 30
0.0
 10
471.881804476554
 20
1327.385223117369
 30
0.0
 10
472.3352433834518
 20
1327.678280988388
 30
0.0
 10
472.5423255457601
 20
1327.80702109668
 30
0.0
 10
472.9118376997569
 20
1328.029836921113
 30
0.0
 10
473.0723388268917
 20
1328.122730303388
 30
0.0
 10
473.2034798612345
 20
1328.196031816906
 30
0.0
  0
SPLINE
  5
25B
330
77
100
AcDbEntity
  8
Visible Edges(ISO)
100
AcDbSpline
210
0.0
220
0.0
230
1.0
 70
     8
 71
     3
 72
    26
 73
    22
 74
     0
 42
0.0000000001
 43
0.0000000001
 40
0.0000000000000075
 40
0.0000000000000075
 40
0.0000000000000075
 40
0.0000000000000075
 40
0.1070133156849331
 40
0.1070133156849331
 40
0.2140266313698587
 40
0.2140266313698587
 40
0.3210399470547842
 40
0.3210399470547842
 40
0.4280532627397098
 40
0.4280532627397098
 40
0.5350665784246354
 40
0.5350665784246354
 40
0.6420798941095609
 40
0.6420798941095609
 40
0.7490932097944865
 40
0.7490932097944865
 40
0.8561065254794119
 40
0.8561065254794119
 40
0.9631198411643374
 40
0.9631198411643374
 40
1.070133156849263
 40
1.070133156849263
 40
1.070133156849263
 40
1.070133156849263
 10
473.2034798612345
 20
1328.196031816906
 30
0.0
 10
473.3366170231622
 20
1328.270449069476
 30
0.0
 10
473.4871110907847
 20
1328.354439569868
 30
0.0
 10
473.8211875005128
 20
1328.538679740106
 30
0.0
 10
474.0047733886197
 20
1328.63892205227
 30
0.0
 10
474.4023003321635
 20
1328.851915210554
 30
0.0
 10
474.6162291431616
 20
1328.964649832495
 30
0.0
 10
475.0707018052698
 20
1329.198375319122
 30
0.0
 10
475.3107233256128
 20
1329.319127464107
 30
0.0
 10
475.8204303214481
 20
1329.568128865552
 30
0.0
 10
476.089423353348
 20
1329.695999293895
 30
0.0
 10
476.6513095176022
 20
1329.954089556806
 30
0.0
 10
476.9441798690271
 20
1330.084288962461
 30
0.0
 10
477.5482006355727
 20
1330.342625139838
 30
0.0
 10
477.858337445835
 20
1330.470362419609
 30
0.0
 10
478.4958342249333
 20
1330.721900230763
 30
0.0
 10
478.8241321944174
 20
1330.846032636445
 30
0.0
 10
479.4939678209611
 20
1331.087398924724
 30
0.0
 10
479.8354743091325
 20
1331.204615337044
 30
0.0
 10
480.5248438514075
 20
1331.429030461432
 30
0.0
 10
480.8726712949914
 20
1331.536218565638
 30
0.0
 10
481.220252239256
 20
1331.637327769042
 30
0.0
  0
SPLINE
  5
25C
330
77
100
AcDbEntity
  8
Visible Edges(ISO)
100
AcDbSpline
210
0.0
220
0.0
230
1.0
 70
     8
 71
     3
 72
    12
 73
     8
 74
     0
 42
0.0000000001
 43
0.0000000001
 40
0.0
 40
0.0
 40
0.0
 40
0.0
 40
0.1626108658236866
 40
0.1626108658236866
 40
0.3222610837793784
 40
0.3222610837793784
 40
0.3909772651553016
 40
0.3909772651553016
 40
0.3909772651553016
 40
0.3909772651553016
 10
771.0471390427207
 20
1265.713348088822
 30
0.0
 10
771.0471390427207
 20
1266.255375325169
 30
0.0
 10
770.9570780541126
 20
1266.804420714173
 30
0.0
 10
770.6138495248526
 20
1267.822219227874
 30
0.0
 10
770.3594815703109
 20
1268.304937253766
 30
0.0
 10
769.90208826816
 20
1268.912988710507
 30
0.0
 10
769.7515427564963
 20
1269.086882350825
 30
0.0
 10
769.5901968713817
 20
1269.249249905019
 30
0.0
  0
SPLINE
  5
25D
330
77
100
AcDbEntity
  8
Visible Edges(ISO)
100
AcDbSpline
210
0.0
220
0.0
230
1.0
 70
     8
 71
     3
 72
    12
 73
     8
 74
     0
 42
0.0000000001
 43
0.0000000001
 40
0.0
 40
0.0
 40
0.0
 40
0.0
 40
0.162605270337838
 40
0.162605270337838
 40
0.3222527302893033
 40
0.3222527302893033
 40
0.3909835412319818
 40
0.3909835412319818
 40
0.3909835412319818
 40
0.3909835412319818
 10
525.1234278466633
 20
1270.705735240652
 30
0.0
 10
524.5814102788705
 20
1270.705735240652
 30
0.0
 10
524.0324050675199
 20
1270.615708728519
 30
0.0
 10
523.0147279574114
 20
1270.272614474052
 30
0.0
 10
522.5320933349823
 20
1270.018344436187
 30
0.0
 10
521.9241432628646
 20
1269.56109833827
 30
0.0
 10
521.7502583019896
 20
1269.410574336736
 30
0.0
 10
521.587907546147
 20
1269.249249874311
 30
0.0
  0
LINE
  5
25E
330
77
100
AcDbEntity
  8
Visible Edges(ISO)
100
AcDbLine
 10
520.1309654055133
 20
1265.713348088818
 30
0.0
 11
520.1309654055165
 21
1070.784771403234
 31
0.0
  0
SPLINE
  5
25F
330
77
100
AcDbEntity
  8
Visible Edges(ISO)
100
AcDbSpline
210
0.0
220
0.0
230
1.0
 70
     8
 71
     3
 72
    12
 73
     8
 74
     0
 42
0.0000000001
 43
0.0000000001
 40
0.0
 40
0.0
 40
0.0
 40
0.0
 40
0.16227237481468
 40
0.16227237481468
 40
0.3217162310260259
 40
0.3217162310260259
 40
0.3909822310460049
 40
0.3909822310460049
 40
0.3909822310460049
 40
0.3909822310460049
 10
521.5879075768567
 20
1269.24924990502
 30
0.0
 10
521.2068913530226
 20
1268.86582102285
 30
0.0
 10
520.8846648563356
 20
1268.413971868356
 30
0.0
 10
520.4115649809942
 20
1267.451828794589
 30
0.0
 10
520.2518498794132
 20
1266.93078231552
 30
0.0
 10
520.1469617281648
 20
1266.175667887019
 30
0.0
 10
520.1309654055133
 20
1265.944230929109
 30
0.0
 10
520.1309654055133
 20
1265.713348088818
 30
0.0
  0
SPLINE
  5
260
330
77
100
AcDbEntity
  8
Visible Edges(ISO)
100
AcDbSpline
210
0.0
220
0.0
230
1.0
 70
     8
 71
     3
 72
    12
 73
     8
 74
     0
 42
0.0000000001
 43
0.0000000001
 40
0.0
 40
0.0
 40
0.0
 40
0.0
 40
0.1626108083651246
 40
0.1626108083651246
 40
0.3222654552481558
 40
0.3222654552481558
 40
0.3909848659758599
 40
0.3909848659758599
 40
0.3909848659758599
 40
0.3909848659758599
 10
520.1309654055165
 20
1070.784771403235
 30
0.0
 10
520.1309654055165
 20
1070.242744358412
 30
0.0
 10
520.2210260466634
 20
1069.693759697042
 30
0.0
 10
520.5642496518631
 20
1068.676171931828
 30
0.0
 10
520.8186172197597
 20
1068.193606833287
 30
0.0
 10
521.2760111596054
 20
1067.585827652623
 30
0.0
 10
521.4265589918595
 20
1067.412021827822
 30
0.0
 10
521.587907575404
 20
1067.249748962649
 30
0.0
  0
SPLINE
  5
261
330
77
100
AcDbEntity
  8
Visible Edges(ISO)
100
AcDbSpline
210
0.0
220
0.0
230
1.0
 70
     8
 71
     3
 72
    12
 73
     8
 74
     0
 42
0.0000000001
 43
0.0000000001
 40
0.0
 40
0.0
 40
0.0
 40
0.0
 40
0.1622773053054784
 40
0.1622773053054784
 40
0.3217275389283634
 40
0.3217275389283634
 40
0.3909841671155169
 40
0.3909841671155169
 40
0.3909841671155169
 40
0.3909841671155169
 10
521.5879075476155
 20
1067.249748990438
 30
0.0
 10
521.9712382653309
 20
1066.868611458936
 30
0.0
 10
522.4230100682452
 20
1066.546285836316
 30
0.0
 10
523.3850572258338
 20
1066.073043250414
 30
0.0
 10
523.9060837573072
 20
1065.913283299963
 30
0.0
 10
524.6611684341852
 20
1065.808380847532
 30
0.0
 10
524.8925724193761
 20
1065.7923842514
 30
0.0
 10
525.1234278466666
 20
1065.7923842514
 30
0.0
  0
LINE
  5
262
330
77
100
AcDbEntity
  8
Visible Edges(ISO)
100
AcDbLine
 10
766.0546766015706
 20
1270.705735240655
 30
0.0
 11
525.1234278466633
 21
1270.705735240652
 31
0.0
  0
LINE
  5
263
330
77
100
AcDbEntity
  8
Visible Edges(ISO)
100
AcDbLine
 10
525.1234278466666
 20
1065.7923842514
 30
0.0
 11
766.0546766015738
 21
1065.792384251404
 31
0.0
  0
SPLINE
  5
264
330
77
100
AcDbEntity
  8
Visible Edges(ISO)
100
AcDbSpline
210
0.0
220
0.0
230
1.0
 70
     8
 71
     3
 72
    12
 73
     8
 74
     0
 42
0.0000000001
 43
0.0000000001
 40
0.0
 40
0.0
 40
0.0
 40
0.0
 40
0.1622820840880177
 40
0.1622820840880177
 40
0.32173249637136
 40
0.32173249637136
 40
0.3909882826647688
 40
0.3909882826647688
 40
0.3909882826647688
 40
0.3909882826647688
 10
769.590196902086
 20
1269.249249874315
 30
0.0
 10
769.2068663600767
 20
1269.630157208562
 30
0.0
 10
768.7550901630441
 20
1269.952292400095
 30
0.0
 10
767.7930379709318
 20
1270.425248320384
 30
0.0
 10
767.272012258184
 20
1270.584911221029
 30
0.0
 10
766.5169304434693
 20
1270.689748667482
 30
0.0
 10
766.2855292225486
 20
1270.705735240655
 30
0.0
 10
766.0546766015706
 20
1270.705735240655
 30
0.0
  0
SPLINE
  5
265
330
77
100
AcDbEntity
  8
Visible Edges(ISO)
100
AcDbSpline
210
0.0
220
0.0
230
1.0
 70
     8
 71
     3
 72
    12
 73
     8
 74
     0
 42
0.0000000001
 43
0.0000000001
 40
0.0
 40
0.0
 40
0.0
 40
0.0
 40
0.1626149612341476
 40
0.1626149612341476
 40
0.3222710357261884
 40
0.3222710357261884
 40
0.3909792131756192
 40
0.3909792131756192
 40
0.3909792131756192
 40
0.3909792131756192
 10
766.0546766015739
 20
1065.792384251405
 30
0.0
 10
766.5967264723543
 20
1065.792384251405
 30
0.0
 10
767.1457646179592
 20
1065.882475623229
 30
0.0
 10
768.1634988386523
 20
1066.225819033711
 30
0.0
 10
768.6461593419451
 20
1066.480273786953
 30
0.0
 10
769.2540661543143
 20
1066.937803177047
 30
0.0
 10
769.4278947541552
 20
1067.08837543856
 30
0.0
 10
769.5901969006261
 20
1067.249748990443
 30
0.0
  0
SPLINE
  5
266
330
77
100
AcDbEntity
  8
Visible Edges(ISO)
100
AcDbSpline
210
0.0
220
0.0
230
1.0
 70
     8
 71
     3
 72
    12
 73
     8
 74
     0
 42
0.0000000001
 43
0.0000000001
 40
0.0
 40
0.0
 40
0.0
 40
0.0
 40
0.1622870449058978
 40
0.1622870449058978
 40
0.3217443114434512
 40
0.3217443114434512
 40
0.3909896162039037
 40
0.3909896162039037
 40
0.3909896162039037
 40
0.3909896162039037
 10
769.590196872839
 20
1067.249748962656
 30
0.0
 10
769.9712360078652
 20
1067.632970871553
 30
0.0
 10
770.2934784206298
 20
1068.084656581857
 30
0.0
 10
770.7665888005483
 20
1069.0465847467
 30
0.0
 10
770.9262999951353
 20
1069.567575382862
 30
0.0
 10
771.0311523267365
 20
1070.322600699158
 30
0.0
 10
771.0471390427239
 20
1070.553957546002
 30
0.0
 10
771.0471390427239
 20
1070.784771403238
 30
0.0
  0
LINE
  5
267
330
77
100
AcDbEntity
  8
Visible Edges(ISO)
100
AcDbLine
 10
771.0471390427239
 20
1070.784771403238
 30
0.0
 11
771.0471390427207
 21
1265.713348088822
 31
0.0
  0
LINE
  5
268
330
77
100
AcDbEntity
  8
Visible Tangent Edges(ISO)
100
AcDbLine
 10
457.6652508389328
 20
1300.534118353757
 30
0.0
 11
458.2815598460958
 21
1300.102690877992
 31
0.0
  0
ELLIPSE
  5
269
330
77
100
AcDbEntity
  8
Visible Tangent Edges(ISO)
100
AcDbEllipse
 10
490.7644992440047
 20
1300.108198728284
 30
0.0
 11
-5.609807187207339
 21
-32.01611235499591
 31
0.0
210
0.0
220
0.0
230
1.0
 40
0.9993363700369409
 41
4.100657170613665
 42
4.88590304077077
  0
ELLIPSE
  5
26A
330
77
100
AcDbEntity
  8
Visible Tangent Edges(ISO)
100
AcDbEllipse
 10
490.7644992440047
 20
1300.108198728284
 30
0.0
 11
-30.17454585394805
 21
-12.08818200363834
 31
0.0
210
0.0
220
0.0
230
0.9999999999999998
 40
0.9994034767972291
 41
4.33119141456622
 42
5.116437284708856
  0
LINE
  5
26B
330
77
100
AcDbEntity
  8
Visible Tangent Edges(ISO)
100
AcDbLine
 10
490.7766099386774
 20
1332.597295536468
 30
0.0
 11
490.2998436983112
 21
1332.931040546229
 31
0.0
  0
LINE
  5
26C
330
77
100
AcDbEntity
  8
Visible Tangent Edges(ISO)
100
AcDbLine
 10
458.2815598460999
 20
1036.481420011801
 30
0.0
 11
457.665250838937
 21
1035.680246369664
 31
0.0
  0
LINE
  5
26D
330
77
100
AcDbEntity
  8
Visible Tangent Edges(ISO)
100
AcDbLine
 10
490.2998436983165
 20
1003.367040953142
 30
0.0
 11
490.7766099386827
 21
1003.986815353326
 31
0.0
  0
ELLIPSE
  5
26E
330
77
100
AcDbEntity
  8
Visible Tangent Edges(ISO)
100
AcDbEllipse
 10
490.7644992440089
 20
1036.462706804768
 30
0.0
 11
31.53915757889081
 21
-7.864600854506386
 31
0.0
210
0.0
220
0.0
230
0.9999999999999998
 40
0.9990511024454592
 41
4.171669049122974
 42
4.956914919280085
  0
ELLIPSE
  5
26F
330
77
100
AcDbEntity
  8
Visible Tangent Edges(ISO)
100
AcDbEllipse
 10
490.7644992440089
 20
1036.462706804768
 30
0.0
 11
12.94468702495668
 21
-29.81800525505951
 31
0.0
210
0.0
220
0.0
230
1.0
 40
0.9991352795604566
 41
4.302556527530583
 42
5.087802397673216
  0
LINE
  5
270
330
77
100
AcDbEntity
  8
Visible Tangent Edges(ISO)
100
AcDbLine
 10
800.4014945095597
 20
1003.986815353331
 30
0.0
 11
800.8782607499259
 21
1003.367040953147
 31
0.0
  0
LINE
  5
271
330
77
100
AcDbEntity
  8
Visible Tangent Edges(ISO)
100
AcDbLine
 10
800.8782607499208
 20
1332.931040546234
 30
0.0
 11
800.4014945095544
 21
1332.597295536473
 31
0.0
  0
ELLIPSE
  5
272
330
77
100
AcDbEntity
  8
Visible Tangent Edges(ISO)
100
AcDbEllipse
 10
800.4136052042282
 20
1300.108198728289
 30
0.0
 11
-30.17454585395872
 21
12.08818200361176
 31
0.0
210
0.0
220
0.0
230
1.0
 40
0.9994034767972291
 41
4.308340676045153
 42
5.093586546202307
  0
ELLIPSE
  5
273
330
77
100
AcDbEntity
  8
Visible Tangent Edges(ISO)
100
AcDbEllipse
 10
800.4136052042282
 20
1300.108198728289
 30
0.0
 11
-5.609807187213135
 21
32.01611235499489
 31
0.0
210
0.0
220
0.0
230
1.0
 40
0.9993363700369405
 41
4.538874919998461
 42
5.324120790141052
  0
LINE
  5
274
330
77
100
AcDbEntity
  8
Visible Tangent Edges(ISO)
100
AcDbLine
 10
832.8965446021371
 20
1300.102690877997
 30
0.0
 11
833.5128536093002
 21
1300.534118353763
 31
0.0
  0
LINE
  5
275
330
77
100
AcDbEntity
  8
Visible Tangent Edges(ISO)
100
AcDbLine
 10
833.5128536093044
 20
1035.68024636967
 30
0.0
 11
832.8965446021413
 21
1036.481420011807
 31
0.0
  0
ELLIPSE
  5
276
330
77
100
AcDbEntity
  8
Visible Tangent Edges(ISO)
100
AcDbEllipse
 10
800.4136052042325
 20
1036.462706804773
 30
0.0
 11
12.94468702494901
 21
29.81800525506283
 31
0.0
210
0.0
220
0.0
230
1.0
 40
0.9991352795604571
 41
4.336975563081524
 42
5.122221433238571
  0
ELLIPSE
  5
277
330
77
100
AcDbEntity
  8
Visible Tangent Edges(ISO)
100
AcDbEllipse
 10
800.4136052042325
 20
1036.462706804773
 30
0.0
 11
31.53915757889119
 21
7.86460085450478
 31
0.0
210
0.0
220
0.0
230
1.0
 40
0.9990511024454599
 41
4.467863041489377
 42
5.253108911632073
  0
LINE
  5
278
330
77
100
AcDbEntity
  8
Visible Tangent Edges(ISO)
100
AcDbLine
 10
458.2815598460958
 20
1300.102690877992
 30
0.0
 11
458.2815598460999
 21
1036.481420011801
 31
0.0
  0
LINE
  5
279
330
77
100
AcDbEntity
  8
Visible Tangent Edges(ISO)
100
AcDbLine
 10
490.7766099386827
 20
1003.986815353326
 30
0.0
 11
800.4014945095597
 21
1003.986815353331
 31
0.0
  0
ELLIPSE
  5
27A
330
77
100
AcDbEntity
  8
Visible Tangent Edges(ISO)
100
AcDbEllipse
 10
800.4136052042282
 20
1299.877871873764
 30
0.0
 11
24.9176671097032
 21
-9.038267149471177
 31
0.0
210
0.0
220
0.0
230
1.0
 40
0.9992875149767506
 41
1.140728559532657
 42
1.918990924331115
  0
LINE
  5
27B
330
77
100
AcDbEntity
  8
Visible Tangent Edges(ISO)
100
AcDbLine
 10
490.7766099386775
 20
1326.36741646398
 30
0.0
 11
800.4014945095546
 21
1326.367416463985
 31
0.0
  0
ELLIPSE
  5
27C
330
77
100
AcDbEntity
  8
Visible Tangent Edges(ISO)
100
AcDbEllipse
 10
490.7644992440047
 20
1299.877871873759
 30
0.0
 11
24.91766710970686
 21
9.03826714946105
 31
0.0
210
0.0
220
0.0
230
0.9999999999999998
 40
0.9992875149767508
 41
1.22260172925911
 42
2.000864094057561
  0
ELLIPSE
  5
27D
330
77
100
AcDbEntity
  8
Visible Tangent Edges(ISO)
100
AcDbEllipse
 10
800.1518888800404
 20
1036.494092686897
 30
0.0
 11
-9.60441686329359
 21
-24.70601469572529
 31
0.0
210
0.0
220
0.0
230
0.9999999999999998
 40
0.9989857817905125
 41
1.163645787095251
 42
1.941908151893697
  0
LINE
  5
27E
330
77
100
AcDbEntity
  8
Visible Tangent Edges(ISO)
100
AcDbLine
 10
826.6357421070068
 20
1300.133528479108
 30
0.0
 11
826.6357421070111
 21
1036.512257612918
 31
0.0
  0
ELLIPSE
  5
27F
330
77
100
AcDbEntity
  8
Visible Tangent Edges(ISO)
100
AcDbEllipse
 10
800.1518888800362
 20
1300.139584610413
 30
0.0
 11
3.914172551360957
 21
-26.2135056168413
 31
0.0
210
0.0
220
0.0
230
1.0
 40
0.9992181000082961
 41
1.422458237441663
 42
2.200720602240116
  0
LINE
  5
280
330
77
100
AcDbEntity
  8
Visible Tangent Edges(ISO)
100
AcDbLine
 10
800.4014945095597
 20
1003.986815353331
 30
0.0
 11
800.4014945095596
 21
1010.278369628041
 31
0.0
  0
SPLINE
  5
281
330
77
100
AcDbEntity
  8
Visible Edges(ISO)
100
AcDbSpline
210
0.0
220
0.0
230
1.0
 70
     8
 71
     3
 72
    18
 73
    14
 74
     0
 42
0.0000000001
 43
0.0000000001
 40
-0.948862423728155
 40
-0.948862423728155
 40
-0.948862423728155
 40
-0.948862423728155
 40
-0.9474998403611248
 40
-0.9474998403611248
 40
-0.8253202820403268
 40
-0.8253202820403268
 40
-0.7031378530955634
 40
-0.7031378530955634
 40
-0.4686703328475849
 40
-0.4686703328475849
 40
-0.234294543785456
 40
-0.234294543785456
 40
0.0
 40
0.0
 40
0.0
 40
0.0
 10
823.3847178107289
 20
1013.496966106022
 30
0.0
 10
823.384638553556
 20
1013.497069136738
 30
0.0
 10
823.3845556535728
 20
1013.497175809788
 30
0.0
 10
823.3767090204741
 20
1013.507177799042
 30
0.0
 10
823.3396803059244
 20
1013.546326334837
 30
0.0
 10
823.2082275281609
 20
1013.681929725636
 30
0.0
 10
823.1141420677341
 20
1013.778035239806
 30
0.0
 10
822.7609696390615
 20
1014.136851629494
 30
0.0
 10
822.4330764005713
 20
1014.468082823541
 30
0.0
 10
821.6228853994486
 20
1015.283827672587
 30
0.0
 10
821.1483847394779
 20
1015.760491620795
 30
0.0
 10
820.1139465038453
 20
1016.797785787455
 30
0.0
 10
819.5639291911041
 20
1017.348468938517
 30
0.0
 10
819.0119546469901
 20
1017.900309730991
 30
0.0
  0
ELLIPSE
  5
282
330
77
100
AcDbEntity
  8
Visible Tangent Edges(ISO)
100
AcDbEllipse
 10
800.4136052042325
 20
1036.755805423547
 30
0.0
 11
-25.90349831976168
 21
-5.616256861376503
 31
0.0
210
0.0
220
0.0
230
1.0
 40
0.9988973209834666
 41
1.357057796659353
 42
2.135320161457807
  0
ELLIPSE
  5
283
330
77
100
AcDbEntity
  8
Visible Tangent Edges(ISO)
100
AcDbEllipse
 10
826.8974584311989
 20
1300.102142596984
 30
0.0
 11
5.999999999999882
 21
0.000000000000095
 31
0.0
210
0.0
220
0.0
230
1.0
 40
0.0052359638314227
 41
0.0174532925216084
 42
1.614429558094531
  0
SPLINE
  5
284
330
77
100
AcDbEntity
  8
Visible Edges(ISO)
100
AcDbSpline
210
0.0
220
0.0
230
1.0
 70
     8
 71
     3
 72
    18
 73
    14
 74
     0
 42
0.0000000001
 43
0.0000000001
 40
-0.9488624237617598
 40
-0.9488624237617598
 40
-0.9488624237617598
 40
-0.9488624237617598
 40
-0.9474998403960121
 40
-0.9474998403960121
 40
-0.8253202820407492
 40
-0.8253202820407492
 40
-0.7031378530955289
 40
-0.7031378530955289
 40
-0.4686703328475589
 40
-0.4686703328475589
 40
-0.2342945437854456
 40
-0.2342945437854456
 40
0.0
 40
0.0
 40
0.0
 40
0.0
 10
823.3847178110563
 20
1323.084053478202
 30
0.0
 10
823.3846385538836
 20
1323.083997996745
 30
0.0
 10
823.3845556534411
 20
1323.083938872064
 30
0.0
 10
823.3767090232234
 20
1323.078247803665
 30
0.0
 10
823.3396803059354
 20
1323.04333993183
 30
0.0
 10
823.2082275281552
 20
1322.916041370926
 30
0.0
 10
823.1141420677284
 20
1322.823978543638
 30
0.0
 10
822.7609696390558
 20
1322.476459758382
 30
0.0
 10
822.4330764005653
 20
1322.151913464808
 30
0.0
 10
821.6228853994429
 20
1321.347298523404
 30
0.0
 10
821.1483847394717
 20
1320.874974160344
 30
0.0
 10
820.1139465038391
 20
1319.843420215386
 30
0.0
 10
819.5639291910993
 20
1319.29408381997
 30
0.0
 10
819.0119546469853
 20
1318.741990656877
 30
0.0
  0
LINE
  5
285
330
77
100
AcDbEntity
  8
Visible Tangent Edges(ISO)
100
AcDbLine
 10
800.4014945095544
 20
1332.597295536473
 30
0.0
 11
800.4014945095546
 21
1326.367416463985
 31
0.0
  0
LINE
  5
286
330
77
100
AcDbEntity
  8
Visible Tangent Edges(ISO)
100
AcDbLine
 10
800.4014945095544
 20
1332.597295536473
 30
0.0
 11
490.7766099386774
 21
1332.597295536468
 31
0.0
  0
LINE
  5
287
330
77
100
AcDbEntity
  8
Visible Tangent Edges(ISO)
100
AcDbLine
 10
490.7766099386774
 20
1326.36741646398
 30
0.0
 11
490.7766099386773
 21
1332.597295536468
 31
0.0
  0
SPLINE
  5
288
330
77
100
AcDbEntity
  8
Visible Edges(ISO)
100
AcDbSpline
210
0.0
220
0.0
230
1.0
 70
     8
 71
     3
 72
    18
 73
    14
 74
     0
 42
0.0000000001
 43
0.0000000001
 40
-0.948862423724055
 40
-0.948862423724055
 40
-0.948862423724055
 40
-0.948862423724055
 40
-0.9474998403564208
 40
-0.9474998403564208
 40
-0.8253202820403217
 40
-0.8253202820403217
 40
-0.7031378530955268
 40
-0.7031378530955268
 40
-0.468670332847578
 40
-0.468670332847578
 40
-0.234294543785461
 40
-0.234294543785461
 40
0.0
 40
0.0
 40
0.0
 40
0.0
 10
467.7933866375096
 20
1323.08405347853
 30
0.0
 10
467.7934658946826
 20
1323.083997997073
 30
0.0
 10
467.7935487947679
 20
1323.083938872035
 30
0.0
 10
467.8013954255221
 20
1323.07824780415
 30
0.0
 10
467.8384241423149
 20
1323.0433399318
 30
0.0
 10
467.969876920076
 20
1322.916041370918
 30
0.0
 10
468.0639623805035
 20
1322.823978543631
 30
0.0
 10
468.417134809176
 20
1322.476459758375
 30
0.0
 10
468.7450280476661
 20
1322.151913464801
 30
0.0
 10
469.5552190487889
 20
1321.347298523398
 30
0.0
 10
470.0297197087595
 20
1320.874974160337
 30
0.0
 10
471.0641579443919
 20
1319.843420215379
 30
0.0
 10
471.6141752571331
 20
1319.294083819965
 30
0.0
 10
472.1661498012471
 20
1318.741990656872
 30
0.0
  0
ELLIPSE
  5
289
330
77
100
AcDbEntity
  8
Visible Tangent Edges(ISO)
100
AcDbEllipse
 10
464.2806460170341
 20
1300.102142596978
 30
0.0
 11
-5.999999999999893
 21
-0.0000000000000597
 31
0.0
210
0.0
220
0.0
230
1.0
 40
0.0052359638314249
 41
4.668755749084262
 42
6.265732014653359
  0
ELLIPSE
  5
28A
330
77
100
AcDbEntity
  8
Visible Tangent Edges(ISO)
100
AcDbEllipse
 10
491.0262155681968
 20
1300.139584610408
 30
0.0
 11
3.914172551353012
 21
26.21350561684249
 31
0.0
210
0.0
220
0.0
230
0.9999999999999998
 40
0.9992181000082954
 41
0.9408720513494071
 42
1.719134416147866
  0
ELLIPSE
  5
28B
330
77
100
AcDbEntity
  8
Visible Tangent Edges(ISO)
100
AcDbEllipse
 10
826.8974584312031
 20
1036.480871730794
 30
0.0
 11
5.999999999999875
 21
0.000000000000095
 31
0.0
210
0.0
220
0.0
230
1.0
 40
0.0052359638314227
 41
0.0174532925245075
 42
1.614429558094567
  0
LINE
  5
28C
330
77
100
AcDbEntity
  8
Visible Tangent Edges(ISO)
100
AcDbLine
 10
832.8965446021413
 20
1036.481420011807
 30
0.0
 11
832.8965446021371
 21
1300.102690877997
 31
0.0
  0
ELLIPSE
  5
28D
330
77
100
AcDbEntity
  8
Visible Tangent Edges(ISO)
100
AcDbEllipse
 10
464.2806460170383
 20
1036.480871730788
 30
0.0
 11
-5.999999999999929
 21
-0.000000000000095
 31
0.0
210
0.0
220
0.0
230
1.0
 40
0.0052359638314227
 41
4.668755749085866
 42
6.265732014660587
  0
LINE
  5
28E
330
77
100
AcDbEntity
  8
Visible Tangent Edges(ISO)
100
AcDbLine
 10
464.5423623412303
 20
1036.512257612912
 30
0.0
 11
464.542362341226
 21
1300.133528479102
 31
0.0
  0
ELLIPSE
  5
28F
330
77
100
AcDbEntity
  8
Visible Tangent Edges(ISO)
100
AcDbEllipse
 10
491.0262155682009
 20
1036.494092686893
 30
0.0
 11
-9.604416863297476
 21
24.70601469572379
 31
0.0
210
0.0
220
0.0
230
0.9999999999999998
 40
0.9989857817905127
 41
1.199684501695965
 42
1.977946866494416
  0
SPLINE
  5
290
330
77
100
AcDbEntity
  8
Visible Edges(ISO)
100
AcDbSpline
210
0.0
220
0.0
230
1.0
 70
     8
 71
     3
 72
    18
 73
    14
 74
     0
 42
0.0000000001
 43
0.0000000001
 40
-0.9488624237713192
 40
-0.9488624237713192
 40
-0.9488624237713192
 40
-0.9488624237713192
 40
-0.9474998404050218
 40
-0.9474998404050218
 40
-0.8253202820406707
 40
-0.8253202820406707
 40
-0.7031378530954992
 40
-0.7031378530954992
 40
-0.468670332847549
 40
-0.468670332847549
 40
-0.2342945437854519
 40
-0.2342945437854519
 40
0.0
 40
0.0
 40
0.0
 40
0.0
 10
467.7933866371818
 20
1013.496966106348
 30
0.0
 10
467.7934658943545
 20
1013.497069137063
 30
0.0
 10
467.7935487948987
 20
1013.497175809553
 30
0.0
 10
467.8013954227798
 20
1013.507177803991
 30
0.0
 10
467.8384241422939
 20
1013.546326334807
 30
0.0
 10
467.9698769200806
 20
1013.681929725629
 30
0.0
 10
468.0639623805092
 20
1013.778035239798
 30
0.0
 10
468.4171348091815
 20
1014.136851629487
 30
0.0
 10
468.7450280476717
 20
1014.468082823535
 30
0.0
 10
469.5552190487942
 20
1015.283827672581
 30
0.0
 10
470.0297197087657
 20
1015.760491620788
 30
0.0
 10
471.0641579443981
 20
1016.797785787448
 30
0.0
 10
471.6141752571379
 20
1017.348468938512
 30
0.0
 10
472.1661498012519
 20
1017.900309730986
 30
0.0
  0
LINE
  5
291
330
77
100
AcDbEntity
  8
Visible Tangent Edges(ISO)
100
AcDbLine
 10
490.7766099386826
 20
1010.278369628036
 30
0.0
 11
490.7766099386827
 21
1003.986815353326
 31
0.0
  0
ELLIPSE
  5
292
330
77
100
AcDbEntity
  8
Visible Tangent Edges(ISO)
100
AcDbEllipse
 10
490.7644992440089
 20
1036.755805423542
 30
0.0
 11
-25.90349831976066
 21
5.616256861381279
 31
0.0
210
0.0
220
0.0
230
1.0
 40
0.9988973209834661
 41
1.0062724921322
 42
1.78453485693066
  0
LINE
  5
293
330
77
100
AcDbEntity
  8
Visible Tangent Edges(ISO)
100
AcDbLine
 10
800.4014945095596
 20
1010.278369628041
 30
0.0
 11
490.7766099386826
 21
1010.278369628036
 31
0.0
  0
LINE
  5
294
330
77
100
AcDbEntity
  8
Visible Tangent Edges(ISO)
100
AcDbLine
 10
766.0546766015739
 20
1065.791829188885
 30
0.0
 11
766.3812904598273
 21
1065.49785119136
 31
0.0
  0
LINE
  5
295
330
77
100
AcDbEntity
  8
Visible Tangent Edges(ISO)
100
AcDbLine
 10
771.3744381335999
 20
1070.4909304203
 30
0.0
 11
771.0478242753465
 21
1070.784908417826
 31
0.0
  0
LINE
  5
296
330
77
100
AcDbEntity
  8
Visible Tangent Edges(ISO)
100
AcDbLine
 10
524.7968139884132
 20
1065.497851191356
 30
0.0
 11
525.1234278466666
 21
1065.791829188881
 31
0.0
  0
LINE
  5
297
330
77
100
AcDbEntity
  8
Visible Tangent Edges(ISO)
100
AcDbLine
 10
520.1302801728939
 20
1070.784908417822
 30
0.0
 11
519.8036663146403
 21
1070.490930420296
 31
0.0
  0
LINE
  5
298
330
77
100
AcDbEntity
  8
Visible Tangent Edges(ISO)
100
AcDbLine
 10
519.8036663146373
 20
1266.072725868101
 30
0.0
 11
520.1302801728906
 21
1265.713485103404
 31
0.0
  0
LINE
  5
299
330
77
100
AcDbEntity
  8
Visible Tangent Edges(ISO)
100
AcDbLine
 10
771.0478242753435
 20
1265.713485103408
 30
0.0
 11
771.3744381335969
 21
1266.072725868105
 31
0.0
  0
LINE
  5
29A
330
77
100
AcDbEntity
  8
Visible Tangent Edges(ISO)
100
AcDbLine
 10
525.1234278466633
 20
1270.706564332344
 30
0.0
 11
524.7968139884099
 21
1271.065805097042
 31
0.0
  0
LINE
  5
29B
330
77
100
AcDbEntity
  8
Visible Tangent Edges(ISO)
100
AcDbLine
 10
766.3812904598239
 20
1271.065805097045
 30
0.0
 11
766.0546766015706
 21
1270.706564332348
 31
0.0
  0
ELLIPSE
  5
29C
330
77
100
AcDbEntity
  8
Visible Tangent Edges(ISO)
100
AcDbEllipse
 10
766.3258572862826
 20
1070.5421947545
 30
0.0
 11
3.034217906962914
 21
-4.062439399974943
 31
0.0
210
0.0
220
0.0
230
1.0
 40
0.9855429957713155
 41
5.645712807945681
 42
6.429741443472724
  0
ELLIPSE
  5
29D
330
77
100
AcDbEntity
  8
Visible Tangent Edges(ISO)
100
AcDbEllipse
 10
766.3258572862826
 20
1070.5421947545
 30
0.0
 11
4.19399093971707
 21
-2.851468871496413
 31
0.0
210
0.0
220
0.0
230
0.9999999999999998
 40
0.9856303451722151
 41
6.092799813144366
 42
6.876828448671381
  0
LINE
  5
29E
330
77
100
AcDbEntity
  8
Visible Tangent Edges(ISO)
100
AcDbLine
 10
766.3812904598273
 20
1065.49785119136
 30
0.0
 11
524.7968139884132
 21
1065.497851191356
 31
0.0
  0
ELLIPSE
  5
29F
330
77
100
AcDbEntity
  8
Visible Tangent Edges(ISO)
100
AcDbEllipse
 10
524.8522471619577
 20
1070.542194754496
 30
0.0
 11
-4.193990939716869
 21
-2.851468871496664
 31
0.0
210
0.0
220
0.0
230
1.0
 40
0.9856303451722197
 41
5.689542165687764
 42
6.473570801214791
  0
ELLIPSE
  5
2A0
330
77
100
AcDbEntity
  8
Visible Tangent Edges(ISO)
100
AcDbEllipse
 10
524.8522471619577
 20
1070.542194754496
 30
0.0
 11
-3.034217906962966
 21
-4.062439399974861
 31
0.0
210
0.0
220
0.0
230
1.0
 40
0.9855429957713226
 41
6.136629170886479
 42
6.92065780641354
  0
LINE
  5
2A1
330
77
100
AcDbEntity
  8
Visible Tangent Edges(ISO)
100
AcDbLine
 10
519.8036663146403
 20
1070.490930420296
 30
0.0
 11
519.8036663146373
 21
1266.072725868101
 31
0.0
  0
ELLIPSE
  5
2A2
330
77
100
AcDbEntity
  8
Visible Tangent Edges(ISO)
100
AcDbEllipse
 10
513.8118891061099
 20
1266.071081693058
 30
0.0
 11
5.99999999999991
 21
0.0000000000001432
 31
0.0
210
0.0
220
0.0
230
1.0
 40
0.0052359638314312
 41
0.0523598775619183
 42
1.527163095495088
  0
ELLIPSE
  5
2A3
330
77
100
AcDbEntity
  8
Visible Tangent Edges(ISO)
100
AcDbEllipse
 10
524.8522471619545
 20
1266.013125374941
 30
0.0
 11
-4.083713163839352
 21
3.015764254936827
 31
0.0
210
0.0
220
0.0
230
1.0
 40
0.9843126606119941
 41
6.130960520027111
 42
6.914989155554154
  0
SPLINE
  5
2A4
330
77
100
AcDbEntity
  8
Visible Edges(ISO)
100
AcDbSpline
210
0.0
220
0.0
230
1.0
 70
     8
 71
     3
 72
    16
 73
    12
 74
     0
 42
0.0000000001
 43
0.0000000001
 40
-0.8821987119460374
 40
-0.8821987119460374
 40
-0.8821987119460374
 40
-0.8821987119460374
 40
-0.8804332421906721
 40
-0.8804332421906721
 40
-0.674411449075234
 40
-0.674411449075234
 40
-0.4685711712002468
 40
-0.4685711712002468
 40
-0.234298919102236
 40
-0.234298919102236
 40
0.0
 40
0.0
 40
0.0
 40
0.0
 10
521.2658866725416
 20
1269.603545852565
 30
0.0
 10
521.2655790981326
 20
1269.603884151946
 30
0.0
 10
521.2652654312477
 20
1269.604228540335
 30
0.0
 10
521.2276314205316
 20
1269.645477910163
 30
0.0
 10
521.1076377953266
 20
1269.768981728416
 30
0.0
 10
520.712753091983
 20
1270.170427955964
 30
0.0
 10
520.4409013757704
 20
1270.445283199673
 30
0.0
 10
519.7254372519728
 20
1271.166299742373
 30
0.0
 10
519.2701789218984
 20
1271.62393336124
 30
0.0
 10
518.2618739053801
 20
1272.635561573348
 30
0.0
 10
517.7185002221436
 20
1273.179851064781
 30
0.0
 10
517.1665153702202
 20
1273.731954537899
 30
0.0
  0
ELLIPSE
  5
2A5
330
77
100
AcDbEntity
  8
Visible Tangent Edges(ISO)
100
AcDbEllipse
 10
525.1139634861465
 20
1266.044511257066
 30
0.0
 11
-9.251962849343813
 21
6.058854268832545
 31
0.0
210
0.0
220
0.0
230
0.9999999999999998
 40
0.9942763347845977
 41
6.093146227976372
 42
6.860350307264639
  0
LINE
  5
2A6
330
77
100
AcDbEntity
  8
Visible Tangent Edges(ISO)
100
AcDbLine
 10
766.3812904598239
 20
1271.065805097045
 30
0.0
 11
766.3812904598239
 21
1276.825529142204
 31
0.0
  0
ELLIPSE
  5
2A7
330
77
100
AcDbEntity
  8
Visible Tangent Edges(ISO)
100
AcDbEllipse
 10
766.3258572862795
 20
1266.013125374945
 30
0.0
 11
2.853665690774895
 21
4.199811189425829
 31
0.0
210
0.0
220
0.0
230
1.0
 40
0.9844105326508326
 41
6.092264079544992
 42
6.876292715072078
  0
SPLINE
  5
2A8
330
77
100
AcDbEntity
  8
Visible Edges(ISO)
100
AcDbSpline
210
0.0
220
0.0
230
1.0
 70
     8
 71
     3
 72
    16
 73
    12
 74
     0
 42
0.0000000001
 43
0.0000000001
 40
-0.8821987119447079
 40
-0.8821987119447079
 40
-0.8821987119447079
 40
-0.8821987119447079
 40
-0.8804332421898802
 40
-0.8804332421898802
 40
-0.6744114490751415
 40
-0.6744114490751415
 40
-0.4685711712001934
 40
-0.4685711712001934
 40
-0.234298919102203
 40
-0.234298919102203
 40
0.0
 40
0.0
 40
0.0
 40
0.0
 10
769.9122177756925
 20
1269.603545852569
 30
0.0
 10
769.9125253501013
 20
1269.603884151949
 30
0.0
 10
769.9128390169628
 20
1269.604228540363
 30
0.0
 10
769.9504730283721
 20
1269.645477909499
 30
0.0
 10
770.0704666528864
 20
1269.768981728442
 30
0.0
 10
770.4653513562385
 20
1270.17042795598
 30
0.0
 10
770.7372030722973
 20
1270.445283199844
 30
0.0
 10
771.4526671961171
 20
1271.166299742521
 30
0.0
 10
771.9079255263018
 20
1271.623933361278
 30
0.0
 10
772.9162305428193
 20
1272.635561573387
 30
0.0
 10
773.4596042260903
 20
1273.179851064785
 30
0.0
 10
774.0115890780137
 20
1273.731954537903
 30
0.0
  0
ELLIPSE
  5
2A9
330
77
100
AcDbEntity
  8
Visible Tangent Edges(ISO)
100
AcDbEllipse
 10
766.3258572862795
 20
1265.78279852042
 30
0.0
 11
5.82909856270619
 21
9.399103155334461
 31
0.0
210
0.0
220
0.0
230
0.9999999999999998
 40
0.9943979550954296
 41
6.068591020537263
 42
6.835795099825528
  0
ELLIPSE
  5
2AA
330
77
100
AcDbEntity
  8
Visible Tangent Edges(ISO)
100
AcDbEllipse
 10
777.3662153421272
 20
1070.489286245256
 30
0.0
 11
-5.999999999999869
 21
-0.000000000000095
 31
0.0
210
0.0
220
0.0
230
1.0
 40
0.0052359638314227
 41
4.756022211684493
 42
6.230825429625458
  0
LINE
  5
2AB
330
77
100
AcDbEntity
  8
Visible Tangent Edges(ISO)
100
AcDbLine
 10
777.1044990179352
 20
1070.52067212738
 30
0.0
 11
777.1044990179322
 21
1266.102467575186
 31
0.0
  0
ELLIPSE
  5
2AC
330
77
100
AcDbEntity
  8
Visible Tangent Edges(ISO)
100
AcDbEllipse
 10
777.3662153421241
 20
1266.071081693062
 30
0.0
 11
-5.99999999999988
 21
-0.0000000000001285
 31
0.0
210
0.0
220
0.0
230
1.0
 40
0.00523596383142
 41
4.75602221168457
 42
6.230825429630426
  0
LINE
  5
2AD
330
77
100
AcDbEntity
  8
Visible Tangent Edges(ISO)
100
AcDbLine
 10
771.3744381335969
 20
1266.072725868105
 30
0.0
 11
771.3744381335999
 21
1070.4909304203
 31
0.0
  0
ELLIPSE
  5
2AE
330
77
100
AcDbEntity
  8
Visible Tangent Edges(ISO)
100
AcDbEllipse
 10
766.0641409620907
 20
1070.573580636624
 30
0.0
 11
9.35405974302853
 21
-5.895696593034394
 31
0.0
210
0.0
220
0.0
230
1.0
 40
0.9946899572513338
 41
6.075971004781134
 42
6.843175084069409
  0
SPLINE
  5
2AF
330
77
100
AcDbEntity
  8
Visible Edges(ISO)
100
AcDbSpline
210
0.0
220
0.0
230
1.0
 70
     8
 71
     3
 72
    16
 73
    12
 74
     0
 42
0.0000000001
 43
0.0000000001
 40
-0.8821987119285921
 40
-0.8821987119285921
 40
-0.8821987119285921
 40
-0.8821987119285921
 40
-0.8804332421752834
 40
-0.8804332421752834
 40
-0.6744114490751909
 40
-0.6744114490751909
 40
-0.4685711712002146
 40
-0.4685711712002146
 40
-0.234298919102216
 40
-0.234298919102216
 40
0.0
 40
0.0
 40
0.0
 40
0.0
 10
769.9122177756956
 20
1066.959992575182
 30
0.0
 10
769.9125253501043
 20
1066.959715734178
 30
0.0
 10
769.9128390169605
 20
1066.959432797414
 30
0.0
 10
769.9504730285466
 20
1066.92541517701
 30
0.0
 10
770.0704666529254
 20
1066.808935035104
 30
0.0
 10
770.4653513562544
 20
1066.420622681925
 30
0.0
 10
770.7372030724668
 20
1066.15178194647
 30
0.0
 10
771.4526671962643
 20
1065.441889856341
 30
0.0
 10
771.9079255263388
 20
1064.989019295975
 30
0.0
 10
772.9162305428571
 20
1063.98406511824
 30
0.0
 10
773.4596042260938
 20
1063.441622139994
 30
0.0
 10
774.0115890780169
 20
1062.889771042209
 30
0.0
  0
ELLIPSE
  5
2B0
330
77
100
AcDbEntity
  8
Visible Tangent Edges(ISO)
100
AcDbEllipse
 10
766.3258572862795
 20
1266.013125374945
 30
0.0
 11
4.083713163839331
 21
3.015764254936852
 31
0.0
210
0.0
220
0.0
230
1.0
 40
0.9843126606119925
 41
5.651381458805046
 42
6.435410094332105
  0
ELLIPSE
  5
2B1
330
77
100
AcDbEntity
  8
Visible Tangent Edges(ISO)
100
AcDbEllipse
 10
766.0641409620875
 20
1266.04451125707
 30
0.0
 11
9.251962849343689
 21
6.058854268832736
 31
0.0
210
0.0
220
0.0
230
1.0
 40
0.9942763347845977
 41
5.706020307094544
 42
6.473224386382796
  0
LINE
  5
2B2
330
77
100
AcDbEntity
  8
Visible Tangent Edges(ISO)
100
AcDbLine
 10
766.3812904598273
 20
1059.797610560362
 30
0.0
 11
766.3812904598272
 21
1065.49785119136
 31
0.0
  0
ELLIPSE
  5
2B3
330
77
100
AcDbEntity
  8
Visible Tangent Edges(ISO)
100
AcDbEllipse
 10
766.3258572862826
 20
1070.835293373274
 30
0.0
 11
6.177690171144579
 21
-9.169449678124697
 31
0.0
210
0.0
220
0.0
230
1.0
 40
0.9945846593245994
 41
5.692825528083684
 42
6.460029607371941
  0
LINE
  5
2B4
330
77
100
AcDbEntity
  8
Visible Tangent Edges(ISO)
100
AcDbLine
 10
524.7968139884134
 20
1059.797610560358
 30
0.0
 11
524.7968139884132
 21
1065.497851191356
 31
0.0
  0
LINE
  5
2B5
330
77
100
AcDbEntity
  8
Visible Tangent Edges(ISO)
100
AcDbLine
 10
524.7968139884134
 20
1059.797610560358
 30
0.0
 11
766.3812904598273
 21
1059.797610560362
 31
0.0
  0
LINE
  5
2B6
330
77
100
AcDbEntity
  8
Visible Tangent Edges(ISO)
100
AcDbLine
 10
524.79681398841
 20
1271.065805097042
 30
0.0
 11
524.7968139884099
 21
1276.8255291422
 31
0.0
  0
LINE
  5
2B7
330
77
100
AcDbEntity
  8
Visible Tangent Edges(ISO)
100
AcDbLine
 10
524.7968139884099
 20
1271.065805097042
 30
0.0
 11
766.3812904598239
 21
1271.065805097045
 31
0.0
  0
LINE
  5
2B8
330
77
100
AcDbEntity
  8
Visible Tangent Edges(ISO)
100
AcDbLine
 10
766.3812904598238
 20
1276.825529142204
 30
0.0
 11
524.7968139884099
 21
1276.825529142201
 31
0.0
  0
ELLIPSE
  5
2B9
330
77
100
AcDbEntity
  8
Visible Tangent Edges(ISO)
100
AcDbEllipse
 10
524.8522471619577
 20
1070.83529337327
 30
0.0
 11
-6.177690171144178
 21
-9.169449678124967
 31
0.0
210
0.0
220
0.0
230
0.9999999999999998
 40
0.9945846593245997
 41
6.106341006987198
 42
6.873545086275459
  0
SPLINE
  5
2BA
330
77
100
AcDbEntity
  8
Visible Edges(ISO)
100
AcDbSpline
210
0.0
220
0.0
230
1.0
 70
     8
 71
     3
 72
    16
 73
    12
 74
     0
 42
0.0000000001
 43
0.0000000001
 40
-0.8821987119400324
 40
-0.8821987119400324
 40
-0.8821987119400324
 40
-0.8821987119400324
 40
-0.8804332421836793
 40
-0.8804332421836793
 40
-0.6744114490751444
 40
-0.6744114490751444
 40
-0.468571171200189
 40
-0.468571171200189
 40
-0.2342989191022028
 40
-0.2342989191022028
 40
0.0
 40
0.0
 40
0.0
 40
0.0
 10
521.2658866725448
 20
1066.959992575178
 30
0.0
 10
521.2655790981356
 20
1066.959715734173
 30
0.0
 10
521.2652654313044
 20
1066.959432797386
 30
0.0
 10
521.227631419011
 20
1066.925415177703
 30
0.0
 10
521.1076377953446
 20
1066.808935035087
 30
0.0
 10
520.7127530919986
 20
1066.420622681909
 30
0.0
 10
520.4409013759402
 20
1066.151781946299
 30
0.0
 10
519.7254372521206
 20
1065.441889856192
 30
0.0
 10
519.2701789219352
 20
1064.989019295937
 30
0.0
 10
518.2618739054178
 20
1063.984065118201
 30
0.0
 10
517.7185002221468
 20
1063.44162213999
 30
0.0
 10
517.1665153702235
 20
1062.889771042205
 30
0.0
  0
ELLIPSE
  5
2BB
330
77
100
AcDbEntity
  8
Visible Tangent Edges(ISO)
100
AcDbEllipse
 10
524.8522471619545
 20
1266.013125374941
 30
0.0
 11
-2.853665690774988
 21
4.199811189425766
 31
0.0
210
0.0
220
0.0
230
1.0
 40
0.9844105326508339
 41
5.690077899287107
 42
6.47410653481413
  0
ELLIPSE
  5
2BC
330
77
100
AcDbEntity
  8
Visible Tangent Edges(ISO)
100
AcDbEllipse
 10
524.8522471619545
 20
1265.782798520416
 30
0.0
 11
-5.829098562706662
 21
9.399103155334161
 31
0.0
210
0.0
220
0.0
230
0.9999999999999998
 40
0.9943979550954296
 41
5.730575514533626
 42
6.497779593821892
  0
ELLIPSE
  5
2BD
330
77
100
AcDbEntity
  8
Visible Tangent Edges(ISO)
100
AcDbEllipse
 10
513.811889106113
 20
1070.489286245252
 30
0.0
 11
5.999999999999925
 21
0.000000000000095
 31
0.0
210
0.0
220
0.0
230
1.0
 40
0.0052359638314227
 41
0.0523598775598998
 42
1.527163095495185
  0
ELLIPSE
  5
2BE
330
77
100
AcDbEntity
  8
Visible Tangent Edges(ISO)
100
AcDbEllipse
 10
525.1139634861498
 20
1070.573580636621
 30
0.0
 11
-9.354059743028408
 21
-5.89569659303459
 31
0.0
210
0.0
220
0.0
230
1.0
 40
0.9946899572513334
 41
5.723195530289773
 42
6.490399609578045
  0
LINE
  5
2BF
330
77
100
AcDbEntity
  8
Visible Tangent Edges(ISO)
100
AcDbLine
 10
514.073605430302
 20
1266.102467575182
 30
0.0
 11
514.073605430305
 21
1070.520672127376
 31
0.0
  0
LINE
  5
2C0
330
77
100
AcDbEntity
  8
Visible Edges(ISO)
100
AcDbLine
 10
774.0115890780137
 20
1273.731954537903
 30
0.0
 11
819.0119546469853
 21
1318.741990656877
 31
0.0
  0
LINE
  5
2C1
330
77
100
AcDbEntity
  8
Visible Edges(ISO)
100
AcDbLine
 10
517.1665153702202
 20
1273.731954537899
 30
0.0
 11
472.1661498012471
 21
1318.741990656872
 31
0.0
  0
LINE
  5
2C2
330
77
100
AcDbEntity
  8
Visible Edges(ISO)
100
AcDbLine
 10
774.0115890780169
 20
1062.889771042209
 30
0.0
 11
819.0119546469901
 21
1017.900309730991
 31
0.0
  0
LINE
  5
2C3
330
77
100
AcDbEntity
  8
Visible Edges(ISO)
100
AcDbLine
 10
517.1665153702235
 20
1062.889771042205
 30
0.0
 11
472.1661498012519
 21
1017.900309730986
 31
0.0
  0
LINE
  5
2C4
330
77
100
AcDbEntity
  8
Visible Edges(ISO)
100
AcDbLine
 10
841.1390522241196
 20
1311.682326980946
 30
0.0
 11
841.1390522241195
 21
1338.681956871627
 31
0.0
  0
LINE
  5
2C5
330
77
100
AcDbEntity
  8
Visible Edges(ISO)
100
AcDbLine
 10
841.1390522241196
 20
1311.677355487015
 30
0.0
 11
841.1390522241196
 21
1311.682326980946
 31
0.0
  0
LINE
  5
2C6
330
77
100
AcDbEntity
  8
Visible Edges(ISO)
100
AcDbLine
 10
828.1390522241194
 20
1338.668866962048
 30
0.0
 11
828.1390522241196
 21
1334.547201487593
 31
0.0
  0
ELLIPSE
  5
2C7
330
77
100
AcDbEntity
  8
Visible Edges(ISO)
100
AcDbEllipse
 10
825.6390592684518
 20
1334.548289063935
 30
0.0
 11
-0.5624032268678996
 21
-2.437153437737966
 31
0.0
210
0.0
220
0.0
230
1.0
 40
0.9997289803435835
 41
0.235573577151186
 42
0.6244257585410154
  0
LINE
  5
2C8
330
77
100
AcDbEntity
  8
Visible Tangent Edges(ISO)
100
AcDbLine
 10
832.1390522243632
 20
1334.568145343162
 30
0.0
 11
832.1390522241195
 21
1338.689810817374
 31
0.0
  0
ELLIPSE
  5
2C9
330
77
100
AcDbEntity
  8
Visible Tangent Edges(ISO)
100
AcDbEllipse
 10
832.1390522241195
 20
1338.668866962048
 30
0.0
 11
-3.999999999999996
 21
-0.0000000000000366
 31
0.0
210
0.0
220
0.0
230
1.0
 40
0.0052359638314212
 41
4.712388980384689
 42
6.283185307121601
  0
ELLIPSE
  5
2CA
330
77
100
AcDbEntity
  8
Visible Tangent Edges(ISO)
100
AcDbEllipse
 10
832.1390522246069
 20
1334.547201488081
 30
0.0
 11
-4.0
 21
-0.0000000000000366
 31
0.0
210
0.0
220
0.0
230
1.0
 40
0.0052359638314212
 41
4.712388980321806
 42
6.283185306928571
  0
SPLINE
  5
2CB
330
77
100
AcDbEntity
  8
Visible Edges(ISO)
100
AcDbSpline
210
0.0
220
0.0
230
1.0
 70
     8
 71
     3
 72
     8
 73
     4
 74
     0
 42
0.0000000001
 43
0.0000000001
 40
0.0
 40
0.0
 40
0.0
 40
0.0
 40
0.0030678329076782
 40
0.0030678329076782
 40
0.0030678329076782
 40
0.0030678329076782
 10
826.6073035331194
 20
1332.24234926737
 30
0.0
 10
826.6072796616429
 20
1332.242372941797
 30
0.0
 10
826.6072621024544
 20
1332.242381592737
 30
0.0
 10
826.6072508441288
 20
1332.24237524773
 30
0.0
  0
SPLINE
  5
2CC
330
77
100
AcDbEntity
  8
Visible Tangent Edges(ISO)
100
AcDbSpline
210
0.0
220
0.0
230
1.0
 70
     8
 71
     3
 72
    10
 73
     6
 74
     0
 42
0.0000000001
 43
0.0000000001
 40
0.0030678329076782
 40
0.0030678329076782
 40
0.0030678329076782
 40
0.0030678329076782
 40
0.5
 40
0.5
 40
1.0
 40
1.0
 40
1.0
 40
1.0
 10
826.6072508441288
 20
1332.24237524773
 30
0.0
 10
826.6054272037068
 20
1332.24134747401
 30
0.0
 10
826.7689256384691
 20
1331.846855957812
 30
0.0
 10
827.3311802991194
 20
1330.500892371348
 30
0.0
 10
827.7282098771195
 20
1329.553553620534
 30
0.0
 10
828.1364343261195
 20
1328.581782909996
 30
0.0
  0
SPLINE
  5
2CD
330
77
100
AcDbEntity
  8
Visible Tangent Edges(ISO)
100
AcDbSpline
210
0.0
220
0.0
230
1.0
 70
     8
 71
     3
 72
     8
 73
     4
 74
     0
 42
0.0000000001
 43
0.0000000001
 40
0.0
 40
0.0
 40
0.0
 40
0.0
 40
0.0000138061180915
 40
0.0000138061180915
 40
0.0000138061180915
 40
0.0000138061180915
 10
828.1364343261195
 20
1328.581782909996
 30
0.0
 10
828.1382166251194
 20
1328.577540180597
 30
0.0
 10
828.1390522241196
 20
1328.572829566351
 30
0.0
 10
828.1390522241196
 20
1328.568227589434
 30
0.0
  0
ELLIPSE
  5
2CE
330
77
100
AcDbEntity
  8
Visible Tangent Edges(ISO)
100
AcDbEllipse
 10
825.6390522239319
 20
1334.568145343856
 30
0.0
 11
6.5
 21
-0.0000000000296357
 31
0.0
210
0.0
220
0.0
230
1.0
 40
0.9999862922474259
 41
5.107180100074599
 42
6.283185307077426
  0
LINE
  5
2CF
330
77
100
AcDbEntity
  8
Visible Tangent Edges(ISO)
100
AcDbLine
 10
818.3080141446696
 20
1328.003866216969
 30
0.0
 11
825.6608685628595
 21
1328.068368703872
 31
0.0
  0
ELLIPSE
  5
2D0
330
77
100
AcDbEntity
  8
Visible Tangent Edges(ISO)
100
AcDbEllipse
 10
825.6957747045909
 20
1328.047425646026
 30
0.0
 11
-0.0350884168150701
 21
3.99984609741492
 31
0.0
210
0.0
220
0.0
230
1.0
 40
0.0086803935427357
 41
0.0
 42
1.565484188721706
  0
ELLIPSE
  5
2D1
330
77
100
AcDbEntity
  8
Visible Edges(ISO)
100
AcDbEllipse
 10
825.6957747045824
 20
1328.047425646176
 30
0.0
 11
-0.0350884168066367
 21
3.999846097264625
 31
0.0
210
0.0
220
0.0
230
0.9999999999999998
 40
0.0086803935427563
 41
6.277949321525549
 42
6.283185307086388
  0
ELLIPSE
  5
2D2
330
77
100
AcDbEntity
  8
Visible Tangent Edges(ISO)
100
AcDbEllipse
 10
825.6041497154804
 20
1334.568487452027
 30
0.0
 11
3.344383656551843
 21
5.574141282250272
 31
0.0
210
0.0
220
0.0
230
0.9999999999999998
 40
0.9999482158459507
 41
3.690747467105457
 42
4.082185930400648
  0
LINE
  5
2D3
330
77
100
AcDbEntity
  8
Visible Tangent Edges(ISO)
100
AcDbLine
 10
825.6608685628597
 20
1322.311396566108
 30
0.0
 11
825.1345002879574
 21
1322.315965997841
 31
0.0
  0
ELLIPSE
  5
2D4
330
77
100
AcDbEntity
  8
Visible Tangent Edges(ISO)
100
AcDbEllipse
 10
825.6957747045984
 20
1322.290453509121
 30
0.0
 11
0.0347229100566237
 21
3.99984928709989
 31
0.0
210
0.0
220
0.0
230
1.0
 40
0.0087717737118584
 41
1.56563648953419
 42
1.712967027324073
  0
SPLINE
  5
2D5
330
77
100
AcDbEntity
  8
Visible Tangent Edges(ISO)
100
AcDbSpline
210
0.0
220
0.0
230
1.0
 70
     8
 71
     3
 72
     8
 73
     4
 74
     0
 42
0.0000000001
 43
0.0000000001
 40
0.6148776415538137
 40
0.6148776415538137
 40
0.6148776415538137
 40
0.6148776415538137
 40
1.0
 40
1.0
 40
1.0
 40
1.0
 10
827.2605137598532
 20
1319.701946904258
 30
0.0
 10
827.5142105198469
 20
1320.312965838443
 30
0.0
 10
827.8220015654111
 20
1321.04967851845
 30
0.0
 10
828.136434293267
 20
1321.79820850824
 30
0.0
  0
ELLIPSE
  5
2D6
330
77
100
AcDbEntity
  8
Visible Tangent Edges(ISO)
100
AcDbEllipse
 10
825.6041488439286
 20
1315.811268431141
 30
0.0
 11
3.344387485516548
 21
5.5741438957558
 31
0.0
210
0.0
220
0.0
230
0.9999999999999998
 40
0.9999482158277233
 41
0.140265167287855
 42
0.5317033737196083
  0
ELLIPSE
  5
2D7
330
77
100
AcDbEntity
  8
Visible Tangent Edges(ISO)
100
AcDbEllipse
 10
839.6390522241198
 20
1311.682326980946
 30
0.0
 11
1.500000000000001
 21
0.0000000000001181
 31
0.0
210
0.0
220
0.0
230
1.0
 40
0.9999862922474255
 41
4.712388980384609
 42
6.283185307179626
  0
SPLINE
  5
2D8
330
77
100
AcDbEntity
  8
Visible Edges(ISO)
100
AcDbSpline
210
0.0
220
0.0
230
1.0
 70
     8
 71
     3
 72
    16
 73
    12
 74
     0
 42
0.0000000001
 43
0.0000000001
 40
0.0
 40
0.0
 40
0.0
 40
0.0000000000618032
 40
0.0302729622160507
 40
0.0302729622160507
 40
0.0605459244321014
 40
0.0605459244321014
 40
0.1210918488642029
 40
0.1210918488642029
 40
0.1844113461818424
 40
0.1844113461818424
 40
0.247730843445134
 40
0.247730843445134
 40
0.247730843499482
 40
0.247730843499482
 10
839.6390522237076
 20
1310.182347542499
 30
0.0
 10
839.7399620977598
 20
1310.18234754252
 30
0.0
 10
839.8402067065468
 20
1310.192538103015
 30
0.0
 10
840.0342970574431
 20
1310.231626198063
 30
0.0
 10
840.1281690300569
 20
1310.260540393535
 30
0.0
 10
840.3947166040635
 20
1310.371167744334
 30
0.0
 10
840.552746690381
 20
1310.478074276081
 30
0.0
 10
840.8116286381002
 20
1310.726195656773
 30
0.0
 10
840.9303370663137
 20
1310.888932889345
 30
0.0
 10
841.0942665830628
 20
1311.260998238521
 30
0.0
 10
841.1390522240679
 20
1311.47077873545
 30
0.0
 10
841.1390522241449
 20
1311.677355487206
 30
0.0
  0
LINE
  5
2D9
330
77
100
AcDbEntity
  8
Visible Tangent Edges(ISO)
100
AcDbLine
 10
832.1390522241195
 20
1340.181956871627
 30
0.0
 11
832.1390522241195
 21
1338.689810817374
 31
0.0
  0
LINE
  5
2DA
330
77
100
AcDbEntity
  8
Visible Tangent Edges(ISO)
100
AcDbLine
 10
839.6390522241194
 20
1340.181956871627
 30
0.0
 11
839.6390522241194
 21
1338.689810817374
 31
0.0
  0
LINE
  5
2DB
330
77
100
AcDbEntity
  8
Visible Tangent Edges(ISO)
100
AcDbLine
 10
832.1390522241195
 20
1338.689810817374
 30
0.0
 11
839.6390522241194
 21
1338.689810817374
 31
0.0
  0
ELLIPSE
  5
2DC
330
77
100
AcDbEntity
  8
Visible Tangent Edges(ISO)
100
AcDbEllipse
 10
839.6390522241194
 20
1338.681956871627
 30
0.0
 11
1.5
 21
0.0000000000000137
 31
0.0
210
0.0
220
0.0
230
1.0
 40
0.0052359638314212
 41
0.0
 42
1.570796326794896
  0
ELLIPSE
  5
2DD
330
77
100
AcDbEntity
  8
Visible Tangent Edges(ISO)
100
AcDbEllipse
 10
839.6390522241196
 20
1311.682326980946
 30
0.0
 11
1.500000000000003
 21
0.0000000000000138
 31
0.0
210
0.0
220
0.0
230
1.0
 40
0.0052359638314212
 41
0.0
 42
1.570796326794896
  0
LINE
  5
2DE
330
77
100
AcDbEntity
  8
Visible Tangent Edges(ISO)
100
AcDbLine
 10
839.6390522241194
 20
1338.689810817374
 30
0.0
 11
839.6390522241196
 21
1311.690180926693
 31
0.0
  0
LINE
  5
2DF
330
77
100
AcDbEntity
  8
Visible Tangent Edges(ISO)
100
AcDbLine
 10
839.6390522241196
 20
1310.182347542514
 30
0.0
 11
839.6390522241196
 21
1311.690180926694
 31
0.0
  0
SPLINE
  5
2E0
330
77
100
AcDbEntity
  8
Visible Edges(ISO)
100
AcDbSpline
210
0.0
220
0.0
230
1.0
 70
     8
 71
     3
 72
    11
 73
     7
 74
     0
 42
0.0000000001
 43
0.0000000001
 40
4.240848661966382
 40
4.240848661966382
 40
4.240848661966382
 40
4.240848661966382
 40
4.319689898871933
 40
4.319689898871933
 40
4.319689898871933
 40
4.712388980384689
 40
4.712388980384689
 40
4.712388980384689
 40
4.712388980384689
 10
838.3204382837398
 20
1310.182351511459
 30
0.0
 10
838.2853202245952
 20
1310.164541624529
 30
0.0
 10
838.2494972702275
 20
1310.148116128583
 30
0.0
 10
838.2130773727864
 20
1310.133132423069
 30
0.0
 10
838.0316740762975
 20
1310.058500319058
 30
0.0
 10
837.8354371475042
 20
1310.020007852602
 30
0.0
 10
837.6390522246969
 20
1310.020556260182
 30
0.0
  0
SPLINE
  5
2E1
330
77
100
AcDbEntity
  8
Visible Edges(ISO)
100
AcDbSpline
210
0.0
220
0.0
230
1.0
 70
     8
 71
     3
 72
     8
 73
     4
 74
     0
 42
0.0000000001
 43
0.0000000001
 40
3.141592653589789
 40
3.141592653589789
 40
3.141592653589789
 40
3.141592653589789
 40
3.146827741138948
 40
3.146827741138948
 40
3.146827741138948
 40
3.146827741138948
 10
837.6390522244275
 20
1310.020556260181
 30
0.0
 10
837.6404484993418
 20
1310.020542552348
 30
0.0
 10
837.6418447602286
 20
1310.020535782792
 30
0.0
 10
837.6432409885321
 20
1310.020535944726
 30
0.0
  0
LINE
  5
2E2
330
77
100
AcDbEntity
  8
Visible Edges(ISO)
100
AcDbLine
 10
839.6390522241198
 20
1310.182347542575
 30
0.0
 11
837.8106250991196
 21
1310.182347542575
 31
0.0
  0
LINE
  5
2E3
330
77
100
AcDbEntity
  8
Visible Edges(ISO)
100
AcDbLine
 10
834.7890522241197
 20
1310.0231742421
 30
0.0
 11
832.0970030330595
 21
1310.0231742421
 31
0.0
  0
LINE
  5
2E4
330
77
100
AcDbEntity
  8
Visible Edges(ISO)
100
AcDbLine
 10
834.7890522241197
 20
1310.182347542575
 30
0.0
 11
834.7890522241197
 21
1310.0231742421
 31
0.0
  0
LINE
  5
2E5
330
77
100
AcDbEntity
  8
Visible Tangent Edges(ISO)
100
AcDbLine
 10
837.639052224223
 20
1310.0231742421
 30
0.0
 11
837.6390522241198
 21
1310.020556260184
 31
0.0
  0
ELLIPSE
  5
2E6
330
77
100
AcDbEntity
  8
Visible Edges(ISO)
100
AcDbEllipse
 10
837.6390522235018
 20
1311.523153681038
 30
0.0
 11
1.500000000643147
 21
0.0000000007211859
 31
0.0
210
0.0
220
0.0
230
1.0
 40
0.9999862922474257
 41
4.712388980384706
 42
5.177251934004656
  0
LINE
  5
2E7
330
77
100
AcDbEntity
  8
Visible Edges(ISO)
100
AcDbLine
 10
835.2890522241198
 20
1310.0231742421
 30
0.0
 11
835.2890522241198
 21
1310.182347542575
 31
0.0
  0
LINE
  5
2E8
330
77
100
AcDbEntity
  8
Visible Edges(ISO)
100
AcDbLine
 10
837.639052224223
 20
1310.0231742421
 30
0.0
 11
835.2890522241198
 21
1310.0231742421
 31
0.0
  0
LINE
  5
2E9
330
77
100
AcDbEntity
  8
Visible Edges(ISO)
100
AcDbLine
 10
834.7890522241197
 20
1310.0231742421
 30
0.0
 11
834.9683415461198
 21
1310.024112994505
 31
0.0
  0
LINE
  5
2EA
330
77
100
AcDbEntity
  8
Visible Tangent Edges(ISO)
100
AcDbLine
 10
834.9683415461198
 20
1310.024112994505
 30
0.0
 11
834.9683415461198
 21
1310.182347542575
 31
0.0
  0
ELLIPSE
  5
2EB
330
77
100
AcDbEntity
  8
Visible Edges(ISO)
100
AcDbEllipse
 10
835.0390522241001
 20
1310.02374275595
 30
0.0
 11
0.1000000001787728
 21
0.0000000000000009
 31
0.0
210
0.0
220
0.0
230
1.0
 40
0.0052359638314212
 41
0.7853981694811969
 42
2.356194490667656
  0
LINE
  5
2EC
330
77
100
AcDbEntity
  8
Visible Tangent Edges(ISO)
100
AcDbLine
 10
835.109762902263
 20
1310.024112994505
 30
0.0
 11
835.109762902263
 21
1310.182347542575
 31
0.0
  0
LINE
  5
2ED
330
77
100
AcDbEntity
  8
Visible Edges(ISO)
100
AcDbLine
 10
835.109762902263
 20
1310.024112994505
 30
0.0
 11
835.2890522241198
 21
1310.0231742421
 31
0.0
  0
LINE
  5
2EE
330
77
100
AcDbEntity
  8
Visible Tangent Edges(ISO)
100
AcDbLine
 10
832.1390522242134
 20
1315.811846401129
 30
0.0
 11
832.1390522241197
 21
1311.690180926693
 31
0.0
  0
LINE
  5
2EF
330
77
100
AcDbEntity
  8
Visible Tangent Edges(ISO)
100
AcDbLine
 10
832.1390522241197
 20
1311.690180926693
 30
0.0
 11
839.6390522241196
 21
1311.690180926693
 31
0.0
  0
LINE
  5
2F0
330
77
100
AcDbEntity
  8
Visible Tangent Edges(ISO)
100
AcDbLine
 10
828.1390522240258
 20
1328.568227589903
 30
0.0
 11
828.1390522242134
 21
1321.811764154614
 31
0.0
  0
ELLIPSE
  5
2F1
330
77
100
AcDbEntity
  8
Visible Tangent Edges(ISO)
100
AcDbEllipse
 10
825.6390522243071
 20
1315.811846401111
 30
0.0
 11
6.500000000000005
 21
-0.0000000000134621
 31
0.0
210
0.0
220
0.0
230
1.0
 40
0.9999862922474255
 41
0.0
 42
1.176005207111652
  0
LINE
  5
2F2
330
77
100
AcDbEntity
  8
Visible Edges(ISO)
100
AcDbLine
 10
832.1390522241197
 20
1310.182347542575
 30
0.0
 11
837.8106250991196
 21
1310.182347542575
 31
0.0
  0
SPLINE
  5
2F3
330
77
100
AcDbEntity
  8
Visible Tangent Edges(ISO)
100
AcDbSpline
210
0.0
220
0.0
230
1.0
 70
     8
 71
     3
 72
     8
 73
     4
 74
     0
 42
0.0000000001
 43
0.0000000001
 40
0.0
 40
0.0
 40
0.0
 40
0.0
 40
0.0000138061180903
 40
0.0000138061180903
 40
0.0000138061180903
 40
0.0000138061180903
 10
828.1364343261195
 20
1321.798208594829
 30
0.0
 10
828.1382166251196
 20
1321.802451487109
 30
0.0
 10
828.1390522241196
 20
1321.807162177716
 30
0.0
 10
828.1390522241196
 20
1321.811764154633
 30
0.0
  0
ELLIPSE
  5
2F4
330
77
100
AcDbEntity
  8
Visible Tangent Edges(ISO)
100
AcDbEllipse
 10
832.1390522236322
 20
1315.790902545335
 30
0.0
 11
3.999999999999974
 21
0.0000000000000344
 31
0.0
210
0.0
220
0.0
230
1.0
 40
0.0052359638314212
 41
1.570796328051491
 42
2.226239621314373
  0
LINE
  5
2F5
330
77
100
AcDbEntity
  8
Visible Tangent Edges(ISO)
100
AcDbLine
 10
832.1390522241197
 20
1310.182347542575
 30
0.0
 11
832.1390522241197
 21
1311.690180926693
 31
0.0
  0
LINE
  5
2F6
330
77
100
AcDbEntity
  8
Visible Tangent Edges(ISO)
100
AcDbLine
 10
837.6390522241198
 20
1310.020556260184
 30
0.0
 11
832.0978019681156
 21
1310.020556260184
 31
0.0
  0
ELLIPSE
  5
2F7
330
77
100
AcDbEntity
  8
Visible Tangent Edges(ISO)
100
AcDbEllipse
 10
832.1390522241197
 20
1311.669237071368
 30
0.0
 11
3.999999999999407
 21
0.0000000000000366
 31
0.0
210
0.0
220
0.0
230
1.0
 40
0.0052359638314212
 41
1.57079632679423
 42
1.721485231895758
  0
SPLINE
  5
2F8
330
77
100
AcDbEntity
  8
Visible Edges(ISO)
100
AcDbSpline
210
0.0
220
0.0
230
1.0
 70
     8
 71
     3
 72
     8
 73
     4
 74
     0
 42
0.0000000001
 43
0.0000000001
 40
0.2093691417722967
 40
0.2093691417722967
 40
0.2093691417722967
 40
0.2093691417722967
 40
0.2184880567140213
 40
0.2184880567140213
 40
0.2184880567140213
 40
0.2184880567140213
 10
832.0479769844622
 20
1310.182338856087
 30
0.0
 10
832.0783466218077
 20
1310.182344652916
 30
0.0
 10
832.1087099953256
 20
1310.182347545259
 30
0.0
 10
832.13905222412
 20
1310.182347545331
 30
0.0
  0
SPLINE
  5
2F9
330
77
100
AcDbEntity
  8
Visible Edges(ISO)
100
AcDbSpline
210
0.0
220
0.0
230
1.0
 70
     8
 71
     3
 72
    16
 73
    12
 74
     0
 42
0.0000000001
 43
0.0000000001
 40
3.53926337913267
 40
3.53926337913267
 40
3.53926337913267
 40
3.53926337913267
 40
3.773888499985367
 40
3.773888499985367
 40
4.008513620838064
 40
4.008513620838064
 40
4.24313874169076
 40
4.24313874169076
 40
4.477763862543456
 40
4.477763862543456
 40
4.712388983396153
 40
4.712388983396153
 40
4.712388983396153
 40
4.712388983396153
 10
826.6072499906004
 20
1332.242377330658
 30
0.0
 10
826.7875157311344
 20
1332.318096966256
 30
0.0
 10
826.9588478395307
 20
1332.415055994184
 30
0.0
 10
827.2742903431637
 20
1332.646157665944
 30
0.0
 10
827.4183848563646
 20
1332.780288644175
 30
0.0
 10
827.6714539846162
 20
1333.078386503943
 30
0.0
 10
827.7804158732669
 20
1333.242338355972
 30
0.0
 10
827.9572465468797
 20
1333.591096178967
 30
0.0
 10
828.0251064491794
 20
1333.775884585657
 30
0.0
 10
828.1160115684381
 20
1334.156191971028
 30
0.0
 10
828.1390522225493
 20
1334.351691811377
 30
0.0
 10
828.1390522219606
 20
1334.547201487612
 30
0.0
  0
LINE
  5
2FA
330
77
100
AcDbEntity
  8
Visible Edges(ISO)
100
AcDbLine
 10
808.9963892757706
 20
1331.901085168377
 30
0.0
 11
825.660686287782
 21
1332.047271743104
 31
0.0
  0
SPLINE
  5
2FB
330
77
100
AcDbEntity
  8
Visible Edges(ISO)
100
AcDbSpline
210
0.0
220
0.0
230
1.0
 70
     8
 71
     3
 72
    34
 73
    30
 74
     0
 42
0.0000000001
 43
0.0000000001
 40
0.0
 40
0.0
 40
0.0
 40
0.0
 40
0.0486500031577622
 40
0.0486500031577622
 40
0.0964205614766042
 40
0.0964205614766042
 40
0.1442216709036963
 40
0.1442216709036963
 40
0.1919941302711657
 40
0.1919941302711657
 40
0.2143732273895776
 40
0.2143732273895776
 40
0.224199547811062
 40
0.224199547811062
 40
0.2320245157634565
 40
0.2320245157634565
 40
0.2408163721538211
 40
0.2408163721538211
 40
0.2597475981354965
 40
0.2597475981354965
 40
0.3166081776078746
 40
0.3166081776078746
 40
0.3742897351648154
 40
0.3742897351648154
 40
0.4592110695395509
 40
0.4592110695395509
 40
0.5401553631394264
 40
0.5401553631394264
 40
0.6055868245912132
 40
0.6055868245912132
 40
0.6055868245912132
 40
0.6055868245912132
 10
828.1390522238226
 20
1338.668867042568
 30
0.0
 10
828.1390522326118
 20
1338.831027546052
 30
0.0
 10
828.1660432207672
 20
1338.995277158875
 30
0.0
 10
828.2688909582455
 20
1339.299763191794
 30
0.0
 10
828.345110994813
 20
1339.444171375697
 30
0.0
 10
828.5367535165256
 20
1339.698616715299
 30
0.0
 10
828.6545936341047
 20
1339.811800311495
 30
0.0
 10
828.9164699689836
 20
1339.993016959347
 30
0.0
 10
829.0641434038898
 20
1340.063403833396
 30
0.0
 10
829.2871447299344
 20
1340.129025037003
 30
0.0
 10
829.3619371630438
 20
1340.144798452829
 30
0.0
 10
829.4594739541867
 20
1340.15865865887
 30
0.0
 10
829.487996064037
 20
1340.161739808642
 30
0.0
 10
829.5286189820465
 20
1340.165349654037
 30
0.0
 10
829.5433563623406
 20
1340.166368271594
 30
0.0
 10
829.5690731136089
 20
1340.167957378099
 30
0.0
 10
829.5798451423747
 20
1340.168484128014
 30
0.0
 10
829.6102641896071
 20
1340.169837830517
 30
0.0
 10
829.6264833269651
 20
1340.170329274288
 30
0.0
 10
829.6950490576108
 20
1340.172190330039
 30
0.0
 10
829.7545074432152
 20
1340.173102247987
 30
0.0
 10
829.9147364617748
 20
1340.175003432479
 30
0.0
 10
830.0146308582831
 20
1340.175891858182
 30
0.0
 10
830.3031361920954
 20
1340.177898445792
 30
0.0
 10
830.5156108043425
 20
1340.178945431131
 30
0.0
 10
830.9771049770699
 20
1340.180548308655
 30
0.0
 10
831.2296003143588
 20
1340.1811444104
 30
0.0
 10
831.7010238787734
 20
1340.181805375574
 30
0.0
 10
831.9209473526134
 20
1340.181956870442
 30
0.0
 10
832.1390522241195
 20
1340.181956870168
 30
0.0
  0
LINE
  5
2FC
330
77
100
AcDbEntity
  8
Visible Edges(ISO)
100
AcDbLine
 10
839.6390522241194
 20
1340.181956871649
 30
0.0
 11
832.1390522241195
 21
1340.181956871649
 31
0.0
  0
ARC
  5
2FD
330
77
100
AcDbEntity
  8
Visible Edges(ISO)
100
AcDbCircle
 10
839.639052223916
 20
1338.681956871652
 30
0.0
 40
1.500000000064759
100
AcDbArc
 50
0.0
 51
89.99999999223101
  0
LINE
  5
2FE
330
77
100
AcDbEntity
  8
Visible Edges(ISO)
100
AcDbLine
 10
837.64324096859
 20
1310.020535698533
 30
0.0
 11
832.0978082420042
 21
1310.020535698533
 31
0.0
  0
LINE
  5
2FF
330
77
100
AcDbEntity
  8
Visible Edges(ISO)
100
AcDbLine
 10
450.039052224117
 20
1311.682326980942
 30
0.0
 11
450.0390522241171
 21
1311.67735548699
 31
0.0
  0
LINE
  5
300
330
77
100
AcDbEntity
  8
Visible Edges(ISO)
100
AcDbLine
 10
450.0390522241167
 20
1338.681956871623
 30
0.0
 11
450.039052224117
 21
1311.682326980942
 31
0.0
  0
LINE
  5
301
330
77
100
AcDbEntity
  8
Visible Edges(ISO)
100
AcDbLine
 10
455.8890522241171
 20
1310.182347542571
 30
0.0
 11
455.8890522241171
 21
1310.023174242096
 31
0.0
  0
ELLIPSE
  5
302
330
77
100
AcDbEntity
  8
Visible Edges(ISO)
100
AcDbEllipse
 10
453.5390522246837
 20
1311.523153681085
 30
0.0
 11
-1.500000000643118
 21
0.0000000005665293
 31
0.0
210
0.0
220
0.0
230
1.0
 40
0.9999862922474243
 41
1.105933373148248
 42
1.570796326794805
  0
LINE
  5
303
330
77
100
AcDbEntity
  8
Visible Edges(ISO)
100
AcDbLine
 10
455.8890522241171
 20
1310.023174242096
 30
0.0
 11
453.5390522241172
 21
1310.023174242096
 31
0.0
  0
LINE
  5
304
330
77
100
AcDbEntity
  8
Visible Tangent Edges(ISO)
100
AcDbLine
 10
456.2097629021172
 20
1310.182347542571
 30
0.0
 11
456.2097629021172
 21
1310.024112994501
 31
0.0
  0
LINE
  5
305
330
77
100
AcDbEntity
  8
Visible Edges(ISO)
100
AcDbLine
 10
456.2097629021172
 20
1310.024112994501
 30
0.0
 11
456.3890522241172
 21
1310.023174242096
 31
0.0
  0
LINE
  5
306
330
77
100
AcDbEntity
  8
Visible Edges(ISO)
100
AcDbLine
 10
456.3890522241172
 20
1310.023174242096
 30
0.0
 11
456.3890522241172
 21
1310.182347542571
 31
0.0
  0
LINE
  5
307
330
77
100
AcDbEntity
  8
Visible Tangent Edges(ISO)
100
AcDbLine
 10
456.068341545974
 20
1310.182347542572
 30
0.0
 11
456.0683415461418
 21
1310.024112994502
 31
0.0
  0
ELLIPSE
  5
308
330
77
100
AcDbEntity
  8
Visible Edges(ISO)
100
AcDbEllipse
 10
456.1390522241368
 20
1310.023742755946
 30
0.0
 11
-0.1000000001787752
 21
-0.000000000000001
 31
0.0
210
0.0
220
0.0
230
1.0
 40
0.0052359638314212
 41
3.926990816508697
 42
5.497787136621873
  0
LINE
  5
309
330
77
100
AcDbEntity
  8
Visible Edges(ISO)
100
AcDbLine
 10
455.8890522241171
 20
1310.023174242096
 30
0.0
 11
456.0683415461418
 21
1310.024112994502
 31
0.0
  0
SPLINE
  5
30A
330
77
100
AcDbEntity
  8
Visible Edges(ISO)
100
AcDbSpline
210
0.0
220
0.0
230
1.0
 70
     8
 71
     3
 72
     8
 73
     4
 74
     0
 42
0.0000000001
 43
0.0000000001
 40
7.848746541137878
 40
7.848746541137878
 40
7.848746541137878
 40
7.848746541137878
 40
7.853981633974479
 40
7.853981633974479
 40
7.853981633974479
 40
7.853981633974479
 10
453.5348634557998
 20
1310.020535944723
 30
0.0
 10
453.5362596855143
 20
1310.020535782776
 30
0.0
 10
453.5376559478122
 20
1310.020542552332
 30
0.0
 10
453.5390522241376
 20
1310.02055626018
 30
0.0
  0
SPLINE
  5
30B
330
77
100
AcDbEntity
  8
Visible Edges(ISO)
100
AcDbSpline
210
0.0
220
0.0
230
1.0
 70
     8
 71
     3
 72
    11
 73
     7
 74
     0
 42
0.0000000001
 43
0.0000000001
 40
6.283185307179589
 40
6.283185307179589
 40
6.283185307179589
 40
6.283185307179589
 40
6.675884388852552
 40
6.675884388852552
 40
6.675884388852552
 40
6.754725286429458
 40
6.754725286429458
 40
6.754725286429458
 40
6.754725286429458
 10
453.5390522241555
 20
1310.02055626018
 30
0.0
 10
453.3426673011427
 20
1310.020007852518
 30
0.0
 10
453.146430372129
 20
1310.058500318976
 30
0.0
 10
452.9650270754505
 20
1310.133132423065
 30
0.0
 10
452.9286073347355
 20
1310.1481160641
 30
0.0
 10
452.8927845319565
 20
1310.164541483158
 30
0.0
 10
452.8576666178691
 20
1310.18235128153
 30
0.0
  0
LINE
  5
30C
330
77
100
AcDbEntity
  8
Visible Edges(ISO)
100
AcDbLine
 10
453.367479349117
 20
1310.182347542571
 30
0.0
 11
451.5390522241171
 21
1310.182347542571
 31
0.0
  0
SPLINE
  5
30D
330
77
100
AcDbEntity
  8
Visible Edges(ISO)
100
AcDbSpline
210
0.0
220
0.0
230
1.0
 70
     8
 71
     3
 72
    16
 73
    12
 74
     0
 42
0.0000000001
 43
0.0000000001
 40
0.4761887673640197
 40
0.4761887673640197
 40
0.4761887673845556
 40
0.4761887673845556
 40
0.5064617295876979
 40
0.5064617295876979
 40
0.5367346917908403
 40
0.5367346917908403
 40
0.597280616197125
 40
0.597280616197125
 40
0.6606001134825953
 40
0.6606001134825953
 40
0.7239196107680657
 40
0.7239196107680657
 40
0.7239196107692009
 40
0.7239196107692009
 10
451.5390522239804
 20
1310.18234754278
 30
0.0
 10
451.4381423499015
 20
1310.18234754278
 30
0.0
 10
451.3378977411604
 20
1310.192538103253
 30
0.0
 10
451.1438073901754
 20
1310.231626198321
 30
0.0
 10
451.0499354176187
 20
1310.260540393776
 30
0.0
 10
450.7833878437737
 20
1310.37116774451
 30
0.0
 10
450.6253577575511
 20
1310.47807427619
 30
0.0
 10
450.366475809986
 20
1310.726195656733
 30
0.0
 10
450.2477673818392
 20
1310.888932889205
 30
0.0
 10
450.0838378651052
 20
1311.260998238331
 30
0.0
 10
450.0390522241127
 20
1311.470778735349
 30
0.0
 10
450.0390522241127
 20
1311.677355487002
 30
0.0
  0
LINE
  5
30E
330
77
100
AcDbEntity
  8
Visible Tangent Edges(ISO)
100
AcDbLine
 10
453.5390522241172
 20
1310.02055626018
 30
0.0
 11
453.5390522241172
 21
1310.023174242096
 31
0.0
  0
LINE
  5
30F
330
77
100
AcDbEntity
  8
Visible Tangent Edges(ISO)
100
AcDbLine
 10
459.0803024801179
 20
1310.02055626018
 30
0.0
 11
453.5390522241172
 21
1310.02055626018
 31
0.0
  0
LINE
  5
310
330
77
100
AcDbEntity
  8
Visible Edges(ISO)
100
AcDbLine
 10
456.3890522241172
 20
1310.023174242096
 30
0.0
 11
459.081101415174
 21
1310.023174242096
 31
0.0
  0
SPLINE
  5
311
330
77
100
AcDbEntity
  8
Visible Edges(ISO)
100
AcDbSpline
210
0.0
220
0.0
230
1.0
 70
     8
 71
     3
 72
     8
 73
     4
 74
     0
 42
0.0000000001
 43
0.0000000001
 40
-0.2492913523435765
 40
-0.2492913523435765
 40
-0.2492913523435765
 40
-0.2492913523435765
 40
-0.2401390175547829
 40
-0.2401390175547829
 40
-0.2401390175547829
 40
-0.2401390175547829
 10
459.039052224117
 20
1310.182347544034
 30
0.0
 10
459.0694184683068
 20
1310.182347543996
 30
0.0
 10
459.0997819425568
 20
1310.182344647035
 30
0.0
 10
459.1301274252368
 20
1310.182338854853
 30
0.0
  0
LINE
  5
312
330
77
100
AcDbEntity
  8
Visible Tangent Edges(ISO)
100
AcDbLine
 10
459.0390522238733
 20
1315.811846400901
 30
0.0
 11
459.0390522241171
 21
1311.69018092669
 31
0.0
  0
ELLIPSE
  5
313
330
77
100
AcDbEntity
  8
Visible Tangent Edges(ISO)
100
AcDbEllipse
 10
459.0390522241171
 20
1311.669237071364
 30
0.0
 11
4.00000000000021
 21
0.0000000000000377
 31
0.0
210
0.0
220
0.0
230
1.0
 40
0.0052359638314212
 41
1.420107421692602
 42
1.570796326794896
  0
ELLIPSE
  5
314
330
77
100
AcDbEntity
  8
Visible Tangent Edges(ISO)
100
AcDbEllipse
 10
459.0390522236297
 20
1315.790902545331
 30
0.0
 11
-3.999999999999988
 21
-0.0000000000000398
 31
0.0
210
0.0
220
0.0
230
1.0
 40
0.0052359638314212
 41
4.056945685570116
 42
4.712388978925301
  0
SPLINE
  5
315
330
77
100
AcDbEntity
  8
Visible Tangent Edges(ISO)
100
AcDbSpline
210
0.0
220
0.0
230
1.0
 70
     8
 71
     3
 72
     8
 73
     4
 74
     0
 42
0.0000000001
 43
0.0000000001
 40
0.614884399649821
 40
0.614884399649821
 40
0.614884399649821
 40
0.614884399649821
 40
1.0
 40
1.0
 40
1.0
 40
1.0
 10
463.9175773279478
 20
1319.701979082136
 30
0.0
 10
463.6638831115962
 20
1320.312991728689
 30
0.0
 10
463.3560973296255
 20
1321.049691739041
 30
0.0
 10
463.041670122117
 20
1321.798208594825
 30
0.0
  0
SPLINE
  5
316
330
77
100
AcDbEntity
  8
Visible Tangent Edges(ISO)
100
AcDbSpline
210
0.0
220
0.0
230
1.0
 70
     8
 71
     3
 72
     8
 73
     4
 74
     0
 42
0.0000000001
 43
0.0000000001
 40
0.0
 40
0.0
 40
0.0
 40
0.0
 40
0.0000138061180915
 40
0.0000138061180915
 40
0.0000138061180915
 40
0.0000138061180915
 10
463.041670122117
 20
1321.798208594825
 30
0.0
 10
463.039887823117
 20
1321.802451487105
 30
0.0
 10
463.039052224117
 20
1321.807162177712
 30
0.0
 10
463.039052224117
 20
1321.811764154629
 30
0.0
  0
ELLIPSE
  5
317
330
77
100
AcDbEntity
  8
Visible Tangent Edges(ISO)
100
AcDbEllipse
 10
465.5390522243045
 20
1315.811846400207
 30
0.0
 11
-6.500000000000001
 21
0.0000000000369062
 31
0.0
210
0.0
220
0.0
230
1.0
 40
0.9999862922474241
 41
5.107180100075717
 42
6.283185307078544
  0
LINE
  5
318
330
77
100
AcDbEntity
  8
Visible Tangent Edges(ISO)
100
AcDbLine
 10
466.0435648176393
 20
1322.315965656302
 30
0.0
 11
465.5172358853769
 21
1322.311396566105
 31
0.0
  0
ELLIPSE
  5
319
330
77
100
AcDbEntity
  8
Visible Tangent Edges(ISO)
100
AcDbEllipse
 10
465.4823297436455
 20
1322.290453508258
 30
0.0
 11
0.0347229100567114
 21
-3.999849287099879
 31
0.0
210
0.0
220
0.0
230
1.0
 40
0.0087717737118994
 41
1.428632113834934
 42
1.575956164203311
  0
ELLIPSE
  5
31A
330
77
100
AcDbEntity
  8
Visible Tangent Edges(ISO)
100
AcDbEllipse
 10
465.5739547327561
 20
1315.811272634693
 30
0.0
 11
-3.344385253445189
 21
5.574140324142916
 31
0.0
210
0.0
220
0.0
230
1.0
 40
0.9999482158281502
 41
5.751481816790009
 42
6.14292028008522
  0
LINE
  5
31B
330
77
100
AcDbEntity
  8
Visible Tangent Edges(ISO)
100
AcDbLine
 10
465.5172358853768
 20
1328.068368703869
 30
0.0
 11
472.8700903035661
 21
1328.003866216966
 31
0.0
  0
ELLIPSE
  5
31C
330
77
100
AcDbEntity
  8
Visible Edges(ISO)
100
AcDbEllipse
 10
465.4823297436759
 20
1328.047425644959
 30
0.0
 11
0.0350884167771555
 21
3.999846097618615
 31
0.0
210
0.0
220
0.0
230
1.0
 40
0.00868039354275
 41
0.0
 42
0.0052359856534174
  0
ELLIPSE
  5
31D
330
77
100
AcDbEntity
  8
Visible Tangent Edges(ISO)
100
AcDbEllipse
 10
465.482329743638
 20
1328.047425645163
 30
0.0
 11
0.0350884168137281
 21
3.99984609741493
 31
0.0
210
0.0
220
0.0
230
0.9999999999999998
 40
0.0086803935427306
 41
4.717700633584266
 42
6.28318433716343
  0
ELLIPSE
  5
31E
330
77
100
AcDbEntity
  8
Visible Edges(ISO)
100
AcDbEllipse
 10
465.5390429550155
 20
1334.548278261922
 30
0.0
 11
0.5624007636975651
 21
-2.437142900331484
 31
0.0
210
0.0
220
0.0
230
1.0
 40
0.9997289803466383
 41
5.65875870823244
 42
6.047612594430797
  0
SPLINE
  5
31F
330
77
100
AcDbEntity
  8
Visible Tangent Edges(ISO)
100
AcDbSpline
210
0.0
220
0.0
230
1.0
 70
     8
 71
     3
 72
    10
 73
     6
 74
     0
 42
0.0000000001
 43
0.0000000001
 40
0.0030679364392639
 40
0.0030679364392639
 40
0.0030679364392639
 40
0.0030679364392639
 40
0.5
 40
0.5
 40
1.0
 40
1.0
 40
1.0
 40
1.0
 10
464.5708536478029
 20
1332.242375351716
 30
0.0
 10
464.5726771497575
 20
1332.241347358189
 30
0.0
 10
464.4091787513769
 20
1331.84685581803
 30
0.0
 10
463.8469241491169
 20
1330.500892371344
 30
0.0
 10
463.4498946074844
 20
1329.553553705641
 30
0.0
 10
463.0416701549694
 20
1328.581782996576
 30
0.0
  0
ELLIPSE
  5
320
330
77
100
AcDbEntity
  8
Visible Tangent Edges(ISO)
100
AcDbEllipse
 10
465.5739556043077
 20
1334.568491655508
 30
0.0
 11
3.34438577202448
 21
-5.574144923820284
 31
0.0
210
0.0
220
0.0
230
1.0
 40
0.9999482158468273
 41
5.342592167955213
 42
5.734030374386959
  0
ELLIPSE
  5
321
330
77
100
AcDbEntity
  8
Visible Tangent Edges(ISO)
100
AcDbEllipse
 10
451.5390522241171
 20
1311.682326980942
 30
0.0
 11
-1.500000000000002
 21
-0.0000000000000164
 31
0.0
210
0.0
220
0.0
230
1.0
 40
0.9999862922474241
 41
0.0
 42
1.570796326794885
  0
LINE
  5
322
330
77
100
AcDbEntity
  8
Visible Tangent Edges(ISO)
100
AcDbLine
 10
459.0390522241171
 20
1310.182347542571
 30
0.0
 11
459.0390522241171
 21
1311.69018092669
 31
0.0
  0
LINE
  5
323
330
77
100
AcDbEntity
  8
Visible Tangent Edges(ISO)
100
AcDbLine
 10
451.5390522241171
 20
1310.182347542571
 30
0.0
 11
451.5390522241171
 21
1311.690180926689
 31
0.0
  0
LINE
  5
324
330
77
100
AcDbEntity
  8
Visible Edges(ISO)
100
AcDbLine
 10
453.367479349117
 20
1310.182347542571
 30
0.0
 11
459.0390522241171
 21
1310.182347542571
 31
0.0
  0
LINE
  5
325
330
77
100
AcDbEntity
  8
Visible Tangent Edges(ISO)
100
AcDbLine
 10
459.0390522241171
 20
1311.69018092669
 30
0.0
 11
451.539052224117
 21
1311.69018092669
 31
0.0
  0
ELLIPSE
  5
326
330
77
100
AcDbEntity
  8
Visible Tangent Edges(ISO)
100
AcDbEllipse
 10
451.5390522241171
 20
1311.682326980942
 30
0.0
 11
-1.5
 21
-0.0000000000000142
 31
0.0
210
0.0
220
0.0
230
1.0
 40
0.0052359638314212
 41
4.712388980384689
 42
6.283185306962977
  0
ELLIPSE
  5
327
330
77
100
AcDbEntity
  8
Visible Tangent Edges(ISO)
100
AcDbEllipse
 10
451.5390522241168
 20
1338.681956871623
 30
0.0
 11
-1.500000000000004
 21
-0.0000000000000141
 31
0.0
210
0.0
220
0.0
230
1.0
 40
0.0052359638314212
 41
4.712388980384689
 42
6.283185307178958
  0
LINE
  5
328
330
77
100
AcDbEntity
  8
Visible Tangent Edges(ISO)
100
AcDbLine
 10
451.539052224117
 20
1311.69018092669
 30
0.0
 11
451.5390522241168
 21
1338.68981081737
 31
0.0
  0
LINE
  5
329
330
77
100
AcDbEntity
  8
Visible Tangent Edges(ISO)
100
AcDbLine
 10
451.5390522241168
 20
1340.181956871683
 30
0.0
 11
451.5390522241168
 21
1338.68981081737
 31
0.0
  0
LINE
  5
32A
330
77
100
AcDbEntity
  8
Visible Tangent Edges(ISO)
100
AcDbLine
 10
459.0390522240231
 20
1334.568145342934
 30
0.0
 11
459.0390522241168
 21
1338.68981081737
 31
0.0
  0
LINE
  5
32B
330
77
100
AcDbEntity
  8
Visible Tangent Edges(ISO)
100
AcDbLine
 10
459.0390522241168
 20
1338.68981081737
 30
0.0
 11
451.5390522241168
 21
1338.68981081737
 31
0.0
  0
LINE
  5
32C
330
77
100
AcDbEntity
  8
Visible Tangent Edges(ISO)
100
AcDbLine
 10
463.0390522242106
 20
1321.81176415416
 30
0.0
 11
463.0390522240231
 21
1328.568227589449
 31
0.0
  0
ELLIPSE
  5
32D
330
77
100
AcDbEntity
  8
Visible Tangent Edges(ISO)
100
AcDbEllipse
 10
465.5390522239294
 20
1334.568145342952
 30
0.0
 11
-6.500000000000009
 21
-0.0000000000110922
 31
0.0
210
0.0
220
0.0
230
1.0
 40
0.9999862922474241
 41
0.0
 42
1.17600520710784
  0
SPLINE
  5
32E
330
77
100
AcDbEntity
  8
Visible Tangent Edges(ISO)
100
AcDbSpline
210
0.0
220
0.0
230
1.0
 70
     8
 71
     3
 72
     8
 73
     4
 74
     0
 42
0.0000000001
 43
0.0000000001
 40
0.0
 40
0.0
 40
0.0
 40
0.0
 40
0.0000138061180903
 40
0.0000138061180903
 40
0.0000138061180903
 40
0.0000138061180903
 10
463.0416701221169
 20
1328.581782909992
 30
0.0
 10
463.039887823117
 20
1328.577540180593
 30
0.0
 10
463.0390522241169
 20
1328.572829566347
 30
0.0
 10
463.0390522241169
 20
1328.56822758943
 30
0.0
  0
LINE
  5
32F
330
77
100
AcDbEntity
  8
Visible Edges(ISO)
100
AcDbLine
 10
463.0390522241168
 20
1334.547201487589
 30
0.0
 11
463.0390522241168
 21
1338.668866962044
 31
0.0
  0
ELLIPSE
  5
330
330
77
100
AcDbEntity
  8
Visible Tangent Edges(ISO)
100
AcDbEllipse
 10
459.0390522246043
 20
1334.547201488077
 30
0.0
 11
4.000000000000001
 21
0.0000000000000377
 31
0.0
210
0.0
220
0.0
230
1.0
 40
0.0052359638314212
 41
0.0
 42
1.570796326831578
  0
LINE
  5
331
330
77
100
AcDbEntity
  8
Visible Tangent Edges(ISO)
100
AcDbLine
 10
459.0390522241168
 20
1340.181956871623
 30
0.0
 11
459.0390522241168
 21
1338.68981081737
 31
0.0
  0
ELLIPSE
  5
332
330
77
100
AcDbEntity
  8
Visible Tangent Edges(ISO)
100
AcDbEllipse
 10
459.0390522241168
 20
1338.668866962044
 30
0.0
 11
4.000000000000001
 21
0.0000000000000377
 31
0.0
210
0.0
220
0.0
230
1.0
 40
0.0052359638314212
 41
0.0
 42
1.570796326686272
  0
LINE
  5
333
330
77
100
AcDbEntity
  8
Visible Edges(ISO)
100
AcDbLine
 10
482.1817151727178
 20
1331.901085168438
 30
0.0
 11
465.5174181604544
 21
1332.047271742879
 31
0.0
  0
LINE
  5
334
330
77
100
AcDbEntity
  8
Visible Edges(ISO)
100
AcDbLine
 10
459.0802962062293
 20
1310.020535698529
 30
0.0
 11
453.5348634620129
 21
1310.020535698529
 31
0.0
  0
ARC
  5
335
330
77
100
AcDbEntity
  8
Visible Edges(ISO)
100
AcDbCircle
 10
451.5390522243201
 20
1338.681956871592
 30
0.0
 40
1.500000000064763
100
AcDbArc
 50
90.00000000776903
 51
180.0
  0
SPLINE
  5
336
330
77
100
AcDbEntity
  8
Visible Edges(ISO)
100
AcDbSpline
210
0.0
220
0.0
230
1.0
 70
     8
 71
     3
 72
    16
 73
    12
 74
     0
 42
0.0000000001
 43
0.0000000001
 40
4.712388976997202
 40
4.712388976997202
 40
4.712388976997202
 40
4.712388976997202
 40
4.947014097872377
 40
4.947014097872377
 40
5.181639218747552
 40
5.181639218747552
 40
5.416264339622727
 40
5.416264339622727
 40
5.650889460497902
 40
5.650889460497902
 40
5.885514581373077
 40
5.885514581373077
 40
5.885514581373077
 40
5.885514581373077
 10
463.0390522266068
 20
1334.54720148763
 30
0.0
 10
463.0390522259446
 20
1334.351691811481
 30
0.0
 10
463.0620928799741
 20
1334.156191971211
 30
0.0
 10
463.1529979990572
 20
1333.775884585977
 30
0.0
 10
463.220857901263
 20
1333.591096179347
 30
0.0
 10
463.3976885746787
 20
1333.242338356451
 30
0.0
 10
463.5066504632266
 20
1333.078386504463
 30
0.0
 10
463.7597195912676
 20
1332.780288644756
 30
0.0
 10
463.9038141043607
 20
1332.646157666545
 30
0.0
 10
464.2192566077774
 20
1332.415055994804
 30
0.0
 10
464.3905887160653
 20
1332.318096966875
 30
0.0
 10
464.5708544564926
 20
1332.242377331266
 30
0.0
  0
LINE
  5
337
330
77
100
AcDbEntity
  8
Visible Edges(ISO)
100
AcDbLine
 10
459.0390522241168
 20
1340.181956871645
 30
0.0
 11
451.5390522241168
 21
1340.181956871645
 31
0.0
  0
SPLINE
  5
338
330
77
100
AcDbEntity
  8
Visible Edges(ISO)
100
AcDbSpline
210
0.0
220
0.0
230
1.0
 70
     8
 71
     3
 72
    36
 73
    32
 74
     0
 42
0.0000000001
 43
0.0000000001
 40
0.0
 40
0.0
 40
0.0
 40
0.0
 40
0.0815828644074384
 40
0.0815828644074384
 40
0.1617172004813709
 40
0.1617172004813709
 40
0.2421160479449191
 40
0.2421160479449191
 40
0.3233455125328749
 40
0.3233455125328749
 40
0.3673462696484775
 40
0.3673462696484775
 40
0.3797324697973297
 40
0.3797324697973297
 40
0.3855982756231718
 40
0.3855982756231718
 40
0.3928357581588174
 40
0.3928357581588174
 40
0.4019480331537189
 40
0.4019480331537189
 40
0.4188280748431651
 40
0.4188280748431651
 40
0.4520218472440273
 40
0.4520218472440273
 40
0.4982240428804978
 40
0.4982240428804978
 40
0.5459928514289634
 40
0.5459928514289634
 40
0.5937919141630555
 40
0.5937919141630555
 40
0.6056104603673075
 40
0.6056104603673075
 40
0.6056104603673075
 40
0.6056104603673075
 10
459.0390522241168
 20
1340.181956868925
 30
0.0
 10
459.3109951054749
 20
1340.181956869552
 30
0.0
 10
459.5864350451551
 20
1340.181719170641
 30
0.0
 10
460.0971676749123
 20
1340.180812951716
 30
0.0
 10
460.3394161826248
 20
1340.180141267995
 30
0.0
 10
460.7671783312564
 20
1340.178447478837
 30
0.0
 10
460.9576979820809
 20
1340.177404694782
 30
0.0
 10
461.2662880712499
 20
1340.175052322293
 30
0.0
 10
461.3857136459373
 20
1340.173762086202
 30
0.0
 10
461.5161691771601
 20
1340.17137153247
 30
0.0
 10
461.5454974300696
 20
1340.171046065477
 30
0.0
 10
461.6130724644073
 20
1340.167737624206
 30
0.0
 10
461.6314241121275
 20
1340.16676925727
 30
0.0
 10
461.6707248183033
 20
1340.163509050816
 30
0.0
 10
461.6853859275284
 20
1340.16214058938
 30
0.0
 10
461.7210457733014
 20
1340.15819194184
 30
0.0
 10
461.7429269431927
 20
1340.155365443578
 30
0.0
 10
461.7933933739879
 20
1340.147615984381
 30
0.0
 10
461.822608031919
 20
1340.142299172098
 30
0.0
 10
461.9057120747869
 20
1340.12454172476
 30
0.0
 10
461.9600353537552
 20
1340.109786122537
 30
0.0
 10
462.117781279583
 20
1340.057188589165
 30
0.0
 10
462.2194946021858
 20
1340.010285705882
 30
0.0
 10
462.445944054687
 20
1339.873584012575
 30
0.0
 10
462.5667766054727
 20
1339.772304155476
 30
0.0
 10
462.7729584192999
 20
1339.53654364526
 30
0.0
 10
462.8595109258955
 20
1339.398089970883
 30
0.0
 10
462.9832048037654
 20
1339.104543873113
 30
0.0
 10
463.0218542075366
 20
1338.945787204101
 30
0.0
 10
463.0374979576585
 20
1338.747686223382
 30
0.0
 10
463.0390521936862
 20
1338.708262044646
 30
0.0
 10
463.0390522312406
 20
1338.668868390411
 30
0.0
  0
DIMENSION
  5
339
330
77
100
AcDbEntity
  8
Dimensions(ISO)
  6
Continuous
 62
     7
370
    25
100
AcDbDimension
  2
*D5
 10
351.3967483632264
 20
1003.367040953147
 30
0.0
 11
351.3967483632262
 21
1168.149040749691
 31
0.0
 70
   160
  1
<>
 71
     4
 42
329.5639995930869
  3
KS-Marketing
100
AcDbAlignedDimension
 13
490.2998436983112
 23
1332.931040546234
 33
0.0
 14
490.2998436983165
 24
1003.367040953147
 34
0.0
 50
270.0
100
AcDbRotatedDimension
1001
ACAD
1000
DSTYLE
1002
{
1070
   172
1070
     0
1070
   289
1070
     1
1070
   271
1070
     0
1070
   272
1070
     4
1070
    48
1040
0.0
1070
    47
1040
0.0
1002
}
  0
DIMENSION
  5
41C
330
77
100
AcDbEntity
  8
Dimensions(ISO)
  6
Continuous
 62
     7
370
    25
100
AcDbDimension
  2
*D6
 10
833.5128536093044
 20
880.3665254206615
 30
0.0
 11
645.5890522241207
 21
880.3665254206615
 31
0.0
 70
   160
  1
<>
 71
     4
 42
375.8476027703673
  3
KS-Marketing
100
AcDbAlignedDimension
 13
457.665250838937
 23
1035.680246369664
 33
0.0
 14
833.5128536093044
 24
1035.68024636967
 34
0.0
100
AcDbRotatedDimension
1001
ACAD
1000
DSTYLE
1002
{
1070
   172
1070
     0
1070
   289
1070
     1
1070
   271
1070
     0
1070
   272
1070
     4
1070
    48
1040
0.0
1070
    47
1040
0.0
1002
}
  0
ENDSEC
  0
SECTION
  2
OBJECTS
  0
DICTIONARY
  5
C
330
0
100
AcDbDictionary
281
     1
  3
ACAD_COLOR
350
6E
  3
ACAD_GROUP
350
D
  3
ACAD_LAYOUT
350
6D
  3
ACAD_MATERIAL
350
10
  3
ACAD_MLEADERSTYLE
350
71
  3
ACAD_MLINESTYLE
350
6A
  3
ACAD_PLOTSETTINGS
350
6C
  3
ACAD_PLOTSTYLENAME
350
E
  3
ACAD_SCALELIST
350
3D
  3
ACAD_TABLESTYLE
350
6F
  3
ACAD_VISUALSTYLE
350
29
  3
ACDB_RECOMPOSE_DATA
350
537
  3
AcDbVariableDictionary
350
4FE
  3
DWGPROPS
350
538
  0
DICTIONARY
  5
56A
330
10C
100
AcDbDictionary
280
     1
281
     1
  3
ACAD_MTEXT_RT
360
56B
  0
DICTIONARY
  5
50D
330
10F
100
AcDbDictionary
280
     1
281
     1
  3
ACAD_MLATT
360
50F
  3
ACAD_XREC_ROUNDTRIP
360
50E
  0
DICTIONARY
  5
510
330
114
100
AcDbDictionary
280
     1
281
     1
  3
ACAD_MLATT
360
512
  3
ACAD_XREC_ROUNDTRIP
360
511
  0
DICTIONARY
  5
513
330
116
100
AcDbDictionary
280
     1
281
     1
  3
ACAD_MLATT
360
515
  3
ACAD_XREC_ROUNDTRIP
360
514
  0
DICTIONARY
  5
516
330
117
100
AcDbDictionary
280
     1
281
     1
  3
ACAD_MLATT
360
518
  3
ACAD_XREC_ROUNDTRIP
360
517
  0
DICTIONARY
  5
519
330
118
100
AcDbDictionary
280
     1
281
     1
  3
ACAD_MLATT
360
51B
  3
ACAD_XREC_ROUNDTRIP
360
51A
  0
DICTIONARY
  5
51C
330
119
100
AcDbDictionary
280
     1
281
     1
  3
ACAD_MLATT
360
51E
  3
ACAD_XREC_ROUNDTRIP
360
51D
  0
DICTIONARY
  5
51F
330
11A
100
AcDbDictionary
280
     1
281
     1
  3
ACAD_MLATT
360
521
  3
ACAD_XREC_ROUNDTRIP
360
520
  0
DICTIONARY
  5
522
330
11D
100
AcDbDictionary
280
     1
281
     1
  3
ACAD_MLATT
360
524
  3
ACAD_XREC_ROUNDTRIP
360
523
  0
DICTIONARY
  5
525
330
11E
100
AcDbDictionary
280
     1
281
     1
  3
ACAD_MLATT
360
527
  3
ACAD_XREC_ROUNDTRIP
360
526
  0
DICTIONARY
  5
528
330
11F
100
AcDbDictionary
280
     1
281
     1
  3
ACAD_MLATT
360
52A
  3
ACAD_XREC_ROUNDTRIP
360
529
  0
DICTIONARY
  5
52B
330
120
100
AcDbDictionary
280
     1
281
     1
  3
ACAD_MLATT
360
52D
  3
ACAD_XREC_ROUNDTRIP
360
52C
  0
DICTIONARY
  5
52E
330
121
100
AcDbDictionary
280
     1
281
     1
  3
ACAD_MLATT
360
530
  3
ACAD_XREC_ROUNDTRIP
360
52F
  0
DICTIONARY
  5
531
330
122
100
AcDbDictionary
280
     1
281
     1
  3
ACAD_MLATT
360
533
  3
ACAD_XREC_ROUNDTRIP
360
532
  0
DICTIONARY
  5
534
330
123
100
AcDbDictionary
280
     1
281
     1
  3
ACAD_MLATT
360
536
  3
ACAD_XREC_ROUNDTRIP
360
535
  0
DICTIONARY
  5
6E
102
{ACAD_REACTORS
330
C
102
}
330
C
100
AcDbDictionary
281
     1
  0
DICTIONARY
  5
D
102
{ACAD_REACTORS
330
C
102
}
330
C
100
AcDbDictionary
281
     1
  0
DICTIONARY
  5
6D
102
{ACAD_REACTORS
330
C
102
}
330
C
100
AcDbDictionary
281
     1
  3
Layout1
350
76
  3
Layout2
350
7E
  3
Model
350
7A
  0
DICTIONARY
  5
10
102
{ACAD_REACTORS
330
C
102
}
330
C
100
AcDbDictionary
281
     1
  3
ByBlock
350
19
  3
ByLayer
350
11
  3
Global
350
21
  0
DICTIONARY
  5
71
102
{ACAD_REACTORS
330
C
102
}
330
C
100
AcDbDictionary
281
     1
  3
Standard
350
72
  0
DICTIONARY
  5
6A
102
{ACAD_REACTORS
330
C
102
}
330
C
100
AcDbDictionary
281
     1
  3
Standard
350
6B
  0
DICTIONARY
  5
6C
102
{ACAD_REACTORS
330
C
102
}
330
C
100
AcDbDictionary
281
     1
  0
ACDBDICTIONARYWDFLT
  5
E
102
{ACAD_REACTORS
330
C
102
}
330
C
100
AcDbDictionary
281
     1
  3
Normal
350
F
100
AcDbDictionaryWithDefault
340
F
  0
DICTIONARY
  5
3D
102
{ACAD_REACTORS
330
C
102
}
330
C
100
AcDbDictionary
281
     1
  3
A0
350
3E
  3
A1
350
3F
  3
A2
350
40
  3
A3
350
41
  3
A4
350
42
  3
A5
350
43
  3
A6
350
44
  3
A7
350
45
  3
A8
350
46
  3
A9
350
47
  3
B0
350
48
  3
B1
350
49
  3
B2
350
4A
  3
B3
350
4B
  3
B4
350
4C
  3
B5
350
4D
  3
B6
350
4E
  3
B7
350
4F
  3
B8
350
50
  3
B9
350
51
  3
C0
350
52
  3
C1
350
53
  3
C2
350
54
  3
C3
350
55
  3
C4
350
56
  3
C5
350
57
  3
C6
350
58
  3
C7
350
59
  3
C8
350
5A
  3
C9
350
5B
  3
D0
350
5C
  3
D1
350
5D
  3
D2
350
5E
  0
DICTIONARY
  5
6F
102
{ACAD_REACTORS
330
C
102
}
330
C
100
AcDbDictionary
281
     1
  3
Standard
350
70
  0
DICTIONARY
  5
29
102
{ACAD_REACTORS
330
C
102
}
330
C
100
AcDbDictionary
281
     1
  3
2dWireframe
350
2F
  3
3D Hidden
350
31
  3
3dWireframe
350
30
  3
Basic
350
2E
  3
Brighten
350
35
  3
ColorChange
350
39
  3
Conceptual
350
32
  3
Dim
350
34
  3
EdgeColorOff
350
3C
  3
Facepattern
350
38
  3
Flat
350
2A
  3
FlatWithEdges
350
2B
  3
Gouraud
350
2C
  3
GouraudWithEdges
350
2D
  3
JitterOff
350
3A
  3
Linepattern
350
37
  3
OverhangOff
350
3B
  3
Realistic
350
33
  3
Thicken
350
36
  0
XRECORD
  5
537
102
{ACAD_REACTORS
330
C
102
}
330
C
100
AcDbXrecord
280
     1
 90
        1
330
70
330
10F
330
114
330
116
330
117
330
118
330
119
330
11A
330
11D
330
11E
330
11F
330
120
330
121
330
122
330
123
  0
DICTIONARY
  5
4FE
102
{ACAD_REACTORS
330
C
102
}
330
C
100
AcDbDictionary
281
     1
  3
CANNOSCALE
350
502
  3
CMLEADERSTYLE
350
500
  3
CTABLESTYLE
350
4FF
  3
DIMASSOC
350
509
  3
HIDETEXT
350
508
  3
INDEXCTL
350
507
  3
LAYEREVAL
350
504
  3
LAYERNOTIFY
350
505
  3
LIGHTINGUNITS
350
503
  3
MSLTSCALE
350
501
  3
SORTENTS
350
506
  3
XCLIPFRAME
350
50A
  0
XRECORD
  5
538
102
{ACAD_REACTORS
330
C
102
}
330
C
100
AcDbXrecord
280
     1
  1
DWGPROPS COOKIE
  2

  3

  4

  6

  7

  8

  9

300
Manager=
301
Company=
302
Category=
303
Part Number=0056-195611
304
Description=Sorter300-45EU
305
Project=
306
Designer=
307
Engineer=
308
Authority=
309
Cost Center=
 40
0.0000139236111111
 41
2455734.410586632
 42
2455734.410586632
  1

 90
       34
300
Vendor=
300
User Status=
300
Design Status=WorkInProgress
300
Checked by=
300
Engr Approved by=
300
Mfg Approved by=
300
Departement=Entwicklung
300
Collection=Sorter 300 EU
300
Document_Number=0056-195611
300
Unit=mm
300
Scale=NTS
300
Tolerance=ISO 2768 m
300
Drawn_By=DK020
300
Drawn_Date=06/21/2011
300
Modified_By=
300
Modified_Date=01/21/2010
300
Revision_Index_1=
300
Revision_By_1=
300
Revision_Memo_1=
300
Revision_Titel_1=
300
Title=Sorter300-45EU
300
Auxiliary_Remark1=installing document
300
Checked_By=
300
CAXDisplayName=0056-195611 - Sorter300-45EU - 
  0
XRECORD
  5
56B
102
{ACAD_REACTORS
330
56A
102
}
330
56A
100
AcDbXrecord
280
     1
 40
600101.0
  1
\fArial|b0|i0;\H1.4986;Franke Küchentechnik AG\PCH-4663 Aarburg\PPhone:  +41 62 787 31 31\PInternet :  www.franke.com
  0
XRECORD
  5
50F
102
{ACAD_REACTORS
330
50D
102
}
330
50D
100
AcDbXrecord
280
     1
 70
     4
 70
     0
 70
     0
 40
1.0
  2
Title
  1
Embedded Object
 10
179.445841330296
 20
113.0983016652057
 30
0.0
 40
5.0
 41
87.6101657158361
 46
0.0
 71
     4
 72
     5
  1
Sorter300-45EU
  7
Text Style20
 73
     1
 44
1.0
  0
XRECORD
  5
50E
102
{ACAD_REACTORS
330
50D
102
}
330
50D
100
AcDbXrecord
280
     1
102
ACAD_MATT_HEIGHT
140
5.0
  0
XRECORD
  5
512
102
{ACAD_REACTORS
330
510
102
}
330
510
100
AcDbXrecord
280
     1
 70
     4
 70
     0
 70
     0
 40
1.0
  2
Auxiliary_Remark1
  1
Embedded Object
 10
179.445841330296
 20
105.8483016652057
 30
0.0
 40
3.499999940395355
 41
87.20572704106814
 46
0.0
 71
     4
 72
     5
  1
installing document
  7
Text Style9
 73
     1
 44
1.0
  0
XRECORD
  5
511
102
{ACAD_REACTORS
330
510
102
}
330
510
100
AcDbXrecord
280
     1
102
ACAD_MATT_HEIGHT
140
3.499999940395355
  0
XRECORD
  5
515
102
{ACAD_REACTORS
330
513
102
}
330
513
100
AcDbXrecord
280
     1
 70
     4
 70
     0
 70
     0
 40
1.0
  2
Revision_Index_1
  1
Embedded Object
 10
150.195841330296
 20
116.2233016652057
 30
0.0
 40
2.000000029802322
 41
25.49028614085662
 46
0.0
 71
     5
 72
     5
  1

  7
Text Style40
 73
     1
 44
1.0
  0
XRECORD
  5
514
102
{ACAD_REACTORS
330
513
102
}
330
513
100
AcDbXrecord
280
     1
102
ACAD_MATT_HEIGHT
140
2.000000029802322
  0
XRECORD
  5
518
102
{ACAD_REACTORS
330
516
102
}
330
516
100
AcDbXrecord
280
     1
 70
     4
 70
     0
 70
     0
 40
1.0
  2
Document_Number
  1
Embedded Object
 10
110.045841330296
 20
116.2233016652057
 30
0.0
 40
2.000000029802322
 41
37.86321438900613
 46
0.0
 71
     4
 72
     5
  1
0056-195611
  7
Text Style40
 73
     1
 44
1.0
  0
XRECORD
  5
517
102
{ACAD_REACTORS
330
516
102
}
330
516
100
AcDbXrecord
280
     1
102
ACAD_MATT_HEIGHT
140
2.000000029802322
  0
XRECORD
  5
51B
102
{ACAD_REACTORS
330
519
102
}
330
519
100
AcDbXrecord
280
     1
 70
     4
 70
     0
 70
     0
 40
1.0
  2
Drawn_Date
  1
Embedded Object
 10
110.045841330296
 20
111.9733016652057
 30
0.0
 40
2.000000029802322
 41
21.50025379545035
 46
0.0
 71
     4
 72
     5
  1
21.06.2011
  7
Text Style40
 73
     1
 44
1.0
  0
XRECORD
  5
51A
102
{ACAD_REACTORS
330
519
102
}
330
519
100
AcDbXrecord
280
     1
102
ACAD_MATT_HEIGHT
140
2.000000029802322
  0
XRECORD
  5
51E
102
{ACAD_REACTORS
330
51C
102
}
330
51C
100
AcDbXrecord
280
     1
 70
     4
 70
     0
 70
     0
 40
1.0
  2
Sheet_number
  1
Embedded Object
 10
276.695841330296
 20
108.3483016652058
 30
0.0
 40
5.0
 41
52.1807039614524
 46
0.0
 71
     5
 72
     5
  1
\W0.9000;3 
  7
Text__5.0mm
 73
     1
 44
1.0
  0
XRECORD
  5
51D
102
{ACAD_REACTORS
330
51C
102
}
330
51C
100
AcDbXrecord
280
     1
102
ACAD_MATT_HEIGHT
140
5.0
  0
XRECORD
  5
521
102
{ACAD_REACTORS
330
51F
102
}
330
51F
100
AcDbXrecord
280
     1
 70
     4
 70
     0
 70
     0
 40
1.0
  2
Number_of_sheets
  1
Embedded Object
 10
284.1958413302961
 20
108.3483016652058
 30
0.0
 40
5.0
 41
57.07706724479784
 46
0.0
 71
     5
 72
     5
  1
\W0.9000;5 
  7
Text__5.0mm
 73
     1
 44
1.0
  0
XRECORD
  5
520
102
{ACAD_REACTORS
330
51F
102
}
330
51F
100
AcDbXrecord
280
     1
102
ACAD_MATT_HEIGHT
140
5.0
  0
XRECORD
  5
524
102
{ACAD_REACTORS
330
522
102
}
330
522
100
AcDbXrecord
280
     1
 70
     2
 70
     0
 70
     0
 40
1.0
  2
Title
  1
Embedded Object
 10
920.0
 20
207.4999999999994
 30
0.0
 40
50.0
 41
876.101657158361
 46
0.0
 71
     4
 72
     5
  1
Sorter300-45EU
  7
Text Style20
 73
     1
 44
1.0
  0
XRECORD
  5
523
102
{ACAD_REACTORS
330
522
102
}
330
522
100
AcDbXrecord
280
     1
102
ACAD_MATT_HEIGHT
140
50.0
  0
XRECORD
  5
527
102
{ACAD_REACTORS
330
525
102
}
330
525
100
AcDbXrecord
280
     1
 70
     2
 70
     0
 70
     0
 40
1.0
  2
Auxiliary_Remark1
  1
Embedded Object
 10
920.0
 20
134.9999999999994
 30
0.0
 40
34.99999940395355
 41
872.0572704106814
 46
0.0
 71
     4
 72
     5
  1
installing document
  7
Text Style9
 73
     1
 44
1.0
  0
XRECORD
  5
526
102
{ACAD_REACTORS
330
525
102
}
330
525
100
AcDbXrecord
280
     1
102
ACAD_MATT_HEIGHT
140
34.99999940395355
  0
XRECORD
  5
52A
102
{ACAD_REACTORS
330
528
102
}
330
528
100
AcDbXrecord
280
     1
 70
     2
 70
     0
 70
     0
 40
1.0
  2
Revision_Index_1
  1
Embedded Object
 10
627.5
 20
238.7499999999989
 30
0.0
 40
20.00000029802322
 41
254.9028614085662
 46
0.0
 71
     5
 72
     5
  1

  7
Text Style40
 73
     1
 44
1.0
  0
XRECORD
  5
529
102
{ACAD_REACTORS
330
528
102
}
330
528
100
AcDbXrecord
280
     1
102
ACAD_MATT_HEIGHT
140
20.00000029802322
  0
XRECORD
  5
52D
102
{ACAD_REACTORS
330
52B
102
}
330
52B
100
AcDbXrecord
280
     1
 70
     2
 70
     0
 70
     0
 40
1.0
  2
Document_Number
  1
Embedded Object
 10
226.0000000000002
 20
238.7499999999989
 30
0.0
 40
20.00000029802322
 41
378.6321438900614
 46
0.0
 71
     4
 72
     5
  1
0056-195611
  7
Text Style40
 73
     1
 44
1.0
  0
XRECORD
  5
52C
102
{ACAD_REACTORS
330
52B
102
}
330
52B
100
AcDbXrecord
280
     1
102
ACAD_MATT_HEIGHT
140
20.00000029802322
  0
XRECORD
  5
530
102
{ACAD_REACTORS
330
52E
102
}
330
52E
100
AcDbXrecord
280
     1
 70
     2
 70
     0
 70
     0
 40
1.0
  2
Drawn_Date
  1
Embedded Object
 10
226.0000000000002
 20
196.249999999999
 30
0.0
 40
20.00000029802322
 41
215.0025379545035
 46
0.0
 71
     4
 72
     5
  1
21.06.2011
  7
Text Style40
 73
     1
 44
1.0
  0
XRECORD
  5
52F
102
{ACAD_REACTORS
330
52E
102
}
330
52E
100
AcDbXrecord
280
     1
102
ACAD_MATT_HEIGHT
140
20.00000029802322
  0
XRECORD
  5
533
102
{ACAD_REACTORS
330
531
102
}
330
531
100
AcDbXrecord
280
     1
 70
     2
 70
     0
 70
     0
 40
1.0
  2
Sheet_number
  1
Embedded Object
 10
1892.5
 20
159.9999999999998
 30
0.0
 40
50.0
 41
521.807039614524
 46
0.0
 71
     5
 72
     5
  1
\W0.9000;3 
  7
Text__5.0mm
 73
     1
 44
1.0
  0
XRECORD
  5
532
102
{ACAD_REACTORS
330
531
102
}
330
531
100
AcDbXrecord
280
     1
102
ACAD_MATT_HEIGHT
140
50.0
  0
XRECORD
  5
536
102
{ACAD_REACTORS
330
534
102
}
330
534
100
AcDbXrecord
280
     1
 70
     2
 70
     0
 70
     0
 40
1.0
  2
Number_of_sheets
  1
Embedded Object
 10
1967.5
 20
159.9999999999998
 30
0.0
 40
50.0
 41
570.7706724479784
 46
0.0
 71
     5
 72
     5
  1
\W0.9000;5 
  7
Text__5.0mm
 73
     1
 44
1.0
  0
XRECORD
  5
535
102
{ACAD_REACTORS
330
534
102
}
330
534
100
AcDbXrecord
280
     1
102
ACAD_MATT_HEIGHT
140
50.0
  0
LAYOUT
  5
76
102
{ACAD_XDICTIONARY
360
564
102
}
102
{ACAD_REACTORS
330
6D
102
}
330
6D
100
AcDbPlotSettings
  1

  2

  4

  6

 40
0.0
 41
0.0
 42
0.0
 43
0.0
 44
0.0
 45
0.0
 46
0.0
 47
0.0
 48
0.0
 49
0.0
140
0.0
141
0.0
142
1.0
143
1.0
 70
   688
 72
     0
 73
     0
 74
     5
  7

 75
    16
147
1.0
148
0.0
149
0.0
100
AcDbLayout
  1
Layout1
 70
     1
 71
     1
 10
0.0
 20
0.0
 11
12.0
 21
9.0
 12
0.0
 22
0.0
 32
0.0
 14
0.0
 24
0.0
 34
0.0
 15
0.0
 25
0.0
 35
0.0
146
0.0
 13
0.0
 23
0.0
 33
0.0
 16
1.0
 26
0.0
 36
0.0
 17
0.0
 27
1.0
 37
0.0
 76
     0
330
73
  0
LAYOUT
  5
7E
102
{ACAD_XDICTIONARY
360
568
102
}
102
{ACAD_REACTORS
330
6D
102
}
330
6D
100
AcDbPlotSettings
  1

  2

  4

  6

 40
0.0
 41
0.0
 42
0.0
 43
0.0
 44
0.0
 45
0.0
 46
0.0
 47
0.0
 48
0.0
 49
0.0
140
0.0
141
0.0
142
1.0
143
1.0
 70
   688
 72
     0
 73
     0
 74
     5
  7

 75
    16
147
1.0
148
0.0
149
0.0
100
AcDbLayout
  1
Layout2
 70
     1
 71
     2
 10
0.0
 20
0.0
 11
12.0
 21
9.0
 12
0.0
 22
0.0
 32
0.0
 14
0.0
 24
0.0
 34
0.0
 15
0.0
 25
0.0
 35
0.0
146
0.0
 13
0.0
 23
0.0
 33
0.0
 16
1.0
 26
0.0
 36
0.0
 17
0.0
 27
1.0
 37
0.0
 76
     0
330
7B
  0
LAYOUT
  5
7A
102
{ACAD_XDICTIONARY
360
566
102
}
102
{ACAD_REACTORS
330
6D
102
}
330
6D
100
AcDbPlotSettings
  1

  2

  4

  6

 40
0.0
 41
0.0
 42
0.0
 43
0.0
 44
0.0
 45
0.0
 46
0.0
 47
0.0
 48
0.0
 49
0.0
140
0.0
141
0.0
142
1.0
143
1.0
 70
  1712
 72
     0
 73
     0
 74
     0
  7

 75
     0
147
1.0
148
0.0
149
0.0
100
AcDbLayout
  1
Model
 70
     1
 71
     0
 10
0.0
 20
0.0
 11
12.0
 21
9.0
 12
0.0
 22
0.0
 32
0.0
 14
0.0
 24
0.0
 34
0.0
 15
0.0
 25
0.0
 35
0.0
146
0.0
 13
0.0
 23
0.0
 33
0.0
 16
1.0
 26
0.0
 36
0.0
 17
0.0
 27
1.0
 37
0.0
 76
     0
330
77
  0
MATERIAL
  5
19
102
{ACAD_XDICTIONARY
360
1A
102
}
102
{ACAD_REACTORS
330
10
102
}
330
10
100
AcDbMaterial
  1
ByBlock
 72
     0
 43
0.0208333333333333
 43
0.0
 43
0.0
 43
0.0
 43
0.0
 43
0.0208333333333333
 43
0.0
 43
0.0
 43
0.0
 43
0.0
 43
1.0
 43
0.0
 43
0.0
 43
0.0
 43
0.0
 43
1.0
 77
     0
 47
0.0208333333333333
 47
0.0
 47
0.0
 47
0.0
 47
0.0
 47
0.0208333333333333
 47
0.0
 47
0.0
 47
0.0
 47
0.0
 47
1.0
 47
0.0
 47
0.0
 47
0.0
 47
0.0
 47
1.0
171
     0
 49
0.0208333333333333
 49
0.0
 49
0.0
 49
0.0
 49
0.0
 49
0.0208333333333333
 49
0.0
 49
0.0
 49
0.0
 49
0.0
 49
1.0
 49
0.0
 49
0.0
 49
0.0
 49
0.0
 49
1.0
175
     0
142
0.0208333333333333
142
0.0
142
0.0
142
0.0
142
0.0
142
0.0208333333333333
142
0.0
142
0.0
142
0.0
142
0.0
142
1.0
142
0.0
142
0.0
142
0.0
142
0.0
142
1.0
179
     0
144
0.0208333333333333
144
0.0
144
0.0
144
0.0
144
0.0
144
0.0208333333333333
144
0.0
144
0.0
144
0.0
144
0.0
144
1.0
144
0.0
144
0.0
144
0.0
144
0.0
144
1.0
147
0.0208333333333333
147
0.0
147
0.0
147
0.0
147
0.0
147
0.0208333333333333
147
0.0
147
0.0
147
0.0
147
0.0
147
1.0
147
0.0
147
0.0
147
0.0
147
0.0
147
1.0
  0
MATERIAL
  5
11
102
{ACAD_XDICTIONARY
360
12
102
}
102
{ACAD_REACTORS
330
10
102
}
330
10
100
AcDbMaterial
  1
ByLayer
 72
     0
 43
0.0208333333333333
 43
0.0
 43
0.0
 43
0.0
 43
0.0
 43
0.0208333333333333
 43
0.0
 43
0.0
 43
0.0
 43
0.0
 43
1.0
 43
0.0
 43
0.0
 43
0.0
 43
0.0
 43
1.0
 77
     0
 47
0.0208333333333333
 47
0.0
 47
0.0
 47
0.0
 47
0.0
 47
0.0208333333333333
 47
0.0
 47
0.0
 47
0.0
 47
0.0
 47
1.0
 47
0.0
 47
0.0
 47
0.0
 47
0.0
 47
1.0
171
     0
 49
0.0208333333333333
 49
0.0
 49
0.0
 49
0.0
 49
0.0
 49
0.0208333333333333
 49
0.0
 49
0.0
 49
0.0
 49
0.0
 49
1.0
 49
0.0
 49
0.0
 49
0.0
 49
0.0
 49
1.0
175
     0
142
0.0208333333333333
142
0.0
142
0.0
142
0.0
142
0.0
142
0.0208333333333333
142
0.0
142
0.0
142
0.0
142
0.0
142
1.0
142
0.0
142
0.0
142
0.0
142
0.0
142
1.0
179
     0
144
0.0208333333333333
144
0.0
144
0.0
144
0.0
144
0.0
144
0.0208333333333333
144
0.0
144
0.0
144
0.0
144
0.0
144
1.0
144
0.0
144
0.0
144
0.0
144
0.0
144
1.0
147
0.0208333333333333
147
0.0
147
0.0
147
0.0
147
0.0
147
0.0208333333333333
147
0.0
147
0.0
147
0.0
147
0.0
147
1.0
147
0.0
147
0.0
147
0.0
147
0.0
147
1.0
  0
MATERIAL
  5
21
102
{ACAD_XDICTIONARY
360
22
102
}
102
{ACAD_REACTORS
330
10
102
}
330
10
100
AcDbMaterial
  1
Global
 72
     0
 43
0.0208333333333333
 43
0.0
 43
0.0
 43
0.0
 43
0.0
 43
0.0208333333333333
 43
0.0
 43
0.0
 43
0.0
 43
0.0
 43
1.0
 43
0.0
 43
0.0
 43
0.0
 43
0.0
 43
1.0
 77
     0
 47
0.0208333333333333
 47
0.0
 47
0.0
 47
0.0
 47
0.0
 47
0.0208333333333333
 47
0.0
 47
0.0
 47
0.0
 47
0.0
 47
1.0
 47
0.0
 47
0.0
 47
0.0
 47
0.0
 47
1.0
171
     0
 49
0.0208333333333333
 49
0.0
 49
0.0
 49
0.0
 49
0.0
 49
0.0208333333333333
 49
0.0
 49
0.0
 49
0.0
 49
0.0
 49
1.0
 49
0.0
 49
0.0
 49
0.0
 49
0.0
 49
1.0
175
     0
142
0.0208333333333333
142
0.0
142
0.0
142
0.0
142
0.0
142
0.0208333333333333
142
0.0
142
0.0
142
0.0
142
0.0
142
1.0
142
0.0
142
0.0
142
0.0
142
0.0
142
1.0
179
     0
144
0.0208333333333333
144
0.0
144
0.0
144
0.0
144
0.0
144
0.0208333333333333
144
0.0
144
0.0
144
0.0
144
0.0
144
1.0
144
0.0
144
0.0
144
0.0
144
0.0
144
1.0
147
0.0208333333333333
147
0.0
147
0.0
147
0.0
147
0.0
147
0.0208333333333333
147
0.0
147
0.0
147
0.0
147
0.0
147
1.0
147
0.0
147
0.0
147
0.0
147
0.0
147
1.0
  0
MLEADERSTYLE
  5
72
102
{ACAD_REACTORS
330
71
102
}
330
71
100
AcDbMLeaderStyle
170
     2
171
     1
172
     0
 90
        2
 40
0.0
 41
0.0
173
     1
 91
-1056964608
340
66
 92
       -2
290
     1
 42
0.09
291
     1
 43
0.36
  3
Standard
 44
0.18
300

342
60
174
     1
178
     6
175
     1
176
     0
 93
-1056964608
 45
0.18
292
     0
297
     0
 46
0.18
 94
-1056964608
 47
1.0
 49
1.0
140
1.0
293
     1
141
0.0
294
     1
177
     0
142
1.0
295
     0
296
     0
143
0.125
1001
ACAD_MLEADERVER
1070
     2
  0
MLINESTYLE
  5
6B
102
{ACAD_REACTORS
330
6A
102
}
330
6A
100
AcDbMlineStyle
  2
STANDARD
 70
     0
  3

 62
   256
 51
90.0
 52
90.0
 71
     2
 49
0.5
 62
   256
  6
BYLAYER
 49
-0.5
 62
   256
  6
BYLAYER
  0
ACDBPLACEHOLDER
  5
F
102
{ACAD_REACTORS
330
E
102
}
330
E
  0
SCALE
  5
3E
102
{ACAD_REACTORS
330
3D
102
}
330
3D
100
AcDbScale
 70
     0
300
1:1
140
1.0
141
1.0
290
     1
  0
SCALE
  5
3F
102
{ACAD_REACTORS
330
3D
102
}
330
3D
100
AcDbScale
 70
     0
300
1:2
140
1.0
141
2.0
290
     0
  0
SCALE
  5
40
102
{ACAD_REACTORS
330
3D
102
}
330
3D
100
AcDbScale
 70
     0
300
1:4
140
1.0
141
4.0
290
     0
  0
SCALE
  5
41
102
{ACAD_REACTORS
330
3D
102
}
330
3D
100
AcDbScale
 70
     0
300
1:5
140
1.0
141
5.0
290
     0
  0
SCALE
  5
42
102
{ACAD_REACTORS
330
3D
102
}
330
3D
100
AcDbScale
 70
     0
300
1:8
140
1.0
141
8.0
290
     0
  0
SCALE
  5
43
102
{ACAD_REACTORS
330
3D
102
}
330
3D
100
AcDbScale
 70
     0
300
1:10
140
1.0
141
10.0
290
     0
  0
SCALE
  5
44
102
{ACAD_REACTORS
330
3D
102
}
330
3D
100
AcDbScale
 70
     0
300
1:16
140
1.0
141
16.0
290
     0
  0
SCALE
  5
45
102
{ACAD_REACTORS
330
3D
102
}
330
3D
100
AcDbScale
 70
     0
300
1:20
140
1.0
141
20.0
290
     0
  0
SCALE
  5
46
102
{ACAD_REACTORS
330
3D
102
}
330
3D
100
AcDbScale
 70
     0
300
1:30
140
1.0
141
30.0
290
     0
  0
SCALE
  5
47
102
{ACAD_REACTORS
330
3D
102
}
330
3D
100
AcDbScale
 70
     0
300
1:40
140
1.0
141
40.0
290
     0
  0
SCALE
  5
48
102
{ACAD_REACTORS
330
3D
102
}
330
3D
100
AcDbScale
 70
     0
300
1:50
140
1.0
141
50.0
290
     0
  0
SCALE
  5
49
102
{ACAD_REACTORS
330
3D
102
}
330
3D
100
AcDbScale
 70
     0
300
1:100
140
1.0
141
100.0
290
     0
  0
SCALE
  5
4A
102
{ACAD_REACTORS
330
3D
102
}
330
3D
100
AcDbScale
 70
     0
300
2:1
140
2.0
141
1.0
290
     0
  0
SCALE
  5
4B
102
{ACAD_REACTORS
330
3D
102
}
330
3D
100
AcDbScale
 70
     0
300
4:1
140
4.0
141
1.0
290
     0
  0
SCALE
  5
4C
102
{ACAD_REACTORS
330
3D
102
}
330
3D
100
AcDbScale
 70
     0
300
8:1
140
8.0
141
1.0
290
     0
  0
SCALE
  5
4D
102
{ACAD_REACTORS
330
3D
102
}
330
3D
100
AcDbScale
 70
     0
300
10:1
140
10.0
141
1.0
290
     0
  0
SCALE
  5
4E
102
{ACAD_REACTORS
330
3D
102
}
330
3D
100
AcDbScale
 70
     0
300
100:1
140
100.0
141
1.0
290
     0
  0
SCALE
  5
4F
102
{ACAD_REACTORS
330
3D
102
}
330
3D
100
AcDbScale
 70
     0
300
1/128" = 1'-0"
140
0.0078125
141
12.0
290
     0
  0
SCALE
  5
50
102
{ACAD_REACTORS
330
3D
102
}
330
3D
100
AcDbScale
 70
     0
300
1/64" = 1'-0"
140
0.015625
141
12.0
290
     0
  0
SCALE
  5
51
102
{ACAD_REACTORS
330
3D
102
}
330
3D
100
AcDbScale
 70
     0
300
1/32" = 1'-0"
140
0.03125
141
12.0
290
     0
  0
SCALE
  5
52
102
{ACAD_REACTORS
330
3D
102
}
330
3D
100
AcDbScale
 70
     0
300
1/16" = 1'-0"
140
0.0625
141
12.0
290
     0
  0
SCALE
  5
53
102
{ACAD_REACTORS
330
3D
102
}
330
3D
100
AcDbScale
 70
     0
300
3/32" = 1'-0"
140
0.09375
141
12.0
290
     0
  0
SCALE
  5
54
102
{ACAD_REACTORS
330
3D
102
}
330
3D
100
AcDbScale
 70
     0
300
1/8" = 1'-0"
140
0.125
141
12.0
290
     0
  0
SCALE
  5
55
102
{ACAD_REACTORS
330
3D
102
}
330
3D
100
AcDbScale
 70
     0
300
3/16" = 1'-0"
140
0.1875
141
12.0
290
     0
  0
SCALE
  5
56
102
{ACAD_REACTORS
330
3D
102
}
330
3D
100
AcDbScale
 70
     0
300
1/4" = 1'-0"
140
0.25
141
12.0
290
     0
  0
SCALE
  5
57
102
{ACAD_REACTORS
330
3D
102
}
330
3D
100
AcDbScale
 70
     0
300
3/8" = 1'-0"
140
0.375
141
12.0
290
     0
  0
SCALE
  5
58
102
{ACAD_REACTORS
330
3D
102
}
330
3D
100
AcDbScale
 70
     0
300
1/2" = 1'-0"
140
0.5
141
12.0
290
     0
  0
SCALE
  5
59
102
{ACAD_REACTORS
330
3D
102
}
330
3D
100
AcDbScale
 70
     0
300
3/4" = 1'-0"
140
0.75
141
12.0
290
     0
  0
SCALE
  5
5A
102
{ACAD_REACTORS
330
3D
102
}
330
3D
100
AcDbScale
 70
     0
300
1" = 1'-0"
140
1.0
141
12.0
290
     0
  0
SCALE
  5
5B
102
{ACAD_REACTORS
330
3D
102
}
330
3D
100
AcDbScale
 70
     0
300
1-1/2" = 1'-0"
140
1.5
141
12.0
290
     0
  0
SCALE
  5
5C
102
{ACAD_REACTORS
330
3D
102
}
330
3D
100
AcDbScale
 70
     0
300
3" = 1'-0"
140
3.0
141
12.0
290
     0
  0
SCALE
  5
5D
102
{ACAD_REACTORS
330
3D
102
}
330
3D
100
AcDbScale
 70
     0
300
6" = 1'-0"
140
6.0
141
12.0
290
     0
  0
SCALE
  5
5E
102
{ACAD_REACTORS
330
3D
102
}
330
3D
100
AcDbScale
 70
     0
300
1'-0" = 1'-0"
140
12.0
141
12.0
290
     0
  0
TABLESTYLE
  5
70
102
{ACAD_XDICTIONARY
360
50B
102
}
102
{ACAD_REACTORS
330
6F
102
}
330
6F
100
AcDbTableStyle
  3
Standard
 70
     0
 71
     0
 40
0.06
 41
0.06
280
     0
281
     0
  7
Standard
140
0.18
170
     2
 62
     0
 63
     7
283
     0
274
    -2
284
     1
 64
     0
275
    -2
285
     1
 65
     0
276
    -2
286
     1
 66
     0
277
    -2
287
     1
 67
     0
278
    -2
288
     1
 68
     0
279
    -2
289
     1
 69
     0
  7
Standard
140
0.25
170
     5
 62
     0
 63
     7
283
     0
274
    -2
284
     1
 64
     0
275
    -2
285
     1
 65
     0
276
    -2
286
     1
 66
     0
277
    -2
287
     1
 67
     0
278
    -2
288
     1
 68
     0
279
    -2
289
     1
 69
     0
  7
Standard
140
0.18
170
     5
 62
     0
 63
     7
283
     0
274
    -2
284
     1
 64
     0
275
    -2
285
     1
 65
     0
276
    -2
286
     1
 66
     0
277
    -2
287
     1
 67
     0
278
    -2
288
     1
 68
     0
279
    -2
289
     1
 69
     0
  0
VISUALSTYLE
  5
2F
102
{ACAD_XDICTIONARY
360
546
102
}
102
{ACAD_REACTORS
330
29
102
}
330
29
100
AcDbVisualStyle
  2
2dWireframe
 70
     4
 71
     0
 72
     2
 73
     0
 90
        0
 40
-0.6
 41
-30.0
 62
     5
 63
     7
 74
     1
 91
        4
 64
     7
 65
   257
 75
     1
175
     1
 42
1.0
 92
        0
 66
   257
 43
1.0
 76
     1
 77
     6
 78
     2
 67
     7
 79
     5
170
     0
171
     0
290
     0
174
     0
 93
        1
 44
0.0
173
     0
291
     0
 45
0.0
1001
ACAD
1000
AcDbSavedByObjectVersion
1070
     0
  0
VISUALSTYLE
  5
31
102
{ACAD_XDICTIONARY
360
54A
102
}
102
{ACAD_REACTORS
330
29
102
}
330
29
100
AcDbVisualStyle
  2
3D Hidden
 70
     6
 71
     1
 72
     2
 73
     2
 90
        0
 40
-0.6
 41
-30.0
 62
     5
 63
     7
 74
     2
 91
        2
 64
     7
 65
   257
 75
     2
175
     1
 42
179.0
 92
        0
 66
   257
 43
1.0
 76
     1
 77
     6
 78
     2
 67
     7
 79
     3
170
     0
171
     0
290
     0
174
     0
 93
        1
 44
0.0
173
     0
291
     0
 45
0.0
1001
ACAD
1000
AcDbSavedByObjectVersion
1070
     0
  0
VISUALSTYLE
  5
30
102
{ACAD_XDICTIONARY
360
548
102
}
102
{ACAD_REACTORS
330
29
102
}
330
29
100
AcDbVisualStyle
  2
3dWireframe
 70
     5
 71
     0
 72
     2
 73
     0
 90
        0
 40
-0.6
 41
-30.0
 62
     5
 63
     7
 74
     1
 91
        4
 64
     7
 65
   257
 75
     1
175
     1
 42
1.0
 92
        0
 66
   257
 43
1.0
 76
     1
 77
     6
 78
     2
 67
     7
 79
     5
170
     0
171
     0
290
     0
174
     0
 93
        1
 44
0.0
173
     0
291
     0
 45
0.0
1001
ACAD
1000
AcDbSavedByObjectVersion
1070
     0
  0
VISUALSTYLE
  5
2E
102
{ACAD_XDICTIONARY
360
544
102
}
102
{ACAD_REACTORS
330
29
102
}
330
29
100
AcDbVisualStyle
  2
Basic
 70
     7
 71
     1
 72
     0
 73
     1
 90
        0
 40
-0.6
 41
-30.0
 62
     5
 63
     7
 74
     0
 91
        4
 64
     7
 65
   257
 75
     1
175
     1
 42
1.0
 92
        8
 66
     7
 43
1.0
 76
     1
 77
     6
 78
     2
 67
     7
 79
     5
170
     0
171
     0
290
     0
174
     0
 93
        1
 44
0.0
173
     0
291
     1
 45
0.0
1001
ACAD
1000
AcDbSavedByObjectVersion
1070
     0
  0
VISUALSTYLE
  5
35
102
{ACAD_XDICTIONARY
360
552
102
}
102
{ACAD_REACTORS
330
29
102
}
330
29
100
AcDbVisualStyle
  2
Brighten
 70
    12
 71
     2
 72
     2
 73
     0
 90
        0
 40
-0.6
 41
-30.0
 62
     5
 63
     7
 74
     1
 91
        4
 64
     7
 65
   257
 75
     1
175
     1
 42
1.0
 92
        8
 66
     7
 43
1.0
 76
     1
 77
     6
 78
     2
 67
     7
 79
     5
170
     0
171
     0
290
     0
174
     0
 93
        1
 44
50.0
173
     0
291
     1
 45
0.0
1001
ACAD
1000
AcDbSavedByObjectVersion
1070
     0
  0
VISUALSTYLE
  5
39
102
{ACAD_XDICTIONARY
360
55A
102
}
102
{ACAD_REACTORS
330
29
102
}
330
29
100
AcDbVisualStyle
  2
ColorChange
 70
    16
 71
     2
 72
     2
 73
     3
 90
        0
 40
-0.6
 41
-30.0
 62
     5
 63
     8
 74
     1
 91
        4
 64
     7
 65
   257
 75
     1
175
     1
 42
1.0
 92
        8
 66
     8
 43
1.0
 76
     1
 77
     6
 78
     2
 67
     7
 79
     5
170
     0
171
     0
290
     0
174
     0
 93
        1
 44
0.0
173
     0
291
     1
 45
0.0
1001
ACAD
1000
AcDbSavedByObjectVersion
1070
     0
  0
VISUALSTYLE
  5
32
102
{ACAD_XDICTIONARY
360
54C
102
}
102
{ACAD_REACTORS
330
29
102
}
330
29
100
AcDbVisualStyle
  2
Conceptual
 70
     9
 71
     3
 72
     2
 73
     0
 90
        0
 40
-0.6
 41
-30.0
 62
     5
 63
     7
 74
     2
 91
        2
 64
     7
 65
   257
 75
     1
175
     1
 42
179.0
 92
        8
 66
     7
 43
1.0
 76
     1
 77
     6
 78
     2
 67
     7
 79
     3
170
     0
171
     0
290
     0
174
     0
 93
        1
 44
0.0
173
     0
291
     0
 45
0.0
1001
ACAD
1000
AcDbSavedByObjectVersion
1070
     0
  0
VISUALSTYLE
  5
34
102
{ACAD_XDICTIONARY
360
550
102
}
102
{ACAD_REACTORS
330
29
102
}
330
29
100
AcDbVisualStyle
  2
Dim
 70
    11
 71
     2
 72
     2
 73
     0
 90
        0
 40
-0.6
 41
-30.0
 62
     5
 63
     7
 74
     1
 91
        4
 64
     7
 65
   257
 75
     1
175
     1
 42
1.0
 92
        8
 66
     7
 43
1.0
 76
     1
 77
     6
 78
     2
 67
     7
 79
     5
170
     0
171
     0
290
     0
174
     0
 93
        1
 44
-50.0
173
     0
291
     1
 45
0.0
1001
ACAD
1000
AcDbSavedByObjectVersion
1070
     0
  0
VISUALSTYLE
  5
3C
102
{ACAD_XDICTIONARY
360
560
102
}
102
{ACAD_REACTORS
330
29
102
}
330
29
100
AcDbVisualStyle
  2
EdgeColorOff
 70
    22
 71
     2
 72
     2
 73
     0
 90
        0
 40
-0.6
 41
-30.0
 62
     5
 63
     7
 74
     1
 91
        4
 64
     7
 65
   257
 75
     1
175
     1
 42
1.0
 92
        8
 66
     7
 43
1.0
 76
     1
 77
     6
 78
     2
 67
     7
 79
     5
170
     0
171
     0
290
     0
174
     0
 93
        1
 44
0.0
173
     0
291
     1
 45
0.0
1001
ACAD
1000
AcDbSavedByObjectVersion
1070
     0
  0
VISUALSTYLE
  5
38
102
{ACAD_XDICTIONARY
360
558
102
}
102
{ACAD_REACTORS
330
29
102
}
330
29
100
AcDbVisualStyle
  2
Facepattern
 70
    15
 71
     2
 72
     2
 73
     0
 90
        0
 40
-0.6
 41
-30.0
 62
     5
 63
     7
 74
     1
 91
        4
 64
     7
 65
   257
 75
     1
175
     1
 42
1.0
 92
        8
 66
     7
 43
1.0
 76
     1
 77
     6
 78
     2
 67
     7
 79
     5
170
     0
171
     0
290
     0
174
     0
 93
        1
 44
0.0
173
     0
291
     1
 45
0.0
1001
ACAD
1000
AcDbSavedByObjectVersion
1070
     0
  0
VISUALSTYLE
  5
2A
102
{ACAD_XDICTIONARY
360
53C
102
}
102
{ACAD_REACTORS
330
29
102
}
330
29
100
AcDbVisualStyle
  2
Flat
 70
     0
 71
     2
 72
     1
 73
     1
 90
        2
 40
-0.6
 41
30.0
 62
     5
 63
     7
 74
     0
 91
        4
 64
     7
 65
   257
 75
     1
175
     1
 42
1.0
 92
        8
 66
     7
 43
1.0
 76
     1
 77
     6
 78
     2
 67
     7
 79
     5
170
     0
171
     0
290
     0
174
     0
 93
       13
 44
0.0
173
     0
291
     1
 45
0.0
1001
ACAD
1000
AcDbSavedByObjectVersion
1070
     0
  0
VISUALSTYLE
  5
2B
102
{ACAD_XDICTIONARY
360
53E
102
}
102
{ACAD_REACTORS
330
29
102
}
330
29
100
AcDbVisualStyle
  2
FlatWithEdges
 70
     1
 71
     2
 72
     1
 73
     1
 90
        2
 40
-0.6
 41
30.0
 62
     5
 63
     7
 74
     1
 91
        4
 64
     7
 65
   257
 75
     1
175
     1
 42
1.0
 92
        0
 66
   257
 43
1.0
 76
     1
 77
     6
 78
     2
 67
     7
 79
     5
170
     0
171
     0
290
     0
174
     0
 93
       13
 44
0.0
173
     0
291
     1
 45
0.0
1001
ACAD
1000
AcDbSavedByObjectVersion
1070
     0
  0
VISUALSTYLE
  5
2C
102
{ACAD_XDICTIONARY
360
540
102
}
102
{ACAD_REACTORS
330
29
102
}
330
29
100
AcDbVisualStyle
  2
Gouraud
 70
     2
 71
     2
 72
     2
 73
     1
 90
        2
 40
-0.6
 41
30.0
 62
     5
 63
     7
 74
     0
 91
        4
 64
     7
 65
   257
 75
     1
175
     1
 42
1.0
 92
        0
 66
     7
 43
1.0
 76
     1
 77
     6
 78
     2
 67
     7
 79
     5
170
     0
171
     0
290
     0
174
     0
 93
       13
 44
0.0
173
     0
291
     1
 45
0.0
1001
ACAD
1000
AcDbSavedByObjectVersion
1070
     0
  0
VISUALSTYLE
  5
2D
102
{ACAD_XDICTIONARY
360
542
102
}
102
{ACAD_REACTORS
330
29
102
}
330
29
100
AcDbVisualStyle
  2
GouraudWithEdges
 70
     3
 71
     2
 72
     2
 73
     1
 90
        2
 40
-0.6
 41
30.0
 62
     5
 63
     7
 74
     1
 91
        4
 64
     7
 65
   257
 75
     1
175
     1
 42
1.0
 92
        0
 66
   257
 43
1.0
 76
     1
 77
     6
 78
     2
 67
     7
 79
     5
170
     0
171
     0
290
     0
174
     0
 93
       13
 44
0.0
173
     0
291
     1
 45
0.0
1001
ACAD
1000
AcDbSavedByObjectVersion
1070
     0
  0
VISUALSTYLE
  5
3A
102
{ACAD_XDICTIONARY
360
55C
102
}
102
{ACAD_REACTORS
330
29
102
}
330
29
100
AcDbVisualStyle
  2
JitterOff
 70
    20
 71
     2
 72
     2
 73
     0
 90
        0
 40
-0.6
 41
-30.0
 62
     5
 63
     7
 74
     1
 91
        4
 64
     7
 65
   257
 75
     1
175
     1
 42
1.0
 92
       10
 66
     7
 43
1.0
 76
     1
 77
     6
 78
     2
 67
     7
 79
     5
170
     0
171
     0
290
     0
174
     0
 93
        1
 44
0.0
173
     0
291
     1
 45
0.0
1001
ACAD
1000
AcDbSavedByObjectVersion
1070
     0
  0
VISUALSTYLE
  5
37
102
{ACAD_XDICTIONARY
360
556
102
}
102
{ACAD_REACTORS
330
29
102
}
330
29
100
AcDbVisualStyle
  2
Linepattern
 70
    14
 71
     2
 72
     2
 73
     0
 90
        0
 40
-0.6
 41
-30.0
 62
     5
 63
     7
 74
     1
 91
        4
 64
     7
 65
   257
 75
     7
175
     7
 42
1.0
 92
        8
 66
     7
 43
1.0
 76
     1
 77
     6
 78
     2
 67
     7
 79
     5
170
     0
171
     0
290
     0
174
     0
 93
        1
 44
0.0
173
     0
291
     1
 45
0.0
1001
ACAD
1000
AcDbSavedByObjectVersion
1070
     0
  0
VISUALSTYLE
  5
3B
102
{ACAD_XDICTIONARY
360
55E
102
}
102
{ACAD_REACTORS
330
29
102
}
330
29
100
AcDbVisualStyle
  2
OverhangOff
 70
    21
 71
     2
 72
     2
 73
     0
 90
        0
 40
-0.6
 41
-30.0
 62
     5
 63
     7
 74
     1
 91
        4
 64
     7
 65
   257
 75
     1
175
     1
 42
1.0
 92
        9
 66
     7
 43
1.0
 76
     1
 77
     6
 78
     2
 67
     7
 79
     5
170
     0
171
     0
290
     0
174
     0
 93
        1
 44
0.0
173
     0
291
     1
 45
0.0
1001
ACAD
1000
AcDbSavedByObjectVersion
1070
     0
  0
VISUALSTYLE
  5
33
102
{ACAD_XDICTIONARY
360
54E
102
}
102
{ACAD_REACTORS
330
29
102
}
330
29
100
AcDbVisualStyle
  2
Realistic
 70
     8
 71
     2
 72
     2
 73
     0
 90
        0
 40
-0.6
 41
-30.0
 62
     5
 63
     7
 74
     1
 91
        0
 64
     7
 65
   257
 75
     1
175
     1
 42
1.0
 92
        8
 66
     8
 43
1.0
 76
     1
 77
     6
 78
     2
 67
     7
 79
     5
170
     0
171
     0
290
     0
174
     0
 93
       13
 44
0.0
173
     0
291
     0
 45
0.0
1001
ACAD
1000
AcDbSavedByObjectVersion
1070
     0
  0
VISUALSTYLE
  5
36
102
{ACAD_XDICTIONARY
360
554
102
}
102
{ACAD_REACTORS
330
29
102
}
330
29
100
AcDbVisualStyle
  2
Thicken
 70
    13
 71
     2
 72
     2
 73
     0
 90
        0
 40
-0.6
 41
-30.0
 62
     5
 63
     7
 74
     1
 91
        4
 64
     7
 65
   257
 75
     1
175
     1
 42
1.0
 92
       12
 66
     7
 43
1.0
 76
     1
 77
     6
 78
     2
 67
     7
 79
     5
170
     0
171
     0
290
     0
174
     0
 93
        1
 44
0.0
173
     0
291
     1
 45
0.0
1001
ACAD
1000
AcDbSavedByObjectVersion
1070
     0
  0
DICTIONARYVAR
  5
502
102
{ACAD_REACTORS
330
4FE
102
}
330
4FE
100
DictionaryVariables
280
     0
  1
1:1
  0
DICTIONARYVAR
  5
500
102
{ACAD_REACTORS
330
4FE
102
}
330
4FE
100
DictionaryVariables
280
     0
  1
STANDARD
  0
DICTIONARYVAR
  5
4FF
102
{ACAD_REACTORS
330
4FE
102
}
330
4FE
100
DictionaryVariables
280
     0
  1
STANDARD
  0
DICTIONARYVAR
  5
509
102
{ACAD_REACTORS
330
4FE
102
}
330
4FE
100
DictionaryVariables
280
     0
  1
1
  0
DICTIONARYVAR
  5
508
102
{ACAD_REACTORS
330
4FE
102
}
330
4FE
100
DictionaryVariables
280
     0
  1
1
  0
DICTIONARYVAR
  5
507
102
{ACAD_REACTORS
330
4FE
102
}
330
4FE
100
DictionaryVariables
280
     0
  1
0
  0
DICTIONARYVAR
  5
504
102
{ACAD_REACTORS
330
4FE
102
}
330
4FE
100
DictionaryVariables
280
     0
  1
0
  0
DICTIONARYVAR
  5
505
102
{ACAD_REACTORS
330
4FE
102
}
330
4FE
100
DictionaryVariables
280
     0
  1
0
  0
DICTIONARYVAR
  5
503
102
{ACAD_REACTORS
330
4FE
102
}
330
4FE
100
DictionaryVariables
280
     0
  1
2
  0
DICTIONARYVAR
  5
501
102
{ACAD_REACTORS
330
4FE
102
}
330
4FE
100
DictionaryVariables
280
     0
  1
1
  0
DICTIONARYVAR
  5
506
102
{ACAD_REACTORS
330
4FE
102
}
330
4FE
100
DictionaryVariables
280
     0
  1
127
  0
DICTIONARYVAR
  5
50A
102
{ACAD_REACTORS
330
4FE
102
}
330
4FE
100
DictionaryVariables
280
     0
  1
2
  0
DICTIONARY
  5
564
330
76
100
AcDbDictionary
280
     1
281
     1
  3
ACAD_XREC_ROUNDTRIP
360
565
  0
DICTIONARY
  5
568
330
7E
100
AcDbDictionary
280
     1
281
     1
  3
ACAD_XREC_ROUNDTRIP
360
569
  0
DICTIONARY
  5
566
330
7A
100
AcDbDictionary
280
     1
281
     1
  3
ACAD_XREC_ROUNDTRIP
360
567
  0
DICTIONARY
  5
1A
330
19
100
AcDbDictionary
280
     1
281
     1
  3
ACAD_XREC_ROUNDTRIP
360
53A
  3
BUMPTILE
360
1C
  3
DIFFUSETILE
360
1B
  3
OPACITYTILE
360
1F
  3
REFLECTIONTILE
360
1E
  3
REFRACTIONTILE
360
20
  3
SPECULARTILE
360
1D
  0
DICTIONARY
  5
12
330
11
100
AcDbDictionary
280
     1
281
     1
  3
ACAD_XREC_ROUNDTRIP
360
539
  3
BUMPTILE
360
14
  3
DIFFUSETILE
360
13
  3
OPACITYTILE
360
17
  3
REFLECTIONTILE
360
16
  3
REFRACTIONTILE
360
18
  3
SPECULARTILE
360
15
  0
DICTIONARY
  5
22
330
21
100
AcDbDictionary
280
     1
281
     1
  3
ACAD_XREC_ROUNDTRIP
360
53B
  3
BUMPTILE
360
24
  3
DIFFUSETILE
360
23
  3
OPACITYTILE
360
27
  3
REFLECTIONTILE
360
26
  3
REFRACTIONTILE
360
28
  3
SPECULARTILE
360
25
  0
DICTIONARY
  5
50B
330
70
100
AcDbDictionary
280
     1
281
     1
  3
ACAD_ROUNDTRIP_2008_TABLESTYLE_CELLSTYLEMAP
360
50C
  3
ACAD_XREC_ROUNDTRIP
360
562
  0
DICTIONARY
  5
546
330
2F
100
AcDbDictionary
280
     1
281
     1
  3
ACAD_XREC_ROUNDTRIP
360
547
  0
DICTIONARY
  5
54A
330
31
100
AcDbDictionary
280
     1
281
     1
  3
ACAD_XREC_ROUNDTRIP
360
54B
  0
DICTIONARY
  5
548
330
30
100
AcDbDictionary
280
     1
281
     1
  3
ACAD_XREC_ROUNDTRIP
360
549
  0
DICTIONARY
  5
544
330
2E
100
AcDbDictionary
280
     1
281
     1
  3
ACAD_XREC_ROUNDTRIP
360
545
  0
DICTIONARY
  5
552
330
35
100
AcDbDictionary
280
     1
281
     1
  3
ACAD_XREC_ROUNDTRIP
360
553
  0
DICTIONARY
  5
55A
330
39
100
AcDbDictionary
280
     1
281
     1
  3
ACAD_XREC_ROUNDTRIP
360
55B
  0
DICTIONARY
  5
54C
330
32
100
AcDbDictionary
280
     1
281
     1
  3
ACAD_XREC_ROUNDTRIP
360
54D
  0
DICTIONARY
  5
550
330
34
100
AcDbDictionary
280
     1
281
     1
  3
ACAD_XREC_ROUNDTRIP
360
551
  0
DICTIONARY
  5
560
330
3C
100
AcDbDictionary
280
     1
281
     1
  3
ACAD_XREC_ROUNDTRIP
360
561
  0
DICTIONARY
  5
558
330
38
100
AcDbDictionary
280
     1
281
     1
  3
ACAD_XREC_ROUNDTRIP
360
559
  0
DICTIONARY
  5
53C
330
2A
100
AcDbDictionary
280
     1
281
     1
  3
ACAD_XREC_ROUNDTRIP
360
53D
  0
DICTIONARY
  5
53E
330
2B
100
AcDbDictionary
280
     1
281
     1
  3
ACAD_XREC_ROUNDTRIP
360
53F
  0
DICTIONARY
  5
540
330
2C
100
AcDbDictionary
280
     1
281
     1
  3
ACAD_XREC_ROUNDTRIP
360
541
  0
DICTIONARY
  5
542
330
2D
100
AcDbDictionary
280
     1
281
     1
  3
ACAD_XREC_ROUNDTRIP
360
543
  0
DICTIONARY
  5
55C
330
3A
100
AcDbDictionary
280
     1
281
     1
  3
ACAD_XREC_ROUNDTRIP
360
55D
  0
DICTIONARY
  5
556
330
37
100
AcDbDictionary
280
     1
281
     1
  3
ACAD_XREC_ROUNDTRIP
360
557
  0
DICTIONARY
  5
55E
330
3B
100
AcDbDictionary
280
     1
281
     1
  3
ACAD_XREC_ROUNDTRIP
360
55F
  0
DICTIONARY
  5
54E
330
33
100
AcDbDictionary
280
     1
281
     1
  3
ACAD_XREC_ROUNDTRIP
360
54F
  0
DICTIONARY
  5
554
330
36
100
AcDbDictionary
280
     1
281
     1
  3
ACAD_XREC_ROUNDTRIP
360
555
  0
XRECORD
  5
565
102
{ACAD_REACTORS
330
564
102
}
330
564
100
AcDbXrecord
280
     1
102
SHADEPLOT
 70
     0
102
SHADEPLOTRESLEVEL
 70
     2
102
SHADEPLOTCUSTOMDPI
 70
   300
  0
XRECORD
  5
569
102
{ACAD_REACTORS
330
568
102
}
330
568
100
AcDbXrecord
280
     1
102
SHADEPLOT
 70
     0
102
SHADEPLOTRESLEVEL
 70
     2
102
SHADEPLOTCUSTOMDPI
 70
   300
  0
XRECORD
  5
567
102
{ACAD_REACTORS
330
566
102
}
330
566
100
AcDbXrecord
280
     1
102
SHADEPLOT
 70
     0
102
SHADEPLOTRESLEVEL
 70
     2
102
SHADEPLOTCUSTOMDPI
 70
   300
  0
XRECORD
  5
53A
102
{ACAD_REACTORS
330
1A
102
}
330
1A
100
AcDbXrecord
280
     1
102
MATERIAL
148
0.0
149
0.0
149
0.0
 93
        0
 94
      127
282
     0
 72
     0
 77
     0
171
     0
175
     0
179
     0
273
     0
  0
XRECORD
  5
1C
102
{ACAD_REACTORS
330
1A
102
}
330
1A
100
AcDbXrecord
280
     1
270
     1
271
     1
  0
XRECORD
  5
1B
102
{ACAD_REACTORS
330
1A
102
}
330
1A
100
AcDbXrecord
280
     1
270
     1
271
     1
  0
XRECORD
  5
1F
102
{ACAD_REACTORS
330
1A
102
}
330
1A
100
AcDbXrecord
280
     1
270
     1
271
     1
  0
XRECORD
  5
1E
102
{ACAD_REACTORS
330
1A
102
}
330
1A
100
AcDbXrecord
280
     1
270
     1
271
     1
  0
XRECORD
  5
20
102
{ACAD_REACTORS
330
1A
102
}
330
1A
100
AcDbXrecord
280
     1
270
     1
271
     1
  0
XRECORD
  5
1D
102
{ACAD_REACTORS
330
1A
102
}
330
1A
100
AcDbXrecord
280
     1
270
     1
271
     1
  0
XRECORD
  5
539
102
{ACAD_REACTORS
330
12
102
}
330
12
100
AcDbXrecord
280
     1
102
MATERIAL
148
0.0
149
0.0
149
0.0
 93
        0
 94
      127
282
     0
 72
     0
 77
     0
171
     0
175
     0
179
     0
273
     0
  0
XRECORD
  5
14
102
{ACAD_REACTORS
330
12
102
}
330
12
100
AcDbXrecord
280
     1
270
     1
271
     1
  0
XRECORD
  5
13
102
{ACAD_REACTORS
330
12
102
}
330
12
100
AcDbXrecord
280
     1
270
     1
271
     1
  0
XRECORD
  5
17
102
{ACAD_REACTORS
330
12
102
}
330
12
100
AcDbXrecord
280
     1
270
     1
271
     1
  0
XRECORD
  5
16
102
{ACAD_REACTORS
330
12
102
}
330
12
100
AcDbXrecord
280
     1
270
     1
271
     1
  0
XRECORD
  5
18
102
{ACAD_REACTORS
330
12
102
}
330
12
100
AcDbXrecord
280
     1
270
     1
271
     1
  0
XRECORD
  5
15
102
{ACAD_REACTORS
330
12
102
}
330
12
100
AcDbXrecord
280
     1
270
     1
271
     1
  0
XRECORD
  5
53B
102
{ACAD_REACTORS
330
22
102
}
330
22
100
AcDbXrecord
280
     1
102
MATERIAL
148
0.0
149
0.0
149
0.0
 93
        0
 94
      127
282
     0
 72
     0
 77
     0
171
     0
175
     0
179
     0
273
     0
  0
XRECORD
  5
24
102
{ACAD_REACTORS
330
22
102
}
330
22
100
AcDbXrecord
280
     1
270
     1
271
     1
  0
XRECORD
  5
23
102
{ACAD_REACTORS
330
22
102
}
330
22
100
AcDbXrecord
280
     1
270
     1
271
     1
  0
XRECORD
  5
27
102
{ACAD_REACTORS
330
22
102
}
330
22
100
AcDbXrecord
280
     1
270
     1
271
     1
  0
XRECORD
  5
26
102
{ACAD_REACTORS
330
22
102
}
330
22
100
AcDbXrecord
280
     1
270
     1
271
     1
  0
XRECORD
  5
28
102
{ACAD_REACTORS
330
22
102
}
330
22
100
AcDbXrecord
280
     1
270
     1
271
     1
  0
XRECORD
  5
25
102
{ACAD_REACTORS
330
22
102
}
330
22
100
AcDbXrecord
280
     1
270
     1
271
     1
  0
CELLSTYLEMAP
  5
50C
102
{ACAD_REACTORS
330
50B
102
}
330
50B
100
AcDbCellStyleMap
 90
        3
300
CELLSTYLE
  1
TABLEFORMAT_BEGIN
 90
        5
170
     1
 91
        0
 92
    32768
 62
   257
 93
        1
300
CONTENTFORMAT
  1
CONTENTFORMAT_BEGIN
 90
        0
 91
        0
 92
      512
 93
        0
300

 40
0.0
140
1.0
 94
        5
 62
     0
340
60
144
0.25
309
CONTENTFORMAT_END
171
     0
 94
        0
309
TABLEFORMAT_END
  1
CELLSTYLE_BEGIN
 90
        1
 91
        1
300
_TITLE
309
CELLSTYLE_END
300
CELLSTYLE
  1
TABLEFORMAT_BEGIN
 90
        5
170
     1
 91
        0
 92
        0
 62
   257
 93
        1
300
CONTENTFORMAT
  1
CONTENTFORMAT_BEGIN
 90
        0
 91
        0
 92
      512
 93
        0
300

 40
0.0
140
1.0
 94
        5
 62
     0
340
60
144
0.18
309
CONTENTFORMAT_END
171
     0
 94
        0
309
TABLEFORMAT_END
  1
CELLSTYLE_BEGIN
 90
        2
 91
        1
300
_HEADER
309
CELLSTYLE_END
300
CELLSTYLE
  1
TABLEFORMAT_BEGIN
 90
        5
170
     1
 91
        0
 92
        0
 62
   257
 93
        1
300
CONTENTFORMAT
  1
CONTENTFORMAT_BEGIN
 90
        0
 91
        0
 92
      512
 93
        0
300

 40
0.0
140
1.0
 94
        2
 62
     0
340
60
144
0.18
309
CONTENTFORMAT_END
171
     0
 94
        0
309
TABLEFORMAT_END
  1
CELLSTYLE_BEGIN
 90
        3
 91
        2
300
_DATA
309
CELLSTYLE_END
  0
XRECORD
  5
562
102
{ACAD_REACTORS
330
50B
102
}
330
50B
100
AcDbXrecord
280
     1
102
ACAD_ROUNDTRIP_PRE2007_TABLESTYLE
 90
      512
 91
        0
  1

 92
      512
 93
        0
  2

 94
      512
 95
        0
  3

  0
XRECORD
  5
547
102
{ACAD_REACTORS
330
546
102
}
330
546
100
AcDbXrecord
280
     1
102
RTVSPropertyOp0
 70
     1
102
RTVSPropertyOp1
 70
     1
102
RTVSPropertyOp2
 70
     1
102
RTVSPropertyOp3
 70
     1
102
RTVSPropertyOp4
 70
     1
102
RTVSPropertyOp5
 70
     1
102
RTVSPropertyOp6
 70
     1
102
RTVSPropertyOp7
 70
     1
102
RTVSPropertyOp8
 70
     1
102
RTVSPropertyOp9
 70
     1
102
RTVSPropertyOp10
 70
     1
102
RTVSPropertyOp11
 70
     1
102
RTVSPropertyOp12
 70
     1
102
RTVSPropertyOp13
 70
     1
102
RTVSPropertyOp14
 70
     1
102
RTVSPropertyOp15
 70
     1
102
RTVSPropertyOp16
 70
     1
102
RTVSPropertyOp17
 70
     1
102
RTVSPropertyOp18
 70
     1
102
RTVSPropertyOp19
 70
     1
102
RTVSPropertyOp20
 70
     1
102
RTVSPropertyOp21
 70
     1
102
RTVSPropertyOp22
 70
     1
102
RTVSPropertyOp23
 70
     1
102
RTVSPropertyOp24
 70
     1
102
RTVSPropertyOp25
 70
     1
102
RTVSPropertyOp26
 70
     1
102
RTVSPropertyOp27
 70
     1
  0
XRECORD
  5
54B
102
{ACAD_REACTORS
330
54A
102
}
330
54A
100
AcDbXrecord
280
     1
102
RTVSPropertyOp0
 70
     1
102
RTVSPropertyOp1
 70
     1
102
RTVSPropertyOp2
 70
     1
102
RTVSPropertyOp3
 70
     1
102
RTVSPropertyOp4
 70
     1
102
RTVSPropertyOp5
 70
     1
102
RTVSPropertyOp6
 70
     1
102
RTVSPropertyOp7
 70
     1
102
RTVSPropertyOp8
 70
     1
102
RTVSPropertyOp9
 70
     1
102
RTVSPropertyOp10
 70
     1
102
RTVSPropertyOp11
 70
     1
102
RTVSPropertyOp12
 70
     1
102
RTVSPropertyOp13
 70
     1
102
RTVSPropertyOp14
 70
     1
102
RTVSPropertyOp15
 70
     1
102
RTVSPropertyOp16
 70
     1
102
RTVSPropertyOp17
 70
     1
102
RTVSPropertyOp18
 70
     1
102
RTVSPropertyOp19
 70
     1
102
RTVSPropertyOp20
 70
     1
102
RTVSPropertyOp21
 70
     1
102
RTVSPropertyOp22
 70
     1
102
RTVSPropertyOp23
 70
     1
102
RTVSPropertyOp24
 70
     1
102
RTVSPropertyOp25
 70
     1
102
RTVSPropertyOp26
 70
     1
102
RTVSPropertyOp27
 70
     1
  0
XRECORD
  5
549
102
{ACAD_REACTORS
330
548
102
}
330
548
100
AcDbXrecord
280
     1
102
RTVSPropertyOp0
 70
     1
102
RTVSPropertyOp1
 70
     1
102
RTVSPropertyOp2
 70
     1
102
RTVSPropertyOp3
 70
     1
102
RTVSPropertyOp4
 70
     1
102
RTVSPropertyOp5
 70
     1
102
RTVSPropertyOp6
 70
     1
102
RTVSPropertyOp7
 70
     1
102
RTVSPropertyOp8
 70
     1
102
RTVSPropertyOp9
 70
     1
102
RTVSPropertyOp10
 70
     1
102
RTVSPropertyOp11
 70
     1
102
RTVSPropertyOp12
 70
     1
102
RTVSPropertyOp13
 70
     1
102
RTVSPropertyOp14
 70
     1
102
RTVSPropertyOp15
 70
     1
102
RTVSPropertyOp16
 70
     1
102
RTVSPropertyOp17
 70
     1
102
RTVSPropertyOp18
 70
     1
102
RTVSPropertyOp19
 70
     1
102
RTVSPropertyOp20
 70
     1
102
RTVSPropertyOp21
 70
     1
102
RTVSPropertyOp22
 70
     1
102
RTVSPropertyOp23
 70
     1
102
RTVSPropertyOp24
 70
     1
102
RTVSPropertyOp25
 70
     1
102
RTVSPropertyOp26
 70
     1
102
RTVSPropertyOp27
 70
     1
  0
XRECORD
  5
545
102
{ACAD_REACTORS
330
544
102
}
330
544
100
AcDbXrecord
280
     1
102
RTVSPropertyOp0
 70
     1
102
RTVSPropertyOp1
 70
     1
102
RTVSPropertyOp2
 70
     1
102
RTVSPropertyOp3
 70
     1
102
RTVSPropertyOp4
 70
     1
102
RTVSPropertyOp5
 70
     1
102
RTVSPropertyOp6
 70
     1
102
RTVSPropertyOp7
 70
     1
102
RTVSPropertyOp8
 70
     1
102
RTVSPropertyOp9
 70
     1
102
RTVSPropertyOp10
 70
     1
102
RTVSPropertyOp11
 70
     1
102
RTVSPropertyOp12
 70
     1
102
RTVSPropertyOp13
 70
     1
102
RTVSPropertyOp14
 70
     1
102
RTVSPropertyOp15
 70
     1
102
RTVSPropertyOp16
 70
     1
102
RTVSPropertyOp17
 70
     1
102
RTVSPropertyOp18
 70
     1
102
RTVSPropertyOp19
 70
     1
102
RTVSPropertyOp20
 70
     1
102
RTVSPropertyOp21
 70
     1
102
RTVSPropertyOp22
 70
     1
102
RTVSPropertyOp23
 70
     1
102
RTVSPropertyOp24
 70
     1
102
RTVSPropertyOp25
 70
     1
102
RTVSPropertyOp26
 70
     1
102
RTVSPropertyOp27
 70
     1
  0
XRECORD
  5
553
102
{ACAD_REACTORS
330
552
102
}
330
552
100
AcDbXrecord
280
     1
102
RTVSPropertyOp0
 70
     1
102
RTVSPropertyOp1
 70
     1
102
RTVSPropertyOp2
 70
     1
102
RTVSPropertyOp3
 70
     1
102
RTVSPropertyOp4
 70
     1
102
RTVSPropertyOp5
 70
     1
102
RTVSPropertyOp6
 70
     1
102
RTVSPropertyOp7
 70
     1
102
RTVSPropertyOp8
 70
     1
102
RTVSPropertyOp9
 70
     1
102
RTVSPropertyOp10
 70
     1
102
RTVSPropertyOp11
 70
     1
102
RTVSPropertyOp12
 70
     1
102
RTVSPropertyOp13
 70
     1
102
RTVSPropertyOp14
 70
     1
102
RTVSPropertyOp15
 70
     1
102
RTVSPropertyOp16
 70
     1
102
RTVSPropertyOp17
 70
     1
102
RTVSPropertyOp18
 70
     1
102
RTVSPropertyOp19
 70
     1
102
RTVSPropertyOp20
 70
     1
102
RTVSPropertyOp21
 70
     1
102
RTVSPropertyOp22
 70
     1
102
RTVSPropertyOp23
 70
     1
102
RTVSPropertyOp24
 70
     1
102
RTVSPropertyOp25
 70
     1
102
RTVSPropertyOp26
 70
     1
102
RTVSPropertyOp27
 70
     1
  0
XRECORD
  5
55B
102
{ACAD_REACTORS
330
55A
102
}
330
55A
100
AcDbXrecord
280
     1
102
RTVSPropertyOp0
 70
     1
102
RTVSPropertyOp1
 70
     1
102
RTVSPropertyOp2
 70
     1
102
RTVSPropertyOp3
 70
     1
102
RTVSPropertyOp4
 70
     1
102
RTVSPropertyOp5
 70
     1
102
RTVSPropertyOp6
 70
     1
102
RTVSPropertyOp7
 70
     1
102
RTVSPropertyOp8
 70
     1
102
RTVSPropertyOp9
 70
     1
102
RTVSPropertyOp10
 70
     1
102
RTVSPropertyOp11
 70
     1
102
RTVSPropertyOp12
 70
     1
102
RTVSPropertyOp13
 70
     1
102
RTVSPropertyOp14
 70
     1
102
RTVSPropertyOp15
 70
     1
102
RTVSPropertyOp16
 70
     1
102
RTVSPropertyOp17
 70
     1
102
RTVSPropertyOp18
 70
     1
102
RTVSPropertyOp19
 70
     1
102
RTVSPropertyOp20
 70
     1
102
RTVSPropertyOp21
 70
     1
102
RTVSPropertyOp22
 70
     1
102
RTVSPropertyOp23
 70
     1
102
RTVSPropertyOp24
 70
     1
102
RTVSPropertyOp25
 70
     1
102
RTVSPropertyOp26
 70
     1
102
RTVSPropertyOp27
 70
     1
  0
XRECORD
  5
54D
102
{ACAD_REACTORS
330
54C
102
}
330
54C
100
AcDbXrecord
280
     1
102
RTVSPropertyOp0
 70
     1
102
RTVSPropertyOp1
 70
     1
102
RTVSPropertyOp2
 70
     1
102
RTVSPropertyOp3
 70
     1
102
RTVSPropertyOp4
 70
     1
102
RTVSPropertyOp5
 70
     1
102
RTVSPropertyOp6
 70
     1
102
RTVSPropertyOp7
 70
     1
102
RTVSPropertyOp8
 70
     1
102
RTVSPropertyOp9
 70
     1
102
RTVSPropertyOp10
 70
     1
102
RTVSPropertyOp11
 70
     1
102
RTVSPropertyOp12
 70
     1
102
RTVSPropertyOp13
 70
     1
102
RTVSPropertyOp14
 70
     1
102
RTVSPropertyOp15
 70
     1
102
RTVSPropertyOp16
 70
     1
102
RTVSPropertyOp17
 70
     1
102
RTVSPropertyOp18
 70
     1
102
RTVSPropertyOp19
 70
     1
102
RTVSPropertyOp20
 70
     1
102
RTVSPropertyOp21
 70
     1
102
RTVSPropertyOp22
 70
     1
102
RTVSPropertyOp23
 70
     1
102
RTVSPropertyOp24
 70
     1
102
RTVSPropertyOp25
 70
     1
102
RTVSPropertyOp26
 70
     1
102
RTVSPropertyOp27
 70
     1
  0
XRECORD
  5
551
102
{ACAD_REACTORS
330
550
102
}
330
550
100
AcDbXrecord
280
     1
102
RTVSPropertyOp0
 70
     1
102
RTVSPropertyOp1
 70
     1
102
RTVSPropertyOp2
 70
     1
102
RTVSPropertyOp3
 70
     1
102
RTVSPropertyOp4
 70
     1
102
RTVSPropertyOp5
 70
     1
102
RTVSPropertyOp6
 70
     1
102
RTVSPropertyOp7
 70
     1
102
RTVSPropertyOp8
 70
     1
102
RTVSPropertyOp9
 70
     1
102
RTVSPropertyOp10
 70
     1
102
RTVSPropertyOp11
 70
     1
102
RTVSPropertyOp12
 70
     1
102
RTVSPropertyOp13
 70
     1
102
RTVSPropertyOp14
 70
     1
102
RTVSPropertyOp15
 70
     1
102
RTVSPropertyOp16
 70
     1
102
RTVSPropertyOp17
 70
     1
102
RTVSPropertyOp18
 70
     1
102
RTVSPropertyOp19
 70
     1
102
RTVSPropertyOp20
 70
     1
102
RTVSPropertyOp21
 70
     1
102
RTVSPropertyOp22
 70
     1
102
RTVSPropertyOp23
 70
     1
102
RTVSPropertyOp24
 70
     1
102
RTVSPropertyOp25
 70
     1
102
RTVSPropertyOp26
 70
     1
102
RTVSPropertyOp27
 70
     1
  0
XRECORD
  5
561
102
{ACAD_REACTORS
330
560
102
}
330
560
100
AcDbXrecord
280
     1
102
RTVSPropertyOp0
 70
     0
102
RTVSPropertyOp1
 70
     0
102
RTVSPropertyOp2
 70
     0
102
RTVSPropertyOp3
 70
     0
102
RTVSPropertyOp4
 70
     0
102
RTVSPropertyOp5
 70
     0
102
RTVSPropertyOp6
 70
     0
102
RTVSPropertyOp7
 70
     0
102
RTVSPropertyOp8
 70
     0
102
RTVSPropertyOp9
 70
     0
102
RTVSPropertyOp10
 70
     0
102
RTVSPropertyOp11
 70
     0
102
RTVSPropertyOp12
 70
     0
102
RTVSPropertyOp13
 70
     0
102
RTVSPropertyOp14
 70
     2
102
RTVSPropertyOp15
 70
     0
102
RTVSPropertyOp16
 70
     0
102
RTVSPropertyOp17
 70
     0
102
RTVSPropertyOp18
 70
     0
102
RTVSPropertyOp19
 70
     0
102
RTVSPropertyOp20
 70
     0
102
RTVSPropertyOp21
 70
     0
102
RTVSPropertyOp22
 70
     0
102
RTVSPropertyOp23
 70
     0
102
RTVSPropertyOp24
 70
     0
102
RTVSPropertyOp25
 70
     0
102
RTVSPropertyOp26
 70
     0
102
RTVSPropertyOp27
 70
     0
  0
XRECORD
  5
559
102
{ACAD_REACTORS
330
558
102
}
330
558
100
AcDbXrecord
280
     1
102
RTVSPropertyOp0
 70
     1
102
RTVSPropertyOp1
 70
     1
102
RTVSPropertyOp2
 70
     1
102
RTVSPropertyOp3
 70
     1
102
RTVSPropertyOp4
 70
     1
102
RTVSPropertyOp5
 70
     1
102
RTVSPropertyOp6
 70
     1
102
RTVSPropertyOp7
 70
     1
102
RTVSPropertyOp8
 70
     1
102
RTVSPropertyOp9
 70
     1
102
RTVSPropertyOp10
 70
     1
102
RTVSPropertyOp11
 70
     1
102
RTVSPropertyOp12
 70
     1
102
RTVSPropertyOp13
 70
     1
102
RTVSPropertyOp14
 70
     1
102
RTVSPropertyOp15
 70
     1
102
RTVSPropertyOp16
 70
     1
102
RTVSPropertyOp17
 70
     1
102
RTVSPropertyOp18
 70
     1
102
RTVSPropertyOp19
 70
     1
102
RTVSPropertyOp20
 70
     1
102
RTVSPropertyOp21
 70
     1
102
RTVSPropertyOp22
 70
     1
102
RTVSPropertyOp23
 70
     1
102
RTVSPropertyOp24
 70
     1
102
RTVSPropertyOp25
 70
     1
102
RTVSPropertyOp26
 70
     1
102
RTVSPropertyOp27
 70
     1
  0
XRECORD
  5
53D
102
{ACAD_REACTORS
330
53C
102
}
330
53C
100
AcDbXrecord
280
     1
102
RTVSPropertyOp0
 70
     1
102
RTVSPropertyOp1
 70
     1
102
RTVSPropertyOp2
 70
     1
102
RTVSPropertyOp3
 70
     1
102
RTVSPropertyOp4
 70
     1
102
RTVSPropertyOp5
 70
     1
102
RTVSPropertyOp6
 70
     1
102
RTVSPropertyOp7
 70
     1
102
RTVSPropertyOp8
 70
     1
102
RTVSPropertyOp9
 70
     1
102
RTVSPropertyOp10
 70
     1
102
RTVSPropertyOp11
 70
     1
102
RTVSPropertyOp12
 70
     1
102
RTVSPropertyOp13
 70
     1
102
RTVSPropertyOp14
 70
     1
102
RTVSPropertyOp15
 70
     1
102
RTVSPropertyOp16
 70
     1
102
RTVSPropertyOp17
 70
     1
102
RTVSPropertyOp18
 70
     1
102
RTVSPropertyOp19
 70
     1
102
RTVSPropertyOp20
 70
     1
102
RTVSPropertyOp21
 70
     1
102
RTVSPropertyOp22
 70
     1
102
RTVSPropertyOp23
 70
     1
102
RTVSPropertyOp24
 70
     1
102
RTVSPropertyOp25
 70
     1
102
RTVSPropertyOp26
 70
     1
102
RTVSPropertyOp27
 70
     1
  0
XRECORD
  5
53F
102
{ACAD_REACTORS
330
53E
102
}
330
53E
100
AcDbXrecord
280
     1
102
RTVSPropertyOp0
 70
     1
102
RTVSPropertyOp1
 70
     1
102
RTVSPropertyOp2
 70
     1
102
RTVSPropertyOp3
 70
     1
102
RTVSPropertyOp4
 70
     1
102
RTVSPropertyOp5
 70
     1
102
RTVSPropertyOp6
 70
     1
102
RTVSPropertyOp7
 70
     1
102
RTVSPropertyOp8
 70
     1
102
RTVSPropertyOp9
 70
     1
102
RTVSPropertyOp10
 70
     1
102
RTVSPropertyOp11
 70
     1
102
RTVSPropertyOp12
 70
     1
102
RTVSPropertyOp13
 70
     1
102
RTVSPropertyOp14
 70
     1
102
RTVSPropertyOp15
 70
     1
102
RTVSPropertyOp16
 70
     1
102
RTVSPropertyOp17
 70
     1
102
RTVSPropertyOp18
 70
     1
102
RTVSPropertyOp19
 70
     1
102
RTVSPropertyOp20
 70
     1
102
RTVSPropertyOp21
 70
     1
102
RTVSPropertyOp22
 70
     1
102
RTVSPropertyOp23
 70
     1
102
RTVSPropertyOp24
 70
     1
102
RTVSPropertyOp25
 70
     1
102
RTVSPropertyOp26
 70
     1
102
RTVSPropertyOp27
 70
     1
  0
XRECORD
  5
541
102
{ACAD_REACTORS
330
540
102
}
330
540
100
AcDbXrecord
280
     1
102
RTVSPropertyOp0
 70
     1
102
RTVSPropertyOp1
 70
     1
102
RTVSPropertyOp2
 70
     1
102
RTVSPropertyOp3
 70
     1
102
RTVSPropertyOp4
 70
     1
102
RTVSPropertyOp5
 70
     1
102
RTVSPropertyOp6
 70
     1
102
RTVSPropertyOp7
 70
     1
102
RTVSPropertyOp8
 70
     1
102
RTVSPropertyOp9
 70
     1
102
RTVSPropertyOp10
 70
     1
102
RTVSPropertyOp11
 70
     1
102
RTVSPropertyOp12
 70
     1
102
RTVSPropertyOp13
 70
     1
102
RTVSPropertyOp14
 70
     1
102
RTVSPropertyOp15
 70
     1
102
RTVSPropertyOp16
 70
     1
102
RTVSPropertyOp17
 70
     1
102
RTVSPropertyOp18
 70
     1
102
RTVSPropertyOp19
 70
     1
102
RTVSPropertyOp20
 70
     1
102
RTVSPropertyOp21
 70
     1
102
RTVSPropertyOp22
 70
     1
102
RTVSPropertyOp23
 70
     1
102
RTVSPropertyOp24
 70
     1
102
RTVSPropertyOp25
 70
     1
102
RTVSPropertyOp26
 70
     1
102
RTVSPropertyOp27
 70
     1
  0
XRECORD
  5
543
102
{ACAD_REACTORS
330
542
102
}
330
542
100
AcDbXrecord
280
     1
102
RTVSPropertyOp0
 70
     1
102
RTVSPropertyOp1
 70
     1
102
RTVSPropertyOp2
 70
     1
102
RTVSPropertyOp3
 70
     1
102
RTVSPropertyOp4
 70
     1
102
RTVSPropertyOp5
 70
     1
102
RTVSPropertyOp6
 70
     1
102
RTVSPropertyOp7
 70
     1
102
RTVSPropertyOp8
 70
     1
102
RTVSPropertyOp9
 70
     1
102
RTVSPropertyOp10
 70
     1
102
RTVSPropertyOp11
 70
     1
102
RTVSPropertyOp12
 70
     1
102
RTVSPropertyOp13
 70
     1
102
RTVSPropertyOp14
 70
     1
102
RTVSPropertyOp15
 70
     1
102
RTVSPropertyOp16
 70
     1
102
RTVSPropertyOp17
 70
     1
102
RTVSPropertyOp18
 70
     1
102
RTVSPropertyOp19
 70
     1
102
RTVSPropertyOp20
 70
     1
102
RTVSPropertyOp21
 70
     1
102
RTVSPropertyOp22
 70
     1
102
RTVSPropertyOp23
 70
     1
102
RTVSPropertyOp24
 70
     1
102
RTVSPropertyOp25
 70
     1
102
RTVSPropertyOp26
 70
     1
102
RTVSPropertyOp27
 70
     1
  0
XRECORD
  5
55D
102
{ACAD_REACTORS
330
55C
102
}
330
55C
100
AcDbXrecord
280
     1
102
RTVSPropertyOp0
 70
     0
102
RTVSPropertyOp1
 70
     0
102
RTVSPropertyOp2
 70
     0
102
RTVSPropertyOp3
 70
     0
102
RTVSPropertyOp4
 70
     0
102
RTVSPropertyOp5
 70
     0
102
RTVSPropertyOp6
 70
     0
102
RTVSPropertyOp7
 70
     0
102
RTVSPropertyOp8
 70
     0
102
RTVSPropertyOp9
 70
     0
102
RTVSPropertyOp10
 70
     0
102
RTVSPropertyOp11
 70
     0
102
RTVSPropertyOp12
 70
     0
102
RTVSPropertyOp13
 70
     0
102
RTVSPropertyOp14
 70
     2
102
RTVSPropertyOp15
 70
     0
102
RTVSPropertyOp16
 70
     0
102
RTVSPropertyOp17
 70
     0
102
RTVSPropertyOp18
 70
     0
102
RTVSPropertyOp19
 70
     0
102
RTVSPropertyOp20
 70
     0
102
RTVSPropertyOp21
 70
     0
102
RTVSPropertyOp22
 70
     0
102
RTVSPropertyOp23
 70
     0
102
RTVSPropertyOp24
 70
     0
102
RTVSPropertyOp25
 70
     0
102
RTVSPropertyOp26
 70
     0
102
RTVSPropertyOp27
 70
     0
  0
XRECORD
  5
557
102
{ACAD_REACTORS
330
556
102
}
330
556
100
AcDbXrecord
280
     1
102
RTVSPropertyOp0
 70
     1
102
RTVSPropertyOp1
 70
     1
102
RTVSPropertyOp2
 70
     1
102
RTVSPropertyOp3
 70
     1
102
RTVSPropertyOp4
 70
     1
102
RTVSPropertyOp5
 70
     1
102
RTVSPropertyOp6
 70
     1
102
RTVSPropertyOp7
 70
     1
102
RTVSPropertyOp8
 70
     1
102
RTVSPropertyOp9
 70
     1
102
RTVSPropertyOp10
 70
     1
102
RTVSPropertyOp11
 70
     1
102
RTVSPropertyOp12
 70
     1
102
RTVSPropertyOp13
 70
     1
102
RTVSPropertyOp14
 70
     1
102
RTVSPropertyOp15
 70
     1
102
RTVSPropertyOp16
 70
     1
102
RTVSPropertyOp17
 70
     1
102
RTVSPropertyOp18
 70
     1
102
RTVSPropertyOp19
 70
     1
102
RTVSPropertyOp20
 70
     1
102
RTVSPropertyOp21
 70
     1
102
RTVSPropertyOp22
 70
     1
102
RTVSPropertyOp23
 70
     1
102
RTVSPropertyOp24
 70
     1
102
RTVSPropertyOp25
 70
     1
102
RTVSPropertyOp26
 70
     1
102
RTVSPropertyOp27
 70
     1
  0
XRECORD
  5
55F
102
{ACAD_REACTORS
330
55E
102
}
330
55E
100
AcDbXrecord
280
     1
102
RTVSPropertyOp0
 70
     0
102
RTVSPropertyOp1
 70
     0
102
RTVSPropertyOp2
 70
     0
102
RTVSPropertyOp3
 70
     0
102
RTVSPropertyOp4
 70
     0
102
RTVSPropertyOp5
 70
     0
102
RTVSPropertyOp6
 70
     0
102
RTVSPropertyOp7
 70
     0
102
RTVSPropertyOp8
 70
     0
102
RTVSPropertyOp9
 70
     0
102
RTVSPropertyOp10
 70
     0
102
RTVSPropertyOp11
 70
     0
102
RTVSPropertyOp12
 70
     0
102
RTVSPropertyOp13
 70
     0
102
RTVSPropertyOp14
 70
     2
102
RTVSPropertyOp15
 70
     0
102
RTVSPropertyOp16
 70
     0
102
RTVSPropertyOp17
 70
     0
102
RTVSPropertyOp18
 70
     0
102
RTVSPropertyOp19
 70
     0
102
RTVSPropertyOp20
 70
     0
102
RTVSPropertyOp21
 70
     0
102
RTVSPropertyOp22
 70
     0
102
RTVSPropertyOp23
 70
     0
102
RTVSPropertyOp24
 70
     0
102
RTVSPropertyOp25
 70
     0
102
RTVSPropertyOp26
 70
     0
102
RTVSPropertyOp27
 70
     0
  0
XRECORD
  5
54F
102
{ACAD_REACTORS
330
54E
102
}
330
54E
100
AcDbXrecord
280
     1
102
RTVSPropertyOp0
 70
     1
102
RTVSPropertyOp1
 70
     1
102
RTVSPropertyOp2
 70
     1
102
RTVSPropertyOp3
 70
     1
102
RTVSPropertyOp4
 70
     1
102
RTVSPropertyOp5
 70
     1
102
RTVSPropertyOp6
 70
     1
102
RTVSPropertyOp7
 70
     1
102
RTVSPropertyOp8
 70
     1
102
RTVSPropertyOp9
 70
     1
102
RTVSPropertyOp10
 70
     1
102
RTVSPropertyOp11
 70
     1
102
RTVSPropertyOp12
 70
     1
102
RTVSPropertyOp13
 70
     1
102
RTVSPropertyOp14
 70
     1
102
RTVSPropertyOp15
 70
     1
102
RTVSPropertyOp16
 70
     1
102
RTVSPropertyOp17
 70
     1
102
RTVSPropertyOp18
 70
     1
102
RTVSPropertyOp19
 70
     1
102
RTVSPropertyOp20
 70
     1
102
RTVSPropertyOp21
 70
     1
102
RTVSPropertyOp22
 70
     1
102
RTVSPropertyOp23
 70
     1
102
RTVSPropertyOp24
 70
     1
102
RTVSPropertyOp25
 70
     1
102
RTVSPropertyOp26
 70
     1
102
RTVSPropertyOp27
 70
     1
  0
XRECORD
  5
555
102
{ACAD_REACTORS
330
554
102
}
330
554
100
AcDbXrecord
280
     1
102
RTVSPropertyOp0
 70
     1
102
RTVSPropertyOp1
 70
     1
102
RTVSPropertyOp2
 70
     1
102
RTVSPropertyOp3
 70
     1
102
RTVSPropertyOp4
 70
     1
102
RTVSPropertyOp5
 70
     1
102
RTVSPropertyOp6
 70
     1
102
RTVSPropertyOp7
 70
     1
102
RTVSPropertyOp8
 70
     1
102
RTVSPropertyOp9
 70
     1
102
RTVSPropertyOp10
 70
     1
102
RTVSPropertyOp11
 70
     1
102
RTVSPropertyOp12
 70
     1
102
RTVSPropertyOp13
 70
     1
102
RTVSPropertyOp14
 70
     1
102
RTVSPropertyOp15
 70
     1
102
RTVSPropertyOp16
 70
     1
102
RTVSPropertyOp17
 70
     1
102
RTVSPropertyOp18
 70
     1
102
RTVSPropertyOp19
 70
     1
102
RTVSPropertyOp20
 70
     1
102
RTVSPropertyOp21
 70
     1
102
RTVSPropertyOp22
 70
     1
102
RTVSPropertyOp23
 70
     1
102
RTVSPropertyOp24
 70
     1
102
RTVSPropertyOp25
 70
     1
102
RTVSPropertyOp26
 70
     1
102
RTVSPropertyOp27
 70
     1
  0
ENDSEC
  0
EOF
